Welcome Guest ( Log In | Register )

Объявления

* gmail.com упорно продолжает считать почту с нас "unsolicited" и отбивает в том числе и письма активации, поэтому просьба использовать альтернативные почтовые ящики.
------------
* gmail.com continues reject all mail from us as "unsolicited" (activation mails too) therefore please use alternate mail servers.
История благодарностей участнику Hroedmar ::: Спасибо сказали: 12056 раз(а)
Дата поста: В теме: За сообщение: Спасибо сказали:
Jul 4 2023, 19:12:52 Громоверж - Издревле (2023)
ЦИТАТА(Faust_Vulkan_16 @ Jul 4 2023, 09:22:18) *
Решил поиграть в Ларса Ульриха? 1488.gif

Ни в коем случае, я же не против mp3 в Сети, да и масштаб несопоставимый)

Кстати, эмпетри эмпетрями, но топикстартер почему-то счёл информацию про физ.носители лишней и тупо её обрезал.

Так вот, держу в курсе: альбом издан отечественным лейблом Der Schwarze Tod в виде шикарного ламинированного 6-панельного дигипака с 12-страничным буклетом с отпечатанной серебром лирикой, а так же польским лейблом Werewolf Promotion в формате обычного CD с 16-страничным буклетом. Им же готовятся издания на двойном виниле и кассетах.

ЦИТАТА(RADeus @ Jul 3 2023, 17:08:31) *
Я привёл аргументы против

А мне, как автору, приведёшь? Можно в личке. Но лучше здесь, на "тинге".
(4) Ainar, apries, Grabarz, RUDACHUR,
Jul 3 2023, 15:34:18 Громоверж - Издревле (2023)
ЦИТАТА(RADeus @ Jul 3 2023, 17:08:31) *
Вообще-то есть правила, и то, что кто-то выложил раньше, ни одного из них не нарушает. Daale действительно вчера писал в модерке про эту инфантильную просьбу. Я привёл аргументы против, провёл релиз и в дальнейшем буду поступать так же.

Каеф 27.gif
То есть автор проекта ничего не имеет против своей музыки в mp3 на Портале, лишь просит "придержать коней" по уважительным причинам до/для авторской раздачи, но оказывается, он просит слишком многого, и права на это никакого не имеет... Ясно-понятно.

Вот подозреваю уже, может что-то личное? (вопрос риторический, ответа не требует)
(7) apries, Grabarz, RUDACHUR, technoboy69, TNARAG, zaramot, ZVI,
Jul 3 2023, 14:48:42 Громоверж - Издревле (2023)
ЦИТАТА(Faust_Vulkan_16 @ Jul 3 2023, 15:47:57) *
Антон, ты реально ЭТО лайкнул?
crazy.gif crazy.gif crazy.gif
https://i122.fastpic.org/big/2023/0703/6d/5...a160f99336d.jpg

Ага) Ну это как антилайк, только добрый - это ж "80-й", тут даже отвечать ничего не надо)
Он даже не удосужился, видимо, понять, что "лоб" там один)

Мда, вообще-то это должно было быть авторской раздачей, просто чуть более поздней по времени, о чём я заранее предупреждал модераторов... Ну, пытался...
Штош, спасибо за их "оперативную реакцию" и "слаженную работу".
Грустно всё это(
(9) apries, Bulldozzzzzzer, Faust_Vulkan_16, Fryz, Hexenmeister, Nomad_AG, RUDACHUR, technoboy69, TNARAG,
Feb 2 2022, 16:02:45 Earthless - Night Parade Of One Hundred Demons (2022)


*Artist: Earthless
*Album: Night Parade Of One Hundred Demons
*Year: 2022
*Genre: Instrumental Psychedelic/Stoner Rock
*Country: United States
*Format: mp3@CBR320kbps
*Size: 147MB

Tracklist:
1. Night Parade Of One Hundred Demons (Part 1) 19:04
2. Night Parade Of One Hundred Demons (Part 2) 22:08
3. Death To The Red Sun 20:27
******************************
Total playing time: 1:01:39




[more=Extended info]"There’s an ancient Japanese legend in which a horde of demons, ghosts and other terrifying ghouls descend upon the sleeping villages once a year. Known as Hyakki Yagyō, or the Night Parade of One Hundred Demons, one version of the tale states that anyone who witnesses this otherworldly procession will die instantly — or be carried off by the creatures of the night. As a result, the villagers hide in their homes, lest they become victims of these supernatural invaders."[/more]

[more=Technical info]
Input File: 01 - Night Parade Of One Hundred Demons, Pt. 1.mp3
Channels : 2
Sample Rate : 48000
Precision : 16-bit
Duration : 00:19:04.27 = 54925056 samples ~ 85820.4 CDDA sectors
File Size : 46.2M
Bit Rate : 323k
Sample Encoding: MPEG audio (layer I, II or III)
Comments :
Title=Night Parade Of One Hundred Demons, Pt. 1
Artist=Earthless
Album=Night Parade Of One Hundred Demons
Tracknumber=01
Year=2022
Genre=Psychedelic Stoner Rock

[/more]

Register
(18) artscald, Ash_1980, caro, chipsgott, csgmnk, fishish, gena, GFW, marilin, Olethros, Ostinato, Reducer, Regnat, Sabbathian, Spunkynut, squall8fr, wreak, партизан,
Nov 9 2021, 18:32:57 Thy Grave - Filth (2021)


*Artist: Thy Grave
*Album: Filth
*Year: 2021
*Genre: Sludge/Doom Metal
*Country: Russian Federation
*Format: mp3@CBR320kbps
*Size: 103MB

Tracklist:
1. The Depth Devourer 07:05
2. Devil From The Void 08:40
3. Approach To Suffering 03:32
4. Fucking Useless Whores 07:43
5. Second Sanctuary 07:41
6. Inhale Above A Child 08:29
******************************
Total playing time: 43:10



[more=Extended info]CD:
Tapes: [/more]

[more=Technical info]
Input File: Thy Grave - Filth - 03 Approach to Suffering.mp3
Channels : 2
Sample Rate : 44100
Precision : 16-bit
Duration : 00:03:32.26 = 9360490 samples = 15919.2 CDDA sectors
File Size : 8.78M
Bit Rate : 331k
Sample Encoding: MPEG audio (layer I, II or III)
Comments :
Title=Approach to Suffering
Artist=Thy Grave
Album=Filth
Tracknumber=3
Year=2021

[/more]

Register

Register
(12) artscald, Ash_1980, Boozer, caro, Hell_Is_Here, HMHamster, julianotidre, Olethros, VALERY, vlad74, Wail, wreak,
Oct 8 2021, 22:02:12 Old Sea And Mother Serpent - Plutonian (2021)
Появились в продаже 6-полосные дигипаки от Careless Records.
По вопросам приобретения пишите лейблу.


В скором времени также будут доступны 4-полосные дигипаки, напечатанные совместно с лейблами БНиЛ и Voron NEST.
(3) Ash_1980, CheCoola, RUDACHUR,
Feb 26 2021, 14:20:54 Пращур - Трощити (2021)


*Artist: Пращур
*Album: Трощити
*Year: 2021
*Genre: Psychedelic/Drone/Doom Metal
*Country: Ukraine
*Format: mp3@CBR320kbps
*Size: 136MB

Tracklist:
1. Дервiш 08:48
2. Хмелесмал 27:44
3. Сульфур 18:57
******************************
Total playing time: 55:29



[more=Extended info]Проект Ковы из Soom

Free download from Bandcamp[/more]

[more=Technical info]
Input File: П Р А Щ У Р - Т Р О Щ И Т И - 01 Д Е Р В І Ш.mp3
Channels : 2
Sample Rate : 44100
Precision : 16-bit
Duration : 00:08:49.01 = 23329253 samples = 39675.6 CDDA sectors
File Size : 21.3M
Bit Rate : 323k
Sample Encoding: MPEG audio (layer I, II or III)
Comments :
Title=Д Е Р В І Ш
Artist=П Р А Щ У Р
Album=Т Р О Щ И Т И
Tracknumber=1
Year=2021

[/more]

Register
(16) Aresson, Ash_1980, infiltrator, lordbathor, marilin, morve, Olethros, Ostinato, randumbum, RUDACHUR, sarcophagus, skidnik, VALERY, varlam4, vlad74, wreak,
Aug 18 2020, 10:52:22 Wombripper - Live At Shallow Grave III Fest [live] (2019)


*Artist: Wombripper
*Album: Live At Shallow Grave III Fest [live]
*Year: 2019
*Genre: Death Metal
*Country: Russian Federation
*Format: mp3@CBR320kbps
*Size: 82MB

Tracklist:
1. Join Undead 03:58
2. Immolation Rites 03:01
3. Frantic Exhumation 03:02
4. Shredded Corpse Remains 02:34
5. Restless 03:17
6. Locked In Iced Coffin 04:58
7. Torn By The Nails 03:16
8. Morbid Abberation 04:45
******************************
Total playing time: 28:51



[more=Technical info]
Input File: Wombripper - Live at Shallow Grave III fest - 04 Shredded Corpse Remains.mp3
Channels : 2
Sample Rate : 44100
Precision : 16-bit
Duration : 00:02:35.07 = 6838631 samples = 11630.3 CDDA sectors
File Size : 6.28M
Bit Rate : 324k
Sample Encoding: MPEG audio (layer I, II or III)
Comments :
Title=Shredded Corpse Remains
Artist=Wombripper
Album=Live at Shallow Grave III fest
Tracknumber=4
Year=2019

[/more]

Register
(11) BERZERK, caro, Hell_Is_Here, infiltrator, JantoHadez, Olethros, Rosen, uk82grind, VALERY, varlam4, wreak,
Aug 16 2020, 21:57:25 Burier - Burier II [demo] (2020)
You can download this demo directly from
(2) Forcerecon1, Rudolfo_Metal,
Nov 15 2019, 08:18:32 From Beyond - One Year [ep] (2012)
Reuploaded
(1) vosmidesijatye,
Nov 3 2019, 19:40:11 Shrinebuilder - Shrinebuilder (2009)
Register
(4) Devastator, eddbuzz, galuche, muskatnuss,
Jul 30 2019, 16:57:19 Cuarzo - Cuarzo (2017)


*Artist: Cuarzo
*Album: Cuarzo
*Year: 2017
*Genre: Psychedelic Stoner/Doom Metal
*Country: Peru
*Format: mp3@CBR320kbps
*Size: 108MB

Tracklist:
1. Sintiendo El Éter 04:50
2. Valhalla 07:14
3. Orgia En Acido 06:03
4. Nympho 04:02
5. Duna Inhóspita 06:07
6. Humo Rojo 07:25
7. Absenta Negra 05:20
8. Energúmeno 03:57
******************************
Total playing time: 44:58




[more=Technical info]
Input File: 08. Energumeno.mp3
Channels : 2
Sample Rate : 44100
Precision : 16-bit
Duration : 00:03:57.18 = 10459726 samples = 17788.6 CDDA sectors
File Size : 9.55M
Bit Rate : 322k
Sample Encoding: MPEG audio (layer I, II or III)
Comments :
Title=Energumeno
Artist=Cuarzo
Album=Cuarzo
Tracknumber=8
Year=2017
Genre=Stoner Rock

[/more]

Register
(13) artscald, Ash_1980, galuche, KVRT, marilin, MEmethuselah, Olethros, p2u, Rosen, Sabbathian, TAKATAEL, VALERY, wreak,
Jul 14 2019, 14:56:00 Neolithic - Born To Suffer [ep] (2014)


*Artist: Neolithic
*Album: Born To Suffer [ep]
*Year: 2014
*Genre: Drone/Sludge/Doom Metal
*Country: United Kingdom
*Format: mp3@CBR320kbps
*Size: 59MB

Tracklist:
1. Born To Suffer 24:28
******************************
Total playing time: 24:28



[more=Technical info]
Input File: Neolithic - Born To Suffer - 01 Born to Suffer.mp3
Channels : 2
Sample Rate : 44100
Precision : 16-bit
Duration : 00:24:28.14 = 64744798 samples = 110110 CDDA sectors
File Size : 58.8M
Bit Rate : 320k
Sample Encoding: MPEG audio (layer I, II or III)
Comments :
Title=Born to Suffer
Artist=Neolithic
Album=Born To Suffer
Tracknumber=1
Year=2014

[/more]

Register
(9) artscald, Lunaris, marilin, Olethros, Ostinato, Razorbladeswaltz, Rosen, stub888, wreak,
Jul 12 2019, 10:28:53 Mortier - Trauma [ep] (2019)


*Artist: Mortier
*Album: Trauma [ep]
*Year: 2019
*Genre: Sludge/Doom Metal
*Country: France
*Format: mp3@CBR320kbps
*Size: 60MB

Tracklist:
1. Trauma 08:42
2. ...Of Lead And Steel 08:32
3. Downfall 07:30
******************************
Total playing time: 24:44



[more=Technical info]
Input File: Mortier - Trauma - 03 Downfall.mp3
Channels : 2
Sample Rate : 44100
Precision : 16-bit
Duration : 00:07:30.58 = 19870754 samples = 33793.8 CDDA sectors
File Size : 18.2M
Bit Rate : 323k
Sample Encoding: MPEG audio (layer I, II or III)
Comments :
Title=Downfall
Artist=Mortier
Album=Trauma
Tracknumber=3
Year=2019

[/more]

Register
(9) artscald, marilin, Olethros, robertho777, Rosen, stub888, stumpheavyrock, VALERY, wreak,
May 16 2019, 08:41:40 Khemmis - Absolution (2015)
ЦИТАТА(Ash_1980 @ May 16 2019, 09:40:37) *
Не пререзальёт никто? Буду очень благодарен.

Держи, уругвайский дядя)
Register
(6) Ash_1980, djurassic, grindtormentor, morbidangelo, Sabbathian, vosmidesijatye,
May 10 2019, 12:05:06 Martyrdöd - Hexhammaren (2019)
ЦИТАТА(Velmi @ May 9 2019, 18:03:47) *
*Genre: Crust Metal

bye.gif (clickable)
(1) Arseniy,
May 6 2019, 12:59:13 Serpent Venom - Carnal Altar (2011)
Reuploaded (new Mediafire link in first post)
(2) LuGaL, thenecromancer,
Apr 9 2019, 20:43:27 Purify - The Grief (2019)


*Artist: Purify
*Album: The Grief
*Year: 2019
*Genre: Blackened Post-Metal/Hardcore
*Country: United States
*Format: mp3@CBR320kbps
*Size: 94MB

Tracklist:
01. Pallor Mortis
02. Livor Mortis
03. Senescence Flesh
04. Wandering Soul
05. You Are Now Bones And Ashes
06. Vultures Upon Your Head
07. Coward’s Funeral (feat. Sven from Aborted)
08. Hellion’s Paradise
09. Upon Your Grave
10. The Grief
******************************
Total playing time: 37:51



[more=Technical info]
Input File: 06 - Vultures Upon Your Head.mp3
Channels : 2
Sample Rate : 44100
Precision : 16-bit
Duration : 00:02:48.06 = 7411358 samples = 12604.4 CDDA sectors
File Size : 7.00M
Bit Rate : 333k
Sample Encoding: MPEG audio (layer I, II or III)
Comments :
Title=Vultures Upon Your Head
Artist=Purify
Album=The Grief
Tracknumber=6/10
Year=2019
Genre=Post-Metal

[/more]

Register
(8) 0x13, Ash_1980, cesar, comradEnemy, Olethros, Ostinato, Rosen, Whitefish,
Feb 28 2019, 19:06:59 Heráldica De Mandrake - No Hay Caminos Cortos A La Libertad (2017)


*Artist: Heráldica De Mandrake
*Album: No Hay Caminos Cortos A La Libertad
*Year: 2017
*Genre: Doom Metal
*Country: Chile
*Format: mp3@CBR320kbps
*Size: 193MB

Tracklist:
1. No Me Inclino Ante Nadie 13:52
2. Mil Noches De Insomnio 14:26
3. El Temple Para Dejar Todo Atrás 10:41
4. La Doctrina De Los Saqueos 19:54
******************************
Total playing time: 58:53



[more=Extended info]Спектр .wav

[/more]

[more=Technical info]
Input File: Heráldica de Mandrake - No hay caminos cortos a la libertad - 03 El temple para dejar todo atrás.mp3
Channels : 2
Sample Rate : 44100
Precision : 16-bit
Duration : 00:10:41.97 = 28310789 samples = 48147.6 CDDA sectors
File Size : 25.8M
Bit Rate : 321k
Sample Encoding: MPEG audio (layer I, II or III)
Comments :
Title=El temple para dejar todo atrás
Artist=Heráldica de Mandrake
Album=No hay caminos cortos a la libertad
Tracknumber=3
Year=2017

[/more]

Register
(9) artscald, Ash_1980, Christfukk, metala, Olethros, quarantine, Rosen, stumpheavyrock, wreak,
Feb 25 2019, 13:13:26 Womb & Disciples Of Mockery - Split [split] (2001)
From the Net, 320kbps:
Register
(7) Blackknot86, Doooomed, nikolay81, Ostinato, Pinhead666, quarantine, Герб,
Feb 22 2019, 14:39:05 Palace In Thunderland - The King Of The Empty Aeon (2019)


Эх, вот бы ещё новый Black Pyramid вернувшийся "Берёзка" запилил...
(2) artscald, Дерсу Узала,
Feb 21 2019, 14:46:32 Dead Witches - The Final Exorcism (2019)
[youtube]Mi66e2dGOzM[/youtube]

Да уж, слава и фирменный саунд EW не дают покоя многим последователям)
(1) artscald,
Feb 18 2019, 12:32:07 Tankograd - Totalitarian (2019)


*Artist: Tankograd
*Album: Totalitarian
*Year: 2019
*Genre: Doom Metal
*Country: Poland
*Format: mp3@CBR320kbps
*Size: 126MB

Tracklist:
1. Ostatni Sen Joachima 05:35
2. Arkhangelsk 09:31
3. Lot Do Kraju 07:08
4. Żelazne Trumny 10:55
5. Mir 10:49
******************************
Total playing time: 43:58



[more=Extended info]Dopelord & Major Kong members[/more]

[more=Technical info]
Input File: Tankograd - Totalitarian - 01 Ostatni Sen Joachima.mp3
Channels : 2
Sample Rate : 44100
Precision : 16-bit
Duration : 00:05:35.09 = 14777513 samples = 25131.8 CDDA sectors
File Size : 13.6M
Bit Rate : 324k
Sample Encoding: MPEG audio (layer I, II or III)
Comments :
Title=Ostatni Sen Joachima
Artist=Tankograd
Album=Totalitarian
Tracknumber=1
Year=2019

[/more]

Register
(18) 0x13, aesteticvice, artscald, Ash_1980, BERZERK, BlazonStone, marilin, metala, metaljosue, Nattfodd, Olethros, quarantine, Rosen, RUDACHUR, Tino, VALERY, wreak, некрософ,
Feb 18 2019, 10:29:38 Marécages - Marais Juana - Une Ode Cannabique [ep] (2019)


*Artist: Marécages
*Album: Marais Juana - Une Ode Cannabique [ep]
*Year: 2019
*Genre: Stoner/Sludge/Doom Metal
*Country: Canada
*Format: mp3@CBR320kbps
*Size: 53MB

Tracklist:
1. Marais Juana 04:20
2. Nauséabong 05:04
3. Cannabysse - Entourbé 04:37
4. Krokodil - Valse Morbide 03:53
5. Sabbouettage, Le Dernier Balbutiement 03:56
******************************
Total playing time: 21:50



[more=Technical info]
Input File: 04. Krokodil - Valse Morbide.mp3
Channels : 2
Sample Rate : 44100
Precision : 16-bit
Duration : 00:03:53.21 = 10284473 samples = 17490.6 CDDA sectors
File Size : 9.49M
Bit Rate : 325k
Sample Encoding: MPEG audio (layer I, II or III)
Comments :
Title=Krokodil - Valse Morbide
Artist=Marécages
Album=Marais Juana - Une Ode Cannabique (EP)
Tracknumber=4
Year=2019
Genre=Doom/Sludge Metal

[/more]

Register
(17) artscald, Ash_1980, Boozer, denver, djsema4, gena, kolar666, marilin, Moonshtook, Olethros, Ostinato, Rosen, Sabbathian, Scorpi, stub888, VALERY, wreak,
Feb 9 2019, 13:24:11 Wulfhound - Wulfhound [ep] (2019)


*Artist: Wulfhound
*Album: Wulfhound [ep]
*Year: 2019
*Genre: Stoner/Doom Metal
*Country: United States
*Format: mp3@CBR320kbps
*Size: 82MB

Tracklist:
1. Introduction 01:19
2. Riddles In The Dark 06:04
3. Death From The West 06:53
4. Nyxborn 05:16
5. Arctic Howls 06:15
6. The Tower 08:14
******************************
Total playing time: 34:01



[more=Technical info]
Input File: Wulfhound - EP - 04 Nyxborn.mp3
Channels : 2
Sample Rate : 44100
Precision : 16-bit
Duration : 00:05:16.83 = 13972203 samples = 23762.2 CDDA sectors
File Size : 12.7M
Bit Rate : 322k
Sample Encoding: MPEG audio (layer I, II or III)
Comments :
Title=Nyxborn
Artist=Wulfhound
Album=EP
Tracknumber=4
Year=2019

[/more]

Register
(7) artscald, djsema4, krmu2, Ostinato, Rosen, SatanicPanzer, VALERY,

55 Pages V   1 2 3 > » 
- Lo-Fi Version Support form
Copyrights and abuse reports form
Time is now: 24th July 2024 - 14:37:01