Welcome Guest ( Log In | Register )

История благодарностей участнику sor ::: Спасибо сказали: 709 раз(а)
Дата поста: В теме: За сообщение: Спасибо сказали:
Dec 28 2021, 14:42:52 Luna Ad Noctum - Sempiternal Consecration (2004)
Register

(1) wreak,
Dec 26 2021, 18:21:05 Reaktor 4 - Reaktor 4 (2009)
Register

(2) kim666, wreak,
Dec 21 2021, 16:26:46 Temnohor - Demo 2004 [demo] (2004)
Register

(3) kim666, UlvhedinGrom, wreak,
Dec 20 2021, 15:07:25 Patisserie - Victorial Austrology [compilation] (2018)


*Artist: Patisserie
*Album: Victorial Austrology [compilation]
*Year: 2018
*Genre: Grindcore/Goregrind
*Country: Japan
*Format: mp3@CBR320kbps
*Size: 40MB

Tracklist:
1. Opening Putraction 00:44
2. Bestoplasic Monstrated Compilation 00:46
3. Cornilactal Munchy Meal 01:16
4. Fomenslav Mentoblitiation 01:11
5. Cleansing of Distentive Bowler Region 00:39
6. Raptious Induceated Laxative Coma 00:27
7. In the Thralls of Lascivating Analation 00:54
8. Ulcereal Torturological Tortural Meatology 01:00
9. Distential Creadilatis 00:56
10. Gestostating Infemuritude 00:45
11. Purfenctious Blatory 01:05
12. Deloavient Renaltes 00:43
13. Mortuary Takeover 00:38
14. Bacterial Cave-in 00:38
15. Sexy and Pustulated 00:37
16. Explasitorent Discurted Reenplagument 00:46
17. Critiating the Thorasting Entricience 00:53
18. Uriquitious Plasmentic Infrusciation 00:38
19. Blotacial Incrediation 00:41
******************************
Total playing time: 15:17

[more=Extended info]1, 9 - 12, 19 : split with Pulverized Necrobrains 2014
2 - 8 : split with Meatal Ulcer & Organs Tortured 2015
13 - 15 : "Genitalial Excisology" 2014
16 - 18 : "Ingesterial Inocurology" 2013[/more]

[more=Technical info]
Input File: 03 Cornilactal munchy meal.mp3
Channels : 2
Sample Rate : 44100
Precision : 16-bit
Duration : 00:01:16.10 = 3356098 samples = 5707.65 CDDA sectors
File Size : 3.05M
Bit Rate : 320k
Sample Encoding: MPEG audio (layer I, II or III)
Comments :
Title=Cornilactal Munchy Meal
Artist=Patisserie
Album=Victorial Austrology
Tracknumber=3/19
Year=2018
Genre=Goregrind
Discnumber=1/1

[/more]

Register
(8) A.L.Rapsod, artscald, caro, METALHUNTER, Olethros, supremo, varlam4, wreak,
Dec 20 2021, 11:51:29 Eternal Tears Of Sorrow - The Seven Goddesses Of Frost/Promo '94 [demo] (1994)


*Artist: Eternal Tears Of Sorrow
*Album: The Seven Goddesses Of Frost/Promo '94 [demo]
*Year: 1994
*Genre: Melodic Death Metal
*Country: Finland
*Format: mp3@CBR128kbps
*Size: 18MB

Tracklist:
1. The Seven Godesses of Frost (Intro) 02:09
2. House of Death 04:46
3. Endless Streams of Time 05:26
4. Corridor 04:59
5. Tab-Lat-Rom (Outro) 02:27
******************************
Total playing time: 19:47

Register
(11) artscald, dulak, Old Vyaine, Olethros, Proteus_666, Reverend, sergsazan, stumpheavyrock, thenecromancer, Wail, zhol,
Dec 12 2021, 17:43:32 Nocturnal Blasphemies - Into The Realm Of Evil (2017)
Register

(1) wreak,
Nov 29 2021, 16:43:31 Stíny Plamenů - Jediný Poskvrněný Přítok (2021)


*Artist: Stíny Plamenů
*Album: Jediný Poskvrněný Přítok
*Year: 2021
*Genre: Black Metal
*Country: Czech Republic
*Format: mp3@VBR259kbps
*Size: 71MB

Tracklist:
1. Klenot bodá do nebes 05:10
2. Zával šedých spisů 05:26
3. V zájmu vyšším zproštěn zákona 04:17
4. Rozdrtit prsty vinným 03:39
5. Požár srdce 04:48
6. Šachtové pole 04:15
7. Nepleťte si víru s náboženstvím 03:30
8. Vojenský přístup 05:13
******************************
Total playing time: 36:18

[more=Technical info]
Input File: Stíny Plamenu - Jediny Poskvrneny Prítok - 02 - Zával Šedých Spisu.mp3
Channels : 2
Sample Rate : 48000
Precision : 16-bit
Duration : 00:05:26.71 = 15682224 samples ~ 24503.5 CDDA sectors
File Size : 10.8M
Bit Rate : 266k
Sample Encoding: MPEG audio (layer I, II or III)
Comments :
Title=Zával Šedých Spisu
Artist=Stíny Plamenu
Album=Jediny Poskvrneny Prítok
Tracknumber=2
Year=2021-00-00
Genre=138

[/more]

Register
(13) artscald, comradEnemy, dermarsoran, Hexer, kim666, Korpse, Olethros, thenecromancer, Vitald, Wail, Wilczygniew Strzygoń, yuratroll, Сварог Барг,
Oct 30 2021, 15:24:42 Diphenylchloroarsine - Subterranean Existential Warfare (2021)


*Artist: Diphenylchloroarsine
*Album: Subterranean Existential Warfare
*Year: 2021
*Genre: Slam/Brutal Death Metal
*Country: International
*Format: mp3@CBR320kbps
*Size: 136MB

Tracklist:
1. Hazardous Excavation Exploration
2. Abhorrent Tunnel Psychosis
3. Toxic Torrential Downpour
4. Ferociously Feasting on Rancid Remains
5. Wartorn Ethological Existence
6. Intermission instrumental
7. Fields of Relentless Pestilence
8. Cries of Agony from the Forlorn Wasteland
9. Massive Lethal Toxicity Exposure
10. Devoured by Radiation Sickness
11. The Battle for Underground Domination
******************************
Total playing time: 59:47

[more=Extended info]Norway / Czechia[/more]

[more=Technical info]
Input File: 02. Abhorrent Tunnel Psychosis.mp3
Channels : 2
Sample Rate : 44100
Precision : 16-bit
Duration : 00:05:16.73 = 13967749 samples = 23754.7 CDDA sectors
File Size : 12.7M
Bit Rate : 320k
Sample Encoding: MPEG audio (layer I, II or III)
Comments :
Title=Abhorrent Tunnel Psychosis
Artist=Diphenylchloroarsine
Album=Subterranean Existential Warfare
Tracknumber=2
Year=2021
Genre=Slamming Brutal Death Metal

[/more]

Register
(12) aa144aa, cancer1974, caro, Hell_Is_Here, julianotidre, Olethros, Purestenchkvlt, supremo, Taakeferd, tim47, vyacheslav, wreak,
Oct 26 2021, 13:46:17 Winterthrone - The Burning Skies [demo] (2002)
Register

(1) thenecromancer,
Aug 21 2021, 12:15:31 Kataxu & Necator - Kataxu/Necator [split] (2008)
Register

(1) thenecromancer,
Aug 15 2021, 11:49:21 Fata Morgana - Devět Bran (2015)
Register

(1) after21allD,
Jul 29 2021, 16:58:37 Mortal Fear - Messenger Of Pain [demo] (2002)
Register

(4) GorAtheist, Proteus_666, thenecromancer, wanderer73,
Jun 19 2021, 13:47:10 Schismopathic - Kharkharamapathic Regurgitator [demo] (1989)
Register

(1) wreak,
Jun 3 2021, 10:56:18 Colporrhaphia - Death Coiting [demo] (1993)
Register

(3) thenecromancer, Wail, Xtohar,
May 31 2021, 15:54:08 Krabator - Breath Of Death [demo] (1988)
Register
(3) thenecromancer, Xtohar, Z28517,
Apr 17 2021, 13:49:59 Love History - K.Y.T.I.C.E. [single] (2008)
Register

(7) kimkayoung, Lucju, Lux, quarantine, stumpheavyrock, thenecromancer, Veggr,
Apr 10 2021, 13:27:41 Brendon Small - Brendon Small’s Galaktikon (2012)
Register

(3) BuckSatanII, infiltrator, stumpheavyrock,
Sep 23 2020, 17:11:27 Morbid Insulter - Funeral Mysticism [best of/compilation] (2012)
Register
(3) ITNOR, Wail, Варяг,
Jul 30 2020, 14:40:33 Eledhel - Vize Chaosu [demo] (2003)
Register

(2) kim666, thenecromancer,
Jul 27 2020, 11:30:35 Jeer - Burde Of Life [demo] (2011)
Register

(1) thenecromancer,
Jul 26 2020, 14:37:09 Abbey Ov Thelema - Liber DCLXVI (2013)
Register

(1) kimkayoung,
Jul 13 2020, 15:05:05 Sirin - Moja Otčina/My Fatherland (2009)
Register
(1) dermarsoran,
Jun 27 2020, 14:57:26 Silva Nigra - Chlad Noci (2002)
Register

(3) thenecromancer, vasiljev_sergej, wreak,
May 23 2020, 12:59:35 Revenge - Strike.Smother.Dehumanize (2020)
Register

(4) boby9052, infiltrator, MMMMM, Zaephar,
May 10 2020, 12:49:18 Candle - The Keeper's Curse (2018)
Register

(3) infiltrator, smes, thenecromancer,

6 Pages V   1 2 3 > » 
- Lo-Fi Version Support form
Copyrights and abuse reports form
Time is now: 25th January 2022 - 18:37:14