Welcome Guest ( Log In | Register )

История благодарностей участнику sor ::: Спасибо сказали: 636 раз(а)
Дата поста: В теме: За сообщение: Спасибо сказали:
Jul 29 2021, 16:58:37 Mortal Fear - Messenger Of Pain [demo] (2002)
Register

(3) GorAtheist, thenecromancer, wanderer73,
Jun 19 2021, 13:47:10 Schismopathic - Kharkharamapathic Regurgitator [demo] (1989)
Register

(1) wreak,
Jun 3 2021, 10:56:18 Colporrhaphia - Death Coiting [demo] (1993)
Register

(3) thenecromancer, Wail, Xtohar,
May 31 2021, 15:54:08 Krabator - Breath Of Death [demo] (1988)
Register
(3) thenecromancer, Xtohar, Z28517,
Apr 17 2021, 13:49:59 Love History - K.Y.T.I.C.E. [single] (2008)
Register

(6) kimkayoung, Lucju, Lux, stumpheavyrock, thenecromancer, Veggr,
Apr 10 2021, 13:27:41 Brendon Small - Brendon Small’s Galaktikon (2012)
Register

(3) BuckSatanII, infiltrator, stumpheavyrock,
Sep 23 2020, 17:11:27 Morbid Insulter - Funeral Mysticism [best of/compilation] (2012)
Register
(3) ITNOR, Wail, Варяг,
Jul 30 2020, 14:40:33 Eledhel - Vize Chaosu [demo] (2003)
Register

(2) kim666, thenecromancer,
Jul 27 2020, 11:30:35 Jeer - Burde Of Life [demo] (2011)
Register

(1) thenecromancer,
Jul 26 2020, 14:37:09 Abbey Ov Thelema - Liber DCLXVI (2013)
Register

(1) kimkayoung,
Jul 13 2020, 15:05:05 Sirin - Moja Otčina/My Fatherland (2009)
Register
(1) dermarsoran,
Jun 27 2020, 14:57:26 Silva Nigra - Chlad Noci (2002)
Register

(3) thenecromancer, vasiljev_sergej, wreak,
May 23 2020, 12:59:35 Revenge - Strike.Smother.Dehumanize (2020)
Register

(4) boby9052, infiltrator, MMMMM, Zaephar,
May 10 2020, 12:49:18 Candle - The Keeper's Curse (2018)
Register

(3) infiltrator, smes, thenecromancer,
May 1 2020, 12:03:53 Umbrtka - The Hand Of Nothingness (2003)
Register

(3) kimkayoung, varg-38ru, varlam4,
Apr 26 2020, 12:01:18 Root - The Trial [demo] (1989)
Register

(2) infiltrator, thenecromancer,
Apr 10 2020, 10:45:26 Inner Fear - Akhu (2000)
Register

Register

(3) ALBIGON, kimkayoung, Lucju,
Apr 4 2020, 13:28:11 Dark Storm - Hell Satan Blasphemy (2006)
Register

(2) dvlz, Pinhead666,
Apr 3 2020, 15:06:43 Dark Storm - Infernal Tyrant (2005)
Register
(2) dvlz, wgs73,
Feb 9 2020, 14:01:34 Debustrol - Válka (2016)
Register

(2) Antichrist, infiltrator,
Feb 2 2020, 12:21:26 Isacaarum - Retrorgy (2018)


*Artist: Isacaarum
*Album: Retrorgy
*Year: 2018
*Genre: Black/Death Metal/Grindcore
*Country: Czech Republic
*Format: mp3@CBR320kbps
*Size: 54MB

Tracklist:
1. XXX-Rapist Goregasm 02:50
2. Bitchbrigade 02:06
3. Integrated Vulva Hacker 03:28
4. Mao-Sochism 01:42
5. Cumshot Combat 02:44
6. Arts of Farts 02:16
7. Teenage Cunt Powerplay 02:10
8. Vagina Panzerfaust 01:47
9. Clyster Squad 02:12
******************************
Total playing time: 21:15

[more=Extended info]Re-recording of selected songs from albums Curbed (2000) and Cunt Hackers (2002).[/more]

[more=Technical info]
Input File: Isacaarum - Retrorgy (320) - 02. Bitchbrigade.mp3
Channels : 2
Sample Rate : 44100
Precision : 16-bit
Duration : 00:02:06.02 = 5557658 samples = 9451.8 CDDA sectors
File Size : 5.04M
Bit Rate : 320k
Sample Encoding: MPEG audio (layer I, II or III)
Comments :
Title=Bitchbrigade
Artist=Isacaarum
Album=Retrorgy (320)
Tracknumber=02
Year=2018
Genre=9

[/more]

Register
(2) infiltrator, METALHUNTER,
Feb 1 2020, 18:05:29 Tudor - 1553-1991 [best of/compilation] (2005)
Register

(8) Antichrist, infiltrator, lawronchik, METALHUNTER, Rodin, varlam4, Wail, wendigo,
Jan 15 2020, 23:49:22 Gallhammer - The End (2011)
Register

(6) Antichrist, infiltrator, SaintVitus, thenecromancer, varlam4, Wail,
Jan 11 2020, 12:09:25 Sznur - Zabić Się Będąc Martwym (2019)


*Artist: Sznur
*Album: Zabić Się Będąc Martwym
*Year: 2019
*Genre: Black Metal
*Country: Poland
*Format: mp3@CBR320kbps
*Size: 81MB

Tracklist:
1. Wieszak dla skóry 06:47
2. Likwidator rodziny 07:52
3. Zdychaj chuju 06:32
4. Zabić się będąc martwym 08:18
5. Dom bez okien 05:32
******************************
Total playing time: 35:01

[more=Technical info]
Input File: 01-Wieszak dla skóry.mp3
Channels : 2
Sample Rate : 44100
Precision : 16-bit
Duration : 00:06:47.70 = 17979702 samples = 30577.7 CDDA sectors
File Size : 16.3M
Bit Rate : 320k
Sample Encoding: MPEG audio (layer I, II or III)
Comments :
Title=AudioTrack 1
Tracknumber=1

[/more]

Register
(37) 1968_janeart, AlexSmith, Antichrist, ASkyThatBurns, atavist, autumnwood, Boozer, Cosmic_Sorcerer, Frozenkult, FuneralWolf, GorAtheist, Hell_Is_Here, Ildjarn, Indamage, infiltrator, judaz, kim666, LEGION69, lestllk, nsk2008, obituarydark, Olethros, robertho777, Rosen, satanist666, SilentNidhogg, smes, squall8fr, TDM, Tyrone, VALERY, varlam4, vasiljev_sergej, Wilczygniew Strzygoń, wreak, Козлотролль, Сварог Барг,
Dec 20 2019, 22:20:53 Praselizer - Fæcal Addiction (2019)


*Artist: Praselizer
*Album: Fæcal Addiction
*Year: 2019
*Genre: Goregrind
*Country: Czech Republic
*Format: mp3@CBR320kbps
*Size: 61MB

Tracklist:
01. Illicit Shopping of Juvenile Necrophile at a Local Cemetery
02. Firehose Anal Blast
03. Clitoris Masturbation of a Dead Swine in a High Rate of Decomposition on a Roof of Latin Church Vicary
04. Faecal Addiction
05. Vaginal Secret Expectoration
06. Sacral Excrement - Vicar's Pea Soup
07. Shit in a Wild Boar's Rectum Whipped by Hunters Penises in the Greendale
08. Concrete Penis Violation Assault
09. Swine Flu
10. Freshly Splattered Plasma TV During Watching a 3D Porno
11. A Young Japanese Girl Likes to Shit into a Neck of Headless Torso of a Tortured Mexican
12. Anus Analus
13. Faggot Roaster of Blue Oyster
14. Dancing on Two Cocks
15. Rectal Destroyer
16. Felching Own Semen Out of a Hog-queen's Cunt
17. Mr. Stinky
******************************
Total playing time: 26:35

[more=Technical info]
Input File: Praselizer - Fæcal Addiction (320) - 01. Illicit Shopping of Juvenile Necrophile at a Local Cemetery.mp3
Channels : 2
Sample Rate : 44100
Precision : 16-bit
Duration : 00:01:49.75 = 4839931 samples = 8231.18 CDDA sectors
File Size : 4.39M
Bit Rate : 320k
Sample Encoding: MPEG audio (layer I, II or III)
Comments :
Title=Illicit Shopping of Juvenile Necrophile at a Local Cemetery
Artist=Praselizer
Album=Fæcal Addiction (320)
Tracknumber=01
Year=2019
Genre=9

[/more]

Register
(16) atavist, carnegrinder, DiegoMassakre, GorAtheist, infiltrator, jollo, K-61082, kipelov999, METALHUNTER, morbidangelo, Olethros, Rosen, RotAnus, satanist666, varlam4, wreak,

6 Pages V   1 2 3 > » 
- Lo-Fi Version Support form
Copyrights and abuse reports form
Time is now: 2nd August 2021 - 14:17:09