Welcome Guest ( Log In | Register )

История благодарностей участнику AlexCrazy ::: Спасибо сказали: 1933 раз(а)
Дата поста: В теме: За сообщение: Спасибо сказали:
Feb 17 2020, 19:21:37 Degoryen - Samorost (2017) (1) avather,
Feb 9 2020, 20:21:08 Sardonic Wrath - Мавзӯъ Дар Бораи Ҷодугарони Заминҳои Қадимии Тоҷикистон [ep] (2020) (1) Battaleon,
Feb 3 2020, 20:41:37 Solhverv - Offerdalen (2011)
ЦИТАТА
Side A features previously unreleased tracks from 1997, all instrumental, except for track A6, which is a cover of Bathory.
Side B features three radio programs/interviews with Solhverv/Fallen Angel on DR (Danmarks Radio).

альбом хороший у них был..... а это что-то такое для редких фанатов
(2) infiltrator, Wail,
Jan 29 2020, 08:46:27 Mulla - مَوْلَى (2020)
ЦИТАТА

*Country: Iraq


ЦИТАТА(Dmitry1977 @ Jan 29 2020, 08:22:01) *
Даже иранское происхождение своей экзотичностью не добавляет баллов. Тонны таких музыкантов, тонны факториал. Нам интересно другое )


1488.gif
https://sun9-50.userapi.com/c857324/v857324463/c721b/xVg86fnnR9g.jpg
(4) 6666666, garmonbozia, infiltrator, plfan93,
Jan 23 2020, 13:46:40 Mortiis - Spirit Of Rebellion (2020)
нет в данном случае ни industrial, ни metal, ни industrial metal smile1.gif
это перезаписанный Ånden som gjorde opprør, так что тут dark symphonic ambient
и на кой хрен оно разбито на кучу треков, когда на альбоме их 2?
(1) Occultas,
Jan 16 2020, 14:41:59 Svarttjern - Shame Is Just A Word (2020)
(2) Andrew, atavist,
Jan 15 2020, 20:44:45 Brujeria - Amaricon Czar [single] (2019)
ЦИТАТА(Dargaud @ Jan 15 2020, 21:40:27) *
Теперь аж интересно, о чем во втором треке поется hmm.gif

https://en.wikipedia.org/wiki/Alextime
[youtube]TQd_45W_kEM[/youtube]
(3) boby9052, Lux, Shadechaser,
Jan 11 2020, 18:59:45 Sznur - Zabić Się Będąc Martwym (2019)
(3) garmonbozia, infiltrator, дивин,
Dec 28 2019, 18:16:56 Oss Nebes - Миф (2019)
Oss - это такой большой полосатый muh smile1.gif
(1) Razorbladeswaltz,
Dec 27 2019, 04:53:11 Eos & Malebranche - Split [split] (2019)
(1) squall8fr,
Dec 21 2019, 22:40:59 Черностоп - Голоса Холодных Ветров (2018)
ЦИТАТА(RUSP73 @ Dec 21 2019, 23:18:24) *
Черностоп - это про негров?

это чёрный красностоп smile1.gif)
https://www.smartwineshop.ru/media/КВ246_2.jpg
(3) infiltrator, RUSP73, russ777,
Dec 19 2019, 16:57:01 Les Bâtards Du Nord - Racines Nordik (2018)


*Artist: Les Bâtards Du Nord
*Album: Racines Nordik
*Year: 2018
*Genre: Viking Folk
*Country: Canada
*Format: mp3@CBR320kbps
*Size: 124MB

Tracklist:
1. Racines nordik 04:17
2. Yggdrasil, le temple de la mémoire 06:32
3. Le calme avant la tempête 04:09
4. Bois d'poêle 03:45
5. Charpentiers naval 04:32
6. La Chevauchée 05:20
7. Svartalfheim, la valse des nains 04:42
8. Le branle d'écosse 03:57
9. Chez nous c'est comme ça! 03:26
10. Pain d'fesse 04:25
11. La montagne des trolls 04:32
12. Le chant d'honneur 09:07
******************************
Total playing time: 58:44



[more=Technical info]
Input File: 02 Yggdrasil, Le Temple de la Mémoire.mp3
Channels : 2
Sample Rate : 44100
Precision : 16-bit
Duration : 00:06:32.85 = 17324861 samples = 29464 CDDA sectors
File Size : 15.8M
Bit Rate : 322k
Sample Encoding: MPEG audio (layer I, II or III)
Comments :
Title=Yggdrasil, Le Temple de la Mémoire
Artist=Les Bâtards Du Nord
Album=Racines Nordik
Tracknumber=2
Year=2018
Genre=pagan folk

[/more]

Register
(5) A.L.Rapsod, Cartman223, DMIYUR, Olethros, RUDACHUR,
Dec 13 2019, 14:49:48 Arkona - Age Of Capricorn (2019)
ЦИТАТА(6666666 @ Dec 12 2019, 19:48:36) *
Потому что это не правильная Аркона.

это единственная правильна Arkona, и существует на 10 лет дольше, чем московское недоразумение.....
(6) garmonbozia, infiltrator, isvili, Kazoth, mondblut, Moonshtook,
Dec 9 2019, 11:42:19 Mørkt - In The Loneliness Of The Abyss (2019)
ни атмосферика, ни симфоника..... унылое псевдопрогрессивное нипоймичто....
(1) Shadechaser,
Dec 6 2019, 12:21:33 NEDXXX - NEDXXX (2019)
судя по написанному на бандкампе
ЦИТАТА
You get 8 tracks now (streaming via the free Bandcamp app and also available as a high-quality download in MP3, FLAC and more), plus the complete album the moment it’s released.

это не полноценная версия албома.....
(2) infiltrator, Occultas,
Nov 20 2019, 14:24:20 Dolorangst - Катастрофа Внутри [ep] (2019)
а внутре у ней неонка.... (С) smile1.gif
(2) infiltrator, vikt11,
Nov 8 2019, 11:57:48 King Diamond - Masquerade Of Madness [single] (2019)
(4) Lux, Shadowman, Veligor, vosmidesijatye,
Oct 22 2019, 11:17:46 Fanebærer - Slagne Sagn [ep] (2019)
(2) ahp, rickzammuto,
Sep 21 2019, 18:45:03 Nikita Kapernaumov - While She Was Embracing Her Spring (2019)
ЦИТАТА
сам я пока всё сказал, щас тяжело новые тексты песать.

да, русский язык для начала неплохо бы выучить smile1.gif)
(1) Ghostb,
Sep 13 2019, 10:44:58 Dold Vorde Ens Navn - Gjengangere I Hjertets Mørke [ep] (2019)
приблэкованный трэш точнее будет....
(1) DarkHorde,
Sep 12 2019, 21:10:06 Solbrud - Vemod (2017)
найдено на просторах....
Register
(1) hellbibber,
Aug 22 2019, 11:56:33 Edda - Edda Művek 6 (1986)
никакой это не хэвиметал.... хард рок в лучшем случае, не более
(1) Ironcast,
Aug 9 2019, 20:28:21 Iku-Turso - Storm Over Isengard [ep] (2019)
(2) Old Vyaine, Tranenschwer,
Aug 4 2019, 12:22:25 Funeral - Black Flame Of Unholy Hate [compilation] (2017)
Интересно, почему Funeral? Большинство этого они записывали уже как Kristallnacht...
(1) smysl,
Jul 21 2019, 21:20:47 No Point In Living - Unhappy Birthday [single] (2018) (5) ErikGoth, Foneg, infiltrator, Shadechaser, vosmidesijatye,

15 Pages V   1 2 3 > » 
- Lo-Fi Version Support form
Copyrights and abuse reports form
Time is now: 28th February 2020 - 10:39:54