Welcome Guest ( Log In | Register )

История благодарностей участнику VLADISLAV_V_K ::: Спасибо сказали: 6918 раз(а)
Дата поста: В теме: За сообщение: Спасибо сказали:
Jan 17 2022, 22:19:29 Sekoria - Seelenwanderung (2022)
Spotify
Sekoria

ЦИТАТА(isvili @ 16th January 2022 - 18:58:19) *
может у кого LOSSLESS есть

FLAC tracks
Register
(2) numbnose, Olethros,
Dec 18 2021, 19:52:04 Thalarion - Towards The Obscure Slumberland (1996)
mp3@320 громкая и глухая, спектры до 16 кГц (ИМХО из mp3@128 громкость подняли до безобразия)
Register

mp3@VBR ~190 понравилась больше
Register
(2) stumpheavyrock, Veggr,
Dec 10 2021, 20:10:12 Thalarion - Dying On The Scorched Plains (2021)
FLAC tracks
Register
(6) AHBAnep, isvili, k.eight.a, Leo3, Olethros, Shadowcry,
Nov 30 2021, 21:00:39 Septic Cemetery - Diabolos Rebellion [ep] (1997)
mp3@320
Register
(4) Carcharoth, James817, stumpheavyrock, wgs73,
Nov 21 2021, 20:41:57 Nightland - The Great Nothing (2021)
FLAC tracks
Register
(1) JPV,
Oct 29 2021, 18:11:39 Force Of Darkness - Twilight Of Dark Illumination (2021)
FLAC tracks
Register
(3) nemx, Veggr, wanderer73,
Oct 27 2021, 20:00:26 MAYAN: "Metal Night at the Opera" EP anyone?
ЦИТАТА(kimkayoung @ 25th October 2021 - 21:54:10) *
Oh, my God!!! Thank you soooo much!!!

Thank you too. Nice music. 9.gif
(1) kimkayoung,
Oct 23 2021, 20:07:24 MAYAN: "Metal Night at the Opera" EP anyone?
kimkayoung,
Hi!
Enjoy!
mp3@320
Register
(3) kimkayoung, legion01, thenecromancer,
Oct 23 2021, 18:12:30 Destinity - In Excelsis Dementia (2004)
APE img+cue+log+scans by KRAGOTH
Register

APE-rip mp3@320
Register
(2) kimkayoung, wreak,
Oct 15 2021, 18:06:19 Force Of Darkness - Twilight Of Dark Illumination (2021)


*Artist: Force Of Darkness
*Album: Twilight Of Dark Illumination
*Year: 2021
*Genre: Black/Death/Thrash Metal
*Country: Chile
*Format: mp3@CBR320kbps
*Size: 93MB

Tracklist:
01. Retribution of the Crowned Chaos 04:36
02. Absolute Verb of Chaos and Darkness 03:37
03. Sons of Hypocrisy 03:59
04. Athame's Wrath 03:36
05. Genesis of Evil 05:30
06. Metempsychosis 02:28
07. Choronzon's Desire 04:05
08. Templi Serpens 04:56
09. Darkness Shall Prevail 07:50
******************************
Total playing time: 40:37




[more=Extended info][youtube]7NXT4RWhcBU[/youtube]

Lineup:
Necrohell Drums
Seb Armageddon Guitars
Nabucodonosor III Vocals, Bass

All thanks to Veggr[/more]

[more=Technical info]
Input File: 01-Retribution of the Crowned Chaos.mp3
Channels : 2
Sample Rate : 44100
Precision : 16-bit
Duration : 00:04:37.13 = 12221213 samples = 20784.4 CDDA sectors
File Size : 11.1M
Bit Rate : 320k
Sample Encoding: MPEG audio (layer I, II or III)
Comments :
Title=Retribution of the Crowned Chaos
Artist=Force of Darkness
Album=Twilight of Dark Illumination
Tracknumber=1
Year=2021
Genre=Black/Death/Thrash Metal

[/more]

Register
(31) AHBAnep, artscald, boby9052, Boozer, caro, denver, Hell_Is_Here, kauyumari, korovakaska, lopuh21, metala, METALHUNTER, metaljosue, murder_seron, nemx, nord6666, oldvarg, Olethros, Ostinato, rebornflms95, sergsazan, stumpheavyrock, supremo, titorrante, VALERY, varlam4, Veggr, Victim of fate, wanderer73, wgs73, wreak,
Oct 14 2021, 17:16:38 Leif - Nardol [ep] (2019)
FLAC tracks
Register
(3) Marek, Olethros, wreak,
Oct 14 2021, 17:16:03 Leif - Gate [ep] (2019)
FLAC tracks
Register
(3) Marek, Olethros, wreak,
Oct 13 2021, 18:31:05 Leif - Nardol [ep] (2019)


*Artist: Leif
*Album: Nardol [ep]
*Year: 2019
*Genre: Melodic Black Metal
*Country: Germany
*Format: mp3@CBR320kbps
*Size: 44MB

Tracklist:
01. Distance 07:12
02. Rise 05:08
03. Mountain 07:01
******************************
Total playing time: 19:21





[more=Extended info][youtube]zS0Pej0e4wM[/youtube]

[youtube]4-ckdmyxF2s[/youtube]

[youtube]SL-4PGV-AF4[/youtube]


Released May 22, 2019

***FLAC-Rip***[/more]

[more=Technical info]
Input File: 01-Distance.mp3
Channels : 2
Sample Rate : 44100
Precision : 16-bit
Duration : 00:07:12.85 = 19088685 samples = 32463.8 CDDA sectors
File Size : 17.3M
Bit Rate : 320k
Sample Encoding: MPEG audio (layer I, II or III)
Comments :
Title=Distance
Artist=Leif
Album=Nardol
Tracknumber=1
Year=2019
Genre=Melodic Black Metal

[/more]

Register
(12) artscald, caro, kim666, Mogozoz, oldvarg, Olethros, Reverend, sergsazan, varlam4, vasiljev_sergej, wreak, zhol,
Oct 13 2021, 18:26:58 Leif - Gate [ep] (2019)


*Artist: Leif
*Album: Gate [ep]
*Year: 2019
*Genre: Melodic Black Metal
*Country: Germany
*Format: mp3@CBR320kbps
*Size: 34MB

Tracklist:
01. The Gate 05:19
02. Into the Storm 04:36
03. Ruine 04:48
******************************
Total playing time: 14:43





[more=Extended info][youtube]fTPYw7GPRmE[/youtube]

Released July 5, 2019

***FLAC-Rip*[/more]

[more=Technical info]
Input File: 01-the Gate.mp3
Channels : 2
Sample Rate : 44100
Precision : 16-bit
Duration : 00:05:19.97 = 14110589 samples = 23997.6 CDDA sectors
File Size : 12.8M
Bit Rate : 320k
Sample Encoding: MPEG audio (layer I, II or III)
Comments :
Title=the Gate
Artist=Leif
Album=Gate
Tracknumber=1
Year=2019
Genre=Melodic Black Metal

[/more]

Register
(12) artscald, caro, kim666, Mogozoz, oldvarg, Olethros, Reverend, sergsazan, varlam4, vasiljev_sergej, wreak, zhol,
Oct 12 2021, 20:58:33 Nahtram - An Ominous Journey (2018)
FLAC tracks
Register
(1) wreak,
Oct 11 2021, 15:20:18 Brundarkh - Haunted Worlds [ep] (2021)


*Artist: Brundarkh
*Album: Haunted Worlds [ep]
*Year: 2021
*Genre: Symphonic/Melodic Death Metal
*Country: South Africa
*Format: mp3@CBR320kbps
*Size: 39MB

Tracklist:
01. Through The Mist They Come 00:37
02. Bells Of The Drowned 03:09
03. Wraith Dominion (Remastered) 04:12
04. The Price Of Immortality 01:02
05. Tower Of Blood 03:53
06. Wraith Dominion (Alternate mix) 04:12
******************************
Total playing time: 17:05



Preview 3

Preview 5

[more=Extended info][youtube]-2plIipQfhY[/youtube]

[youtube]Yc5lCU4IbBQ[/youtube]

Lineup:
Caleb Bingham Bass, Drums, Vocals (clean)
Heino Brand Guitars, Vocals (harsh)

Стиль взят с архивов, за точность не ручаюсь.[/more]

[more=Technical info]
Input File: 02-Bells of the Drowned.mp3
Channels : 2
Sample Rate : 44100
Precision : 16-bit
Duration : 00:03:09.50 = 8356862 samples = 14212.4 CDDA sectors
File Size : 7.58M
Bit Rate : 320k
Sample Encoding: MPEG audio (layer I, II or III)
Comments :
Title=Bells of the Drowned
Artist=Brundarkh
Album=Haunted Worlds
Tracknumber=2
Year=2021
Genre=Symphonic/Melodic Death Metal

[/more]

Register
(14) artscald, caro, Druidir, julianotidre, Lukittaz, Mogozoz, oldvarg, Olethros, sergsazan, varlam4, Victim of fate, wreak, zhol, Сварог Барг,
Oct 6 2021, 13:36:39 Daemonicium - Through Time And Death (2004)
FLAC tracks
Register
(3) Lucju, thenecromancer, wreak,
Oct 4 2021, 20:59:00 Aeternitas - Rappacinis Tochter - Gesamtwerk (2009)
mp3@320
Register
(2) kimkayoung, wreak,
Oct 4 2021, 20:38:41 Eldiarn - Безудержное Счастье (2016)
FLAC tracks
Register
(1) wreak,
Sep 30 2021, 18:03:59 Molot Vedim - Asylum (2004)
FLAC img+cue
Register
(2) MortSathynr, wreak,
Sep 1 2021, 18:16:39 Vespercellos - Cellotronic (2016)
FLAC tracks
Register
(1) Olethros,
Aug 31 2021, 20:46:52 Vespercellos - Cellotronic (2016)


*Artist: Vespercellos
*Album: Cellotronic
*Year: 2016
*Genre: Cello Rock
*Country: Russian Federation
*Format: mp3@CBR320kbps
*Size: 88MB

Tracklist:
01. Интерлюдия I
02. Первый сон Цинцинната
03. Второй сон Цинцинната
04. Третий сон Ц.
05. Что логично, четвертый сон Ц-та
06. Интерлюдия 2
07. Тоска по Буэнос-Айресу
08. Выходные в Монтевидео
09. Мой космос
10. Восьмой сон
11. Свет
******************************
Total playing time: 38:31

Preview 1
Preview 2
Preview 3

Preview 5

[more=Extended info][youtube]acGWFF5yhgY&list=PL5nUoP9pUkZaBlnB_i3_ajQB-B8tido9H[/youtube]

[youtube]XkWP3y_8l7o[/youtube]

Состав:
Ирина Rishafox Львова - электро-виолончель.
Наталья Хмелевская - акустическая виолончель.
Таисия Кислякова - электро-виолончель
Дмитрий Соколецкий - барабаны
Александр Ситушкин - бас-гитара


***FLAC-Rip***[/more]

[more=Technical info]
Input File: 02-Первый сон Цинцинната.mp3
Channels : 2
Sample Rate : 44100
Precision : 16-bit
Duration : 00:04:07.55 = 10917087 samples = 18566.5 CDDA sectors
File Size : 9.90M
Bit Rate : 320k
Sample Encoding: MPEG audio (layer I, II or III)
Comments :
Title=Первый сон Цинцинната
Artist=Vespercellos
Album=Cellotronic
Tracknumber=2
Year=2016
Genre=Cello Rock

[/more]

Register
(3) Cartman223, gwar, Olethros,
Aug 31 2021, 17:53:00 Witcher - Summernight Melancholy [ep] (2021)
FLAC tracks
Register
(4) Hexer, Lucju, vasiljev_sergej, wreak,
Aug 30 2021, 20:43:00 Witcher - Summernight Melancholy [ep] (2021)


*Artist: Witcher
*Album: Summernight Melancholy [ep]
*Year: 2021
*Genre: Atmospheric Black Metal
*Country: Hungary
*Format: mp3@CBR320kbps
*Size: 50MB

Tracklist:
01. Summernight Melancholy 05:52
02. Illa Tiðandi (Burzum cover) 12:00
03. Over Ødemark (Wongraven cover) 03:48
******************************
Total playing time: 21:40


Preview 2



[more=Extended info][youtube]7WxDlByd5V0[/youtube]

Special ambient/dungeon synth EP in homage to the atmosphere of the summer evenings...

Summernight Melancholy EP was recorded summer 2021.
Engineered and mixed by WitcheR at Vrag’ Forest Studio 2021.
Cover photo by Nóra Wülfinger.
credits
released August 8, 2021

Lineup:
Roland Neubauer Drum programming, Guitars, Vocals
Karola Gere Keyboards


***FLAC-Rip***[/more]

[more=Technical info]
Input File: 01-Summernight Melancholy.mp3
Channels : 2
Sample Rate : 44100
Precision : 16-bit
Duration : 00:05:52.10 = 15527654 samples = 26407.6 CDDA sectors
File Size : 14.1M
Bit Rate : 320k
Sample Encoding: MPEG audio (layer I, II or III)
Comments :
Title=Summernight Melancholy
Artist=WitcheR
Album=Summernight Melancholy
Tracknumber=1
Year=2021

[/more]

Register
(18) caro, Hexer, kim666, Lucju, Marek, noel666, Olethros, robertho777, sergsazan, sethurius, SilentNidhogg, smes, smysl, Taakeferd, VALERY, varlam4, wreak, zargonath,
Aug 10 2021, 19:48:18 Wishdoomdark - Revival​:​ Return Of The Dark Magic (2021)
ЦИТАТА(Foneg @ 10th August 2021 - 20:20:43) *
Это не тот чел

Тот
Covid-19 - We All Die (2020)
Причем, без дела он не сидит - вона сколько настрогал headcrab.png
(1) Foneg,

46 Pages V   1 2 3 > » 
- Lo-Fi Version Support form
Copyrights and abuse reports form
Time is now: 25th January 2022 - 18:53:31