Welcome Guest ( Log In | Register )

История благодарностей участнику VLADISLAV_V_K ::: Спасибо сказали: 4577 раз(а)
Дата поста: В теме: За сообщение: Спасибо сказали:
Yesterday, 16:55:52 Eisregen - Leblos (2020)
FLAC tracks
Include
ЦИТАТА(necroscum @ 18th June 2020 - 14:31:21) *
CD 2 - Die Räudigen Rennsteigrebellen:
12. Deutsches Bierlied
13. Grünes Herz
14. Wenn es draußen dunkel wird
15. Zeit zu Saufen

Register
(1) Lucju,
Jul 5 2020, 12:02:47 Dornenreich - Mein Flugelschlag [demo] (1997)
ЦИТАТА(Unscarted @ 22nd September 2006 - 09:34:17) *
1. Leblos Regt Sich Totes Leben
2. Schlaflos Trдumend
3. Verlorenes Gefunden, Gefundenes Empfunden
4. Entwaffnet
5. Im Flatternden Schleier Der Vergдnglichkeit
6. In Die Nacht
7. Schwingen, Flugel, Druckend Reisen
8. Bonustrack 1
9. Bonustrack 2

FLAC img+cue
Register

Режет по паузам нормально.
(2) thenecromancer, varlam4,
Jun 28 2020, 14:45:52 Dismalimerence - Tome: 1 (2020)


*Artist: Dismalimerence
*Album: Tome: 1
*Year: 2020
*Genre: Progressive/Atmospheric Black Metal
*Country: United States
*Format: mp3@CBR320kbps
*Size: 117MB

Tracklist:
01. Crimson Glow 11:48
02. Sequestered Hearts 04:29
03. My Only Love 05:09
04. Orchid's Reverie 07:01
05. Pragma 03:41
06. Negligence of the Forgotten 05:13
07. Vale Amor 08:27
08. Destined For Solitude 05:13
******************************
Total playing time: 51:01



Preview 3
Preview 4

[more=Extended info][youtube]tZ4iwkPoFjk[/youtube]

Tome: 1 was written between 2011 & 2014 by Elijah Cirricione
Recorded in a home studio from January 2018 to August 2019

Released June 26, 2020

Mixed & Mastered by Spenser Morris
Guitars & Vocals - Elijah Cirricione
Bass - Craig Hamburger
Drums - Joey Casillas
Album Artwork by Aghy Purakusuma[/more]

[more=Technical info]
Input File: 2 - Sequestered Hearts.mp3
Channels : 2
Sample Rate : 44100
Precision : 16-bit
Duration : 00:04:29.45 = 11882525 samples = 20208.4 CDDA sectors
File Size : 10.8M
Bit Rate : 320k
Sample Encoding: MPEG audio (layer I, II or III)
Comments :
Title=Sequestered Hearts
Artist=Dismalimerence
Album=Tome: 1
Tracknumber=2
Year=2020
Genre=Progressive/Atmospheric Black Metal

[/more]

Register
(18) 0x13, 1968_janeart, cist, Foneg, grimoir, infiltrator, metala, Olethros, randumbum, robertho777, senecazm, sludge666, supremo, terron, VALERY, varlam4, vasiljev_sergej, Victim of fate,
Jun 27 2020, 21:30:50 Mnstrgry - Way Out (2020)
FLAC tracks
Register
(1) Olethros,
Jun 27 2020, 16:41:00 Mnstrgry - Way Out (2020)


*Artist: Mnstrgry
*Album: Way Out
*Year: 2020
*Genre: Progressive/Post-Black Metal
*Country: Russian Federation
*Format: mp3@CBR320kbps
*Size: 87MB

Tracklist:
01. Parasite 03:05
02. Ugly 04:05
03. Dumb 02:52
04. In Love With Death 04:14
05. Wake Me Up 03:03
06. Prayer 04:32
07. Naked 03:25
08. Insane 04:54
09. Burn 03:18
10. Nomad 04:20
******************************
Total playing time: 37:48


Preview 2


[more=Extended info][youtube]Cb6Cda61BnE[/youtube]

[youtube]cCoTxNJTwbM[/youtube]


Vox and lyrics: Victoria Grizley
music: Dmitriy Zamotaev
recording: AV-records
mixing and mastering: Ayli Konclever

Released June 27, 2020

This album describes a story of a soul trying to get through the circle of daydreaming and finding the way out of sansara

***FLAC-Rip***[/more]

[more=Technical info]
Input File: 02-Ugly.mp3
Channels : 2
Sample Rate : 44100
Precision : 16-bit
Duration : 00:04:05.07 = 10807631 samples = 18380.3 CDDA sectors
File Size : 9.80M
Bit Rate : 320k
Sample Encoding: MPEG audio (layer I, II or III)
Comments :
Title=Ugly
Artist=Mnstrgry
Album=Way Out
Tracknumber=2
Year=2020
Genre=Progressive/Post-Black Metal

[/more]

Register
(8) infiltrator, metala, Olethros, randumbum, robertho777, SatanicPanzer, VALERY, varlam4,
Jun 27 2020, 12:28:54 Cult Of Madness - Insanity [ep] (2020)


*Artist: Cult Of Madness
*Album: Insanity [ep]
*Year: 2020
*Genre: Melodic Death Metal
*Country: Russian Federation
*Format: mp3@CBR320kbps
*Size: 58MB

Tracklist:
01. Cult of Madness 01:52
02. A Leper World 04:18
03. Ritual 04:26
04. Live like Immortal 05:34
05. Reign of Insanity 04:28
06. Up to the Throat 04:16
******************************
Total playing time: 24:54



Preview 3
Preview 4

[more=Extended info][youtube]lpvZoukFTCc[/youtube]

[youtube]E4KBPGBqIaY[/youtube]

[youtube]CDXt6uHLUrc[/youtube]

Lineup:
Pavel Melnikov Drums
Kirill Tafintsev Guitars
Evan Monster Guitars (lead)
Maxim Sergachev Vocals[/more]

[more=Technical info]
Input File: 02-A Leper World.mp3
Channels : 2
Sample Rate : 44100
Precision : 16-bit
Duration : 00:04:18.34 = 11392882 samples = 19375.6 CDDA sectors
File Size : 10.3M
Bit Rate : 320k
Sample Encoding: MPEG audio (layer I, II or III)
Comments :
Title=A Leper World
Artist=Cult Of Madness
Album=Insanity
Tracknumber=2
Year=2020
Genre=Melodic Death Metal

[/more]

Register
(8) BugEyes, chipsgott, infiltrator, Lukittaz, Olethros, phtm, Predatorux, VALERY,
Jun 27 2020, 08:55:29 Morbid Violence - Winds Of Madness (2009)
APE img+cue+log
Register
(1) thenecromancer,
Jun 27 2020, 07:44:48 Ergus - Insomnium (2020)
FLAC tracks
Register
(3) infiltrator, isvili, Olethros,
Jun 26 2020, 22:12:30 Ergus - Insomnium (2020)


*Artist: Ergus
*Album: Insomnium
*Year: 2020
*Genre: Symphonic Metal
*Country: Brazil
*Format: mp3@CBR320kbps
*Size: 101MB

Tracklist:
01. Ride into Darkness 01:06
02. Sleep Paralysis 03:55
03. Something to Believe (The Awakening) 04:26
04. Doubts 05:16
05. Last Lullaby 04:56
06. One Way Path 04:14
07. Lapse of Time 03:52
08. Insomnium (A Fall into Deep Thought) 04:32
09. Within Consummation 05:38
10. All Against You 06:17
******************************
Total playing time: 44:12




[more=Extended info][youtube]GPIZUJkHNoE[/youtube]

Lineup:
Thuany Schnaider - Vocals
Erick Schnaider - Guitars
Elvis Rodrigues - Baixo e Gutural/ Bass and Growl
Nicacio - Teclado - Keyboards and Synths

***FLAC-Rip***[/more]

[more=Technical info]
Input File: 02-Sleep Paralysis.mp3
Channels : 2
Sample Rate : 44100
Precision : 16-bit
Duration : 00:03:55.43 = 10382507 samples = 17657.3 CDDA sectors
File Size : 9.42M
Bit Rate : 320k
Sample Encoding: MPEG audio (layer I, II or III)
Comments :
Title=Sleep Paralysis
Artist=Ergus
Album=Insomnium
Tracknumber=2
Year=2020
Genre=Symphonic Metal

[/more]

Register
(14) Alpha_Prime, aviacademy, Cartman223, chipsgott, csgmnk, gwar, infiltrator, metala, Olethros, Rover, senecazm, sergsazan, talismanFS, Сварог Барг,
Jun 26 2020, 19:24:59 Vesperian Sorrow - Regenesis Creation (2006)
ЦИТАТА(Borderline1991 @ 2nd March 2020 - 18:38:29) *
WEB-FLAC

Это 2019 год
Vesperian Sorrow - Regenesis Creation (2019)

-------------------------------------------------------------------------------------------

Переиздание оригинального альбома:
[more=Tracklist]Reissue
The CD was re-released around late 2007 or 2008, with two bonus tracks. The new track listing is as follows:

"Intro" 1:43
"Invisible Kingdom" 7:32
"Imprisoned in Gurdon" 4:32
"Regenesis Creation" 5:54
"Quest of the Exiled" 7:24
"Relinquished" 6:39
"The Forever Vortex" 4:08
"Vanquished" 9:55
"Gates to Serpithia" 5:03
"Cry Lil' Sister" 5:01 (a cover of a song from The Lost Boys soundtrack by Gerard McMahon)[/more]
FLAC img+cue
Register
(2) Lucju, Veggr,
Jun 26 2020, 13:30:40 Carach Angren - Franckensteina Strataemontanus (2020)
FLAC tracks
Register
(3) ErikGoth, Lucju, Olethros,
Jun 25 2020, 17:12:18 Stigmatic Chorus & Antaios - Waters Of Styx (sc Side) [split] (1999)
FLAC img+cue
Register


[more=Antaios / Stigmatic Chorus ‎– God; The Fake Artist / Waters Of Styx]
God; The Fake Artist
1 –Antaios Her Silent Screams 4:16
2 –Antaios The Corpse Of Christ 3:38
3 –Antaios Where The Angels Die 5:53
4 –Antaios Dreaming Of The Dead 4:46
Waters Of Styx
5 –Stigmatic Chorus Waters Of Styx (Intro) 2:47
6 –Stigmatic Chorus У Черты 6:51
7 –Stigmatic Chorus Казнь Изгнанницы 6:33
8 –Stigmatic Chorus Искушение Разума 6:11
9 –Stigmatic Chorus Тень Меня 6:39
10 –Stigmatic Chorus Чужие Взоры 5:08
11 –Stigmatic Chorus Olymph (Outro) 1:52[/more]
(1) varlam4,
Jun 22 2020, 14:46:38 Bishop Of Hexen - Archives Of An Enchanted Philosophy (1997)
FLAC img+cue
Register
(2) DarkHorde, Veggr,
Jun 19 2020, 15:58:01 The Bishop Of Hexen - The Death Masquerade (2020)
(3) lldma, Ludwig Hagen, Occultas,
Jun 16 2020, 12:58:43 Bryan Eckermann - The 7Th Sin (2020)
FLAC tracks
Register


FLAC-Rip mp3@320
Register
(2) Guns, Olethros,
Jun 14 2020, 14:34:20 Decadence Dust - Eight Of Swords (2020)
FLAC tracks
Register
(3) AHBAnep, infiltrator, Olethros,
Jun 14 2020, 10:03:17 Sacriversum - Mozartia (2003)
FLAC img+cue
Register
(1) Lucju,
Jun 14 2020, 09:37:27 Bryan Eckermann - The 7Th Sin (2020)


*Artist: Bryan Eckermann
*Album: The 7Th Sin
*Year: 2020
*Genre: Melodic Black/Death Metal
*Country: United States
*Format: mp3@CBR320kbps
*Size: 146MB

Tracklist:
01. Succubus 05:09
02. Morbid Beauty 04:41
03. Tales of the Past 08:09
04. Graveyard Hymn 06:00
05. Pain or Death 07:55
06. Flesh and Steel 09:52
07. Sold My Soul 05:12
08. Nocternity 05:40
09. Same Old Song 04:03
10. Night Comes Down 04:25
******************************
Total playing time: 1:01:06




[more=Extended info][youtube]BUVfzy8l6nY[/youtube]

[youtube]XKv2lAwdl1s[/youtube]

Lineup:
Bryan Eckermann - Guitars, Bass, Drums, Keyboards, Vocals

[/more]

[more=Technical info]
Input File: 02-Morbid Beauty.mp3
Channels : 2
Sample Rate : 44100
Precision : 16-bit
Duration : 00:04:41.10 = 12396334 samples = 21082.2 CDDA sectors
File Size : 11.2M
Bit Rate : 320k
Sample Encoding: MPEG audio (layer I, II or III)
Comments :
Title=Morbid Beauty
Artist=Bryan Eckermann
Album=The 7th Sin
Tracknumber=2
Year=2020
Genre=Melodic Black/Death Metal

[/more]

Register
(28) AlexSmith, atavist, chipsgott, cist, DenisKov, exorcist1969, Geralder, infiltrator, Jorn777, kolar666, Lukittaz, metala, Mogozoz, multizwilling, Nobrain-Nopain, oldvarg, Olethros, Orgasmik, Ostinato, sadmannn, senecazm, Shadechaser, TeamatSE, VALERY, varlam4, vasiljev_sergej, zhol, Сварог Барг,
Jun 13 2020, 11:20:34 Dämmerfarben - Des Herbstes Trauerhymnen Mmxx (2020)
FLAC img+cue
Register
(1) DeamonRed,
Jun 13 2020, 10:16:17 Decadence Dust - Eight Of Swords (2020)


*Artist: Decadence Dust
*Album: Eight Of Swords
*Year: 2020
*Genre: Gothic Metal/Rock
*Country: Russian Federation
*Format: mp3@CBR320kbps
*Size: 80MB

Tracklist:
01. Doppelganger 03:43
02. Eight Of Swords 04:52
03. Dead Within 04:48
04. No Grace 04:10
05. Gold 05:00
06. Another Fool 03:54
07. Devil On Your Shoulder 04:22
08. Morning After Dark 03:45
******************************
Total playing time: 34:34




[more=Extended info][youtube]ZQQFvS4PErY[/youtube]

Melodic metal with notes of Gothic and decadence, strong lyrics and crystal female vocals.

Decadence Dust was found in 2014.
In 2017, the team released their debut EP album S.T.R.N.

A full-length album is recorded in 2020, is called Eight Of Swords.
The album includes 8 tracks or 8 swords in your heart. Soon it will be available on discs and digital format.

Released June 10, 2020

Anna Vashchilo — Vocals
Aleksander Kargaev — Guitars, Bass, Keyboards, Backing Vocals

Lyrics by Anna Vashchilo
Music by Aleksander Kargaev & Anna Vashchilo
Produced by Decadence Dust & Theodor Borovski & Egor Bychkov
Drum Programming by Egor Bychkov
Additional guitars by Aleksander Senin & Aleksander Ostapenko on "Gold"
Recorded by Decadance Dust at OST Studio
Mixed & mastered by Theodor Borovski at Slaughtered Studio
Cover & layout design & logo by Alex [Mayhem Design]

***FLAC-Rip***[/more]

[more=Technical info]
Input File: 06-Another Fool.mp3
Channels : 2
Sample Rate : 44100
Precision : 16-bit
Duration : 00:03:54.47 = 10339907 samples = 17584.9 CDDA sectors
File Size : 9.38M
Bit Rate : 320k
Sample Encoding: MPEG audio (layer I, II or III)
Comments :
Title=Another Fool
Artist=Decadence Dust
Album=Eight of Swords
Tracknumber=6
Year=2020
Genre=Gothic Metal/Rock

[/more]

Register
(14) AHBAnep, Bregon, Cartman223, chipsgott, DenisKov, infiltrator, Ludwig Hagen, Lukittaz, metala, oldvarg, Olethros, robertho777, Rosen, VALERY,
Jun 4 2020, 19:37:56 Sarpa - Solivagus (2020)


*Artist: Sarpa
*Album: Solivagus
*Year: 2020
*Genre: Progressive Black/Death Metal
*Country: United States
*Format: mp3@CBR320kbps
*Size: 111MB

Tracklist:
01. Cleanse 01:41
02. Triad of Might 10:48
03. Predacious Dimensions 08:58
04. Evanesce 05:54
05. Anguishing Reveries 05:47
06. Solivagus 05:26
07. Horizons Worlds Beyond 09:49
******************************
Total playing time: 48:23



Preview 3


[more=Extended info][youtube]vpiNy5HE8jk[/youtube]

“Sarpa was created to bend the laws of audible physics and more importantly, unchain the hearts of the fire born.” - Sarpa

While primarily embedded in the essence of black metal, Sarpa throws other ingredients such as progressive rock, acoustics, old school death/thrash, and some Afro/Latin rhythms into the pot.

Solivagus was written and performed (all instruments, vocals) by David Baxter (drummer of Plutonian Shore, ex-Skrew, ex-Skan) in various studios throughout Central Texas in 2019. The album was mixed and mastered by Tony Petrocelly of Trepan Studios.

Rooted in Central Texas, Sarpa was created in 2018 when Baxter decided to move ahead with a solo record, after which a process of furious writing commenced. The dawning of this solo venture came subsequent to the performance of numerous shows/festivals across North America and Europe over the years with the aforementioned bands..

The journey will not end with the release of Solivagus though. Baxter plans on writing more Sarpa material for the next album, the purpose of which is to fracture the illusory mirrors of time and space!

David Baxter - All Instruments/Voices[/more]

[more=Technical info]
Input File: 02-Triad of Might.mp3
Channels : 2
Sample Rate : 44100
Precision : 16-bit
Duration : 00:10:48.16 = 28583988 samples = 48612.2 CDDA sectors
File Size : 25.9M
Bit Rate : 320k
Sample Encoding: MPEG audio (layer I, II or III)
Comments :
Title=Triad of Might
Artist=Sarpa
Album=Solivagus
Tracknumber=02
Year=2020
Genre=Progressive Black/Death Metal

[/more]

Register
(17) atavist, chipsgott, Doooomed, Foneg, infernallord, infiltrator, Mares, metala, multizwilling, Olethros, Paradayz, randumbum, Rosen, Sanctus, stumpheavyrock, VALERY, Сварог Барг,
Jun 2 2020, 20:32:31 Solipsismo - Confession Of A Fellow Citizen [ep] (2020)


*Artist: Solipsismo
*Album: Confession Of A Fellow Citizen [ep]
*Year: 2020
*Genre: Technical/Melodic Death Metal
*Country: Ecuador
*Format: mp3@CBR320kbps
*Size: 40MB

Tracklist:
01. Pulse Of Awakening 01:38
02. Seras / セラス 02:03
03. Chtholly / クトリ 02:58
04. Unknown Celling 02:30
05. Those who pick up, those who are picked up 03:55
06. Suicide Prelude 03:10
******************************
Total playing time: 16:14




[more=Extended info][youtube]1VfspVHj-pI[/youtube]

Released May 31, 2020
Music and Production by: Daniel Ortega
Vocals and Lyrics by: Gabriel Cuesta
Drums by: Superior Drummer[/more]

[more=Technical info]
Input File: 02-Seras セラス.mp3
Channels : 2
Sample Rate : 44100
Precision : 16-bit
Duration : 00:02:03.33 = 5439029 samples = 9250.05 CDDA sectors
File Size : 4.94M
Bit Rate : 320k
Sample Encoding: MPEG audio (layer I, II or III)
Comments :
Title=Seras / セラス
Artist=Solipsismo
Album=Confession of a Fellow Citizen
Tracknumber=2
Year=2020
Genre=Technical/Melodic Death Metal

[/more]

Register
(15) 555, cesar, chipsgott, ehfeka44, Hell_Is_Here, infiltrator, Lukittaz, metala, Olethros, Ostinato, phtm, Rosen, sadmannn, VALERY, Нигилист,
May 31 2020, 10:14:31 Dominion Caligula - A New Era Rises (2000)
FLAC img+cue
Register
(1) orgondnor,
May 31 2020, 08:44:53 Wintereve - October Dark (2020)
FLAC tracks
Register
(1) thenecromancer,
May 31 2020, 08:44:09 Wintereve - This Winter Will Never End (2017)
FLAC tracks
Register
(1) thenecromancer,

29 Pages V   1 2 3 > » 
- Lo-Fi Version Support form
Copyrights and abuse reports form
Time is now: 8th July 2020 - 12:56:31