Welcome Guest ( Log In | Register )

Объявления

* gmail.com упорно продолжает считать почту с нас "unsolicited" и отбивает в том числе и письма активации, поэтому просьба использовать альтернативные почтовые ящики.
------------
* gmail.com continues reject all mail from us as "unsolicited" (activation mails too) therefore please use alternate mail servers.
История благодарностей участнику VLADISLAV_V_K ::: Спасибо сказали: 8265 раз(а)
Дата поста: В теме: За сообщение: Спасибо сказали:
Jun 9 2024, 20:55:52 Gates Of Doom - Forvm Ivlii [ep] (2018)
FLAC tracks
Register
(1) Wail,
Jun 9 2024, 18:28:50 Ecnephias - Necrogod (2013)
FLAC tracks
Register
(1) Veggr,
May 18 2024, 18:23:21 Vesperian Sorrow - Regenesis Creation (2006)
Переиздание оригинального альбома / Re-release of the original album:



Vesperian Sorrow - Regenesis Creation (2006)


[more=Tracklist]Reissue
The CD was re-released around late 2007 or 2008, with two bonus tracks. The new track listing is as follows:

"Intro" 1:43
"Invisible Kingdom" 7:32
"Imprisoned in Gurdon" 4:32
"Regenesis Creation" 5:54
"Quest of the Exiled" 7:24
"Relinquished" 6:39
"The Forever Vortex" 4:08
"Vanquished" 9:55
"Gates to Serpithia" 5:03
"Cry Lil' Sister" 5:01 (a cover of a song from The Lost Boys soundtrack by Gerard McMahon)[/more]
FLAC tracks
Register
(2) canadaspaceman, demonic_cannibal,
May 10 2024, 12:47:50 Burzum - The Land Of Thulê (2024)


*Artist: Burzum
*Album: The Land Of Thulê
*Year: 2024
*Genre: Black Metal/Ambient
*Country: Norway
*Format: mp3@CBR320kbps
*Size: 97MB

Tracklist:
1. The Magic Of The Grave 08:11
2. The Hidden Name 07:52
3. The Nature Of The Gods 02:53
4. The Call Of The Kraken 10:23
5. Beyond The Gate 12:56
******************************
Total playing time: 42:15

Preview 1

[more=Extended info][youtube]o0_96N5UXrc[/youtube]

Lineup:
Varg Vikernes Everything (1991-2000, 2009-2018, 2024-present)


***FLAC-Rip***[/more]

[more=Technical info]
Input File: 02-The Hidden Name.mp3
Channels : 2
Sample Rate : 44100
Precision : 16-bit
Duration : 00:07:51.10 = 20775290 samples = 35332.1 CDDA sectors
File Size : 18.8M
Bit Rate : 320k
Sample Encoding: MPEG audio (layer I, II or III)
Comments :
Title=The Hidden Name
Artist=Burzum NEW
Album=The Land Of Thulê
Tracknumber=2
Year=2024
Genre=Black Metal/Ambient

[/more]

Register


Mirrors mp3@320
Register

FLAC tracks
Register
(131) 6666666, 666days, AlexSmith, Altkiller, andeimon, Andurr, Aresson, arioch82, artscald, as71, atilagb, bajoangel, Ballisargon, Bannanik, Bardo, BERZERK, BlackSwordMaster88, boby9052, Boozer, Buregon, canadaspaceman, cancer1974, CaptianGoreGrind, Carcharoth, carpathian, Chasm, Condehate, CRUNCH, CuRSeD, dcatagua, Demonologist, dermarsoran, Devastator, DMIYUR, doomTemplar, dromord, ent404, Evgen79, Extreme Brutal, ForzaMinardi1977, garml2, ger_man_thorn, Ghost, Grev, gwar, Gylve, heinz88, hell_armageddon, Hell_Is_Here, helvetestoner, HMHamster, igore2911, John Beak, judaz, Kaa23, Kasper969, kimkayoung, Kisser, kluval, kryptor, lafuma, Lanceatum, legion01, LEGION69, lekram, Lord Noctua, Lucifer, lucifix, Lucju, madera, mayrink, metal73, metala, Metalass, mirotvorets, nadin85, nattefrost, Necromag, nekrokilldozer, nemx, nikolay81, Noxius, Occultas, Old Vyaine, oldvarg, Ostinato, Premature_Devotion, QuadenThyrane, rabindranad, rammmirez, Rattenkonig, recber, Reverend, robertho777, rominow, Rosen, Rover, SadistikSlayer, Semargl2010, sergsazan, Shub, SilentNidhogg, Soulgrinder, StabWound, Strygaldwir, supremo, Surt, TeamatSE, teolost, thenecromancer, the_cleanser, tOmV, Unscarted, VALERY, vasilisk, vasiljev_sergej, Vitald, vlad74, vosmidesijatye, Vranakrik, VVP123, vyacheslav, Wail, Weikai, Wilczygniew Strzygoń, wreak, Xor, xska, XxNachtmahRxX, yuratroll, ZA670,
May 7 2024, 22:36:15 2 Wolves - Not Worth It (2024)
FLAC tracks
Register
(4) Ellaya, Kaa23, Veggr, WillyWonka,
Apr 30 2024, 17:15:30 Marialena - Vanity (2020)
ЦИТАТА(Kitalter @ 27th August 2023 - 17:14:43) *
Вокал хорош

ЦИТАТА
Solo project of Marialena Trikoglou of Horrorgraphy.
(1) thenecromancer,
Apr 27 2024, 13:32:27 Vesperian Sorrow - Awaken The Greylight (2024)
FLAC tracks
Register
(9) Agheres, AHBAnep, blackward, demonic_cannibal, Ildjarn, isvili, Lucju, WillyWonka, wreak,
Apr 27 2024, 13:08:18 Accept - Humanoid (2024)
Hard Times (Bonus Track) from CD
mp3@320

Register
(8) DMIYUR, kim666, kimkayoung, Rhoads, Sordes, tt2008, Wail, Zhelezjaka,
Apr 19 2024, 13:26:21 Verikalpa - Tuomio (2024)
FLAC tracks
Register
(4) ALBIGON, isvili, kolar666, wreak,
Apr 19 2024, 12:27:34 Blazing Eternity - A Certain End Of Everything (2024)
FLAC tracks
Register
(3) AHBAnep, Ellaya, isvili,
Apr 15 2024, 22:56:10 Dark Horizon - Darkness Falls Upon Mankind (2024)
FLAC tracks
Register
(2) Graveyard_Ghoul, rickzammuto,
Apr 5 2024, 11:13:57 Belore - Eastern Tales (2024)
FLAC tracks (24/44.1)
Register
(7) Dark_Viking, Ellaya, isvili, nemx, Shadowlord, Veggr, wreak,
Mar 30 2024, 18:35:38 Argile - Spleen Angel (2024)
FLAC tracks
Register
(5) AHBAnep, metaljosue, mirotvorets, Piob, quarantine,
Mar 25 2024, 11:03:07 Pantheon Omega - Harmonizing The Death Essence (2024)

FLAC tracks
Register
(2) isvili, nemx,
Mar 12 2024, 12:27:27 Neuropolis - В​с​ё Н​и​ч​е​г​о (All Nothing) (2024)
Mirrors mp3@320
Register

FLAC tracks
Register
(4) quarantine, Unscarted, vyacheslav, wreak,
Mar 11 2024, 20:35:36 Джоконда - Stabat Mater [ep] (2022)
Mirrors mp3@320
Register

FLAC tracks
Register
(4) after21allD, apostol_13, quarantine, wreak,
Mar 11 2024, 20:34:15 Джоконда - Каждый Охотник Желает Знать (2021)
Mirrors mp3@320
Register

FLAC tracks
Register
(3) heavymetalhead, quarantine, Сварог Барг,
Mar 11 2024, 20:29:50 Neuropolis - В​с​ё Н​и​ч​е​г​о (All Nothing) (2024)


*Artist: Neuropolis
*Album: В​с​ё Н​и​ч​е​г​о (All Nothing)
*Year: 2024
*Genre: Doom/Death Metal
*Country: Russian Federation
*Format: mp3@CBR320kbps
*Size: 110MB

Tracklist:
01. День перед смертью (The Day Before Death) 10:05
02. Y 05:57
03. Тайна (The Mystery) 09:33
04. В подвалах (In the Cellars) 09:34
05. К кладбищу дорога (Road to Cemetery) 06:47
06. Хлеб наш насущный (Our Daily Bread) 05:56
******************************
Total playing time: 47:52



Preview 3
Preview 4
Preview 5

[more=Extended info][youtube]67yIElkIkV0[/youtube]

Lineup:
Vladimir Alexeev Vocals
Nikita Smorygin Guitars (2021-present)
Alexander Seredin Guitars (2021-present)
Vladimir Kalmazan Bass (2022-present)
Ivan Chepurnov Drums (2023-present)
Alisa Polyarnaya Vocals, Flute (2023-present)


***FLAC-Rip***[/more]

[more=Technical info]
Input File: 02-Y.mp3
Channels : 2
Sample Rate : 44100
Precision : 16-bit
Duration : 00:05:57.51 = 15766103 samples = 26813.1 CDDA sectors
File Size : 14.3M
Bit Rate : 320k
Sample Encoding: MPEG audio (layer I, II or III)
Comments :
Title=Y
Artist=Neuropolis
Album=Всё ничего (All Nothing)
Tracknumber=2
Year=2024
Genre=Doom/Death Metal

[/more]

Register
(18) alikkon, Altkiller, artscald, Brutal, Evrom, Grev, infozahist, lacrimoza, Messian, metala, scorn33, Shadechaser, stumpheavyrock, VALERY, vyacheslav, Wail, wanderer73, wreak,
Mar 11 2024, 17:52:20 Джоконда - Stabat Mater [ep] (2022)


*Artist: Джоконда
*Album: Stabat Mater [ep]
*Year: 2022
*Genre: Symphonic Metal
*Country: Russian Federation
*Format: mp3@CBR320kbps
*Size: 32MB

Tracklist:
01. Stabat Mater (Full version) 05:34
02. Его слепое величество 03:23
03. Stabat Mater 04:40
******************************
Total playing time: 13:37


Preview 2
Preview 3
Preview 4

[more=Extended info][youtube]8pnDHd-OzbY[/youtube]

Linneup:
Rinat Nasyrov Bass (2021-present)
Kirill Postavnoy Guitars (2021-present)
Elena Minina Vocals (2021-present)
Alexander Kuznetsov Drums (2023-present)


***FLAC-Rip***[/more]

[more=Technical info]
Input File: 01-Stabat Mater (Full Version).mp3
Channels : 2
Sample Rate : 44100
Precision : 16-bit
Duration : 00:05:34.10 = 14733854 samples = 25057.6 CDDA sectors
File Size : 13.4M
Bit Rate : 320k
Sample Encoding: MPEG audio (layer I, II or III)
Comments :
Title=Stabat Mater (Full Version)
Artist=Джоконда
Album=Stabat Mater
Tracknumber=1
Year=2022
Genre=Symphonic Metal

[/more]

Register
(13) artscald, Cartman223, chipsgott, csgmnk, Druidir, Grev, gwar, oldvarg, Reverend, VALERY, Wail, wreak, Сварог Барг,
Mar 11 2024, 17:33:00 Джоконда - Каждый Охотник Желает Знать (2021)


*Artist: Джоконда
*Album: Каждый Охотник Желает Знать
*Year: 2021
*Genre: Symphonic Metal
*Country: Russian Federation
*Format: mp3@CBR320kbps
*Size: 98MB

Tracklist:
01. Симфония 04:54
02. Каждый охотник желает знать 04:26
03. На краю 04:08
04. Костры из книг 03:53
05. Беги 04:40
06. Капкан 03:31
07. Лидокаин 04:53
08. Демоны 03:57
09. Мне не больно 04:10
10. В иной реальности 04:17
******************************
Total playing time: 42:49


Preview 2
Preview 3
Preview 4

[more=Extended info][youtube]YO7jDh9c21c[/youtube]

[youtube]hbBMRZM96IQ[/youtube]

[youtube]lMwVgBUveso[/youtube]

[youtube]oTzGSfgU-5g[/youtube]

Linneup:
Rinat Nasyrov Bass (2021-present)
Kirill Postavnoy Guitars (2021-present)
Elena Minina Vocals (2021-present)
Alexander Kuznetsov Drums (2023-present)


***FLAC-Rip***[/more]

[more=Technical info]
Input File: 01-Симфония.mp3
Channels : 2
Sample Rate : 44100
Precision : 16-bit
Duration : 00:04:54.45 = 12985025 samples = 22083.4 CDDA sectors
File Size : 11.8M
Bit Rate : 320k
Sample Encoding: MPEG audio (layer I, II or III)
Comments :
Title=Симфония
Artist=Джоконда
Album=Каждый охотник желает знать
Tracknumber=1
Year=2021
Genre=Symphonic Metal

[/more]

Register
(13) apostol_13, artscald, Cartman223, chipsgott, DMIYUR, Druidir, gwar, oldvarg, Reverend, VALERY, Wail, wreak, Сварог Барг,
Mar 8 2024, 14:01:04 Whisper Inside - Зов Из Темноты (2024) (2) quarantine, wreak,
Mar 8 2024, 12:41:12 Inner Missing - The Diary (2024)
ЦИТАТА(nospeedlimit @ 8th March 2024 - 11:10:02) *
Both links Virus detected

Archives do not contain viruses. This is the browser's doing.

Mirrors mp3@320
Register

FLAC tracks
Register
(3) AHBAnep, Ice Gnoll, quarantine,
Mar 7 2024, 23:47:38 Fallen Joy - The Reborn (2023)
FLAC tracks
Register

FLAC tracks (Instrumental Version)
Register
(4) clublen, isvili, Mihalik, Samaritianin,
Mar 7 2024, 21:27:23 Inner Missing - The Diary (2024)


*Artist: Inner Missing
*Album: The Diary
*Year: 2024
*Genre: Gothic Metal
*Country: Israel
*Format: mp3@CBR320kbps
*Size: 97MB

Tracklist:
01. Premonitions 07:08
02. The Onset 06:30
03. Departure 06:59
04. Letters from the Past 07:07
05. Hiraeth 07:16
06. Null 07:13
******************************
Total playing time: 42:13




Preview 4
Preview 5

[more=Extended info][youtube]Zcb-xj57fKE[/youtube]

Lineup:
Melaer Bass, Keyboards (2010-present)
Sigmund Vocals, Guitars (2008-present)


***FLAC-Rip***[/more]

[more=Technical info]
Input File: 01-Premonitions.mp3
Channels : 2
Sample Rate : 44100
Precision : 16-bit
Duration : 00:07:08.83 = 18911227 samples = 32162 CDDA sectors
File Size : 17.2M
Bit Rate : 320k
Sample Encoding: MPEG audio (layer I, II or III)
Comments :
Title=Premonitions
Artist=Inner Missing
Album=The Diary
Tracknumber=1
Year=2024
Genre=Gothic Metal

[/more]

Register
(26) 747metaller, Altkiller, andgrek28, artscald, brunodiaz, Cartman223, chipsgott, Faust_Vulkan_16, gwar, HMHamster, infozahist, kimkayoung, kluval, MAYH, metaljosue, Mogozoz, oldvarg, postal67, Reverend, Rover, Sanctus, Shadechaser, smes, VALERY, Wail, wreak,
Jan 19 2024, 19:11:33 Mortemia - The Pandemic Pandemonium Sessions [ep] (2021)


[youtube]cgx74RaLTKg[/youtube]


FLAC track
Register

FLAC-Rip mp3@320
Register
(4) brunodiaz, kimkayoung, kostja, Megakimi,

56 Pages V   1 2 3 > » 
- Lo-Fi Version Support form
Copyrights and abuse reports form
Time is now: 24th July 2024 - 14:27:48