Welcome Guest ( Log In | Register )

История благодарностей участнику VLADISLAV_V_K ::: Спасибо сказали: 3617 раз(а)
Дата поста: В теме: За сообщение: Спасибо сказали:
Mar 30 2020, 21:10:39 Exocrine - Maelstrom [single] (2020)


*Artist: Exocrine
*Album: Maelstrom [single]
*Year: 2020
*Genre: Progressive/Technical Death Metal
*Country: France
*Format: mp3@CBR320kbps
*Size: 11MB

Tracklist:
01. Maelstrom 04:34
******************************
Total playing time: 4:34

Preview 1



[more=Extended info]New album "Maelstrom" coming June 26th via Unique Leader Records

https://c.radikal.ru/c18/2003/f6/ae04f73647b0.jpg

Lineup:
Jordy Besse Bass, Vocals (2013-present)
Nicolas La Rosa Guitars (2013-present)
Sylvain Octor-Perez Guitars (lead) (2013-present)
Théo Gendron Drums (2018-present)[/more]

[more=Technical info]
Input File: 01-Maelstrom.mp3
Channels : 2
Sample Rate : 44100
Precision : 16-bit
Duration : 00:04:33.99 = 12082959 samples = 20549.2 CDDA sectors
File Size : 11.0M
Bit Rate : 320k
Sample Encoding: MPEG audio (layer I, II or III)
Comments :
Title=Maelstrom
Artist=Exocrine
Album=Maelstrom
Tracknumber=1
Year=2020
Genre=Progressive/Technical Death Metal

[/more]

Register
(5) chipsgott, infiltrator, LEGION69, Olethros, terron,
Mar 27 2020, 19:41:07 Kreator - 666 - World Divided [single] (2020)


*Artist: Kreator
*Album: 666 - World Divided [single]
*Year: 2020
*Genre: Thrash Metal
*Country: Germany
*Format: mp3@CBR320kbps
*Size: 12MB

Tracklist:
01. 666 - World Divided 04:45
******************************
Total playing time: 4:45

Preview 1

Preview 3


[more=Extended info][youtube]DZpt8YXFwso[/youtube]

Metal-Archives

Lineup:
Ventor Drums (1984-1994, 1996-present), Vocals (1984-1986)
Mille Petrozza Vocals, Guitars (1984-present)
Sami Yli-Sirniö Guitars (2001-present)
Frédéric Leclercq Bass (2019-present)

https://b.radikal.ru/b30/2003/bc/0052bbb0f23f.jpg[/more]

[more=Technical info]
Input File: 01-666 - World Divided.mp3
Channels : 2
Sample Rate : 44100
Precision : 16-bit
Duration : 00:04:44.81 = 12559901 samples = 21360.4 CDDA sectors
File Size : 11.4M
Bit Rate : 320k
Sample Encoding: MPEG audio (layer I, II or III)
Comments :
Title=666 - World Divided
Artist=Kreator
Album=666 - World Divided
Tracknumber=1
Year=2020
Genre=Thrash Metal

[/more]

Register
(26) acundof, Adskij, boby9052, Bzth, cancer1974, chipsgott, DTGB, Evjenne, infiltrator, infozahist, Kaamos, kluval, LightWizard, Mannard, metaljosue, morbidangelo, Occultas, Olethros, Rover, sadmannn, sergsazan, Shadechaser, StabWound, supremo, troll_swamp, Vladimir,
Mar 23 2020, 19:58:50 Diabolus Alma Mater-D.A.M - Disciples Of The Unknown (2020)


*Artist: Diabolus Alma Mater-D.A.M
*Album: Disciples Of The Unknown
*Year: 2020
*Genre: Melodic Death Metal
*Country: Brazil
*Format: mp3@CBR320kbps
*Size: 92MB

Tracklist:
01. Essence
02. Nascentes Morimur
03. Disciples of the Unknown
04. Faded Existence
05. Die and Rot Alone!
06. Guardians of the Midnight (Tales of the Underworld)
07. Forevermore
08. Falling Down
09. What Will Never Return
10. Controlling the Crowd... Controlling the Victory! (Sorrow)
******************************
Total playing time: 40:01

Preview 1


[more=Extended info][youtube]Rx9e9ajp_0I[/youtube]

Guilherme de Alvarenga: Vocals and Synths
Edu Megale: Guitars
Pedro Abner: Guitars
Caio Campos: Bass
Vitor Rosa: Drums

https://a.radikal.ru/a41/2003/33/a852883e75e1.jpg[/more]

[more=Technical info]
Input File: 04-Faded Existence.mp3
Channels : 2
Sample Rate : 44100
Precision : 16-bit
Duration : 00:03:40.59 = 9728151 samples = 16544.5 CDDA sectors
File Size : 8.83M
Bit Rate : 320k
Sample Encoding: MPEG audio (layer I, II or III)
Comments :
Title=Faded Existence
Artist=Diabolus Alma Mater-D.A.M
Album=Disciples of the Unknown
Tracknumber=4
Year=2020
Genre=Melodic Death Metal

[/more]

Register
(11) AHBAnep, avather, Foneg, GorAtheist, infiltrator, Luminous, morbidangelo, Olethros, sergsazan, wanderer73, zhol,
Mar 23 2020, 17:55:26 Deceiver Of The Blind - Heaven's Vengeance Boils In My Heart Part. I (2020)


*Artist: Deceiver Of The Blind
*Album: Heaven's Vengeance Boils In My Heart Part. I
*Year: 2020
*Genre: Progressive/Heavy Metal
*Country: United States
*Format: mp3@CBR320kbps
*Size: 177MB

Tracklist:
01. War in the 9 Realms of Hell 11:10
02. Dante's Inferno 06:38
03. To Surrender My Darkened Heart 05:32
04. Prisoner of Emerald Eyes 08:35
05. Children of Lucifer 07:33
06. Requiem for All Pain 06:20
07. Storia Biblica 05:57
08. Heaven's Vengeance Boils in My Heart 25:25
******************************
Total playing time: 1:17:10

Preview 1

[more=Extended info][youtube]zPC8DnB4Arg[/youtube]

[youtube]3b6MeqY-UXg[/youtube]

[youtube]KdFMn8ebEDA[/youtube]

Lineup:
William Michael Angelico - Everything

https://www.metal-archives.com/images/7/4/1/2/741291_artist.jpg[/more]

[more=Technical info]
Input File: 08-Heaven\'s Vengeance Boils In My Heart.mp3
Channels : 2
Sample Rate : 44100
Precision : 16-bit
Duration : 00:25:25.56 = 67277196 samples = 114417 CDDA sectors
File Size : 61.0M
Bit Rate : 320k
Sample Encoding: MPEG audio (layer I, II or III)
Comments :
Title=Heaven's Vengeance Boils In My Heart
Artist=Deceiver Of The Blind
Album=Heaven's Vengeance Boils In My Heart Part. I
Tracknumber=8
Year=2020
Genre=Heavy Metal

[/more]

Register
(8) aviacademy, infiltrator, metala, morbidangelo, Olethros, postal67, Rover, senecazm,
Mar 23 2020, 13:13:10 Constraint - Tides Of Entropy (2020)


*Artist: Constraint
*Album: Tides Of Entropy
*Year: 2020
*Genre: Symphonic/Progressive Metal
*Country: Italy
*Format: mp3@CBR320kbps
*Size: 95MB

Tracklist:
01. Remanent
02. Einmal ist Keinmal
03. Golden Threads
04. Eerie Euphoria
05. The Big (B)End
06. Omniscient Oblivion
07. Broken Threads
08. Leben ist Streben
09. Coercive
******************************
Total playing time: 41:37

Preview 1
Preview 2


[more=Extended info][youtube]Pvt4gfNkL3Q[/youtube]

[youtube]TD7M6GXrd3E[/youtube]

Lineup:
Beatrice Bini / vocals
Matteo Bonfatti / guitars
Gabriele Masini / bass
Enrico Bulgaro / keyboards
Davide Borghi / violin
Alessandro Lodesani / drums[/more]

[more=Technical info]
Input File: 02-Einmal ist Keinmal.mp3
Channels : 2
Sample Rate : 44100
Precision : 16-bit
Duration : 00:06:16.71 = 16612867 samples = 28253.2 CDDA sectors
File Size : 15.1M
Bit Rate : 320k
Sample Encoding: MPEG audio (layer I, II or III)
Comments :
Title=Einmal ist Keinmal
Artist=Constraint
Album=Tides of Entropy
Tracknumber=2/9
Year=2020
Genre=Symphonic / Progressive Metal

[/more]

Register
(14) ace73pq, Alpha_Prime, aviacademy, Cartman223, GorAtheist, Herrant, infiltrator, metala, morbidangelo, Olethros, Rover, senecazm, uncolored, Сварог Барг,
Mar 22 2020, 17:53:08 Deviant Syndrome - Wrecking The Void [ep] (2020)


*Artist: Deviant Syndrome
*Album: Wrecking The Void [ep]
*Year: 2020
*Genre: Melodic Death Metal
*Country: Russian Federation
*Format: mp3@CBR320kbps
*Size: 44MB

Tracklist:
01. Regenesis 00:49
02. Wrecking the Void 04:36
03. A Day to Fall 2.020 04:58
04. Adjusting the Sun 04:44
05. Tranquility in Hades 03:59
******************************
Total playing time: 19:06

Preview 1
Preview 2


[more=Extended info][youtube]e5X6BtMgWz0[/youtube]

Ilya Bodrov Bass
Devourer Necrospiritual Vocals
George Schelbanin Vocals, Guitars (2005-present)
Olga Orekhova Keyboards (2008-present)[/more]

[more=Technical info]
Input File: 03-A Day to Fall 2.020.mp3
Channels : 2
Sample Rate : 44100
Precision : 16-bit
Duration : 00:04:58.34 = 13156706 samples = 22375.4 CDDA sectors
File Size : 11.9M
Bit Rate : 320k
Sample Encoding: MPEG audio (layer I, II or III)
Comments :
Title=A Day to Fall 2.020
Artist=Deviant Syndrome
Album=Wrecking the Void
Tracknumber=3
Year=2020
Genre=Melodic Death Metal

[/more]

Register
(12) AHBAnep, Andrew, BugEyes, death1ess, infiltrator, lary_veel, Luminous, Olethros, Ostinato, PainMiseryDeath, VALERY, Сварог Барг,
Mar 22 2020, 12:35:28 Orkrist - Artifacts Of Life (2020)
ЦИТАТА(VLADISLAV_V_K @ 21st March 2020 - 20:41:16) *
Теперь FLAC жду.

ЦИТАТА(Metalista @ 22nd March 2020 - 14:00:01) *
FLAC

Дождались... headcrab.png 20.gif
Many thanks.

Mirrors FLAC
Register
(3) Arkwulf, Dark_Viking, SAPOGi,
Mar 22 2020, 12:04:09 Persefone - Aathma (2017)
FLAC tracks
Register
(2) nikolay81, скептик,
Mar 22 2020, 10:42:12 V-Trail - V-Trail (2020)


*Artist: V-Trail
*Album: V-Trail
*Year: 2020
*Genre: Progressive/Heavy Metal
*Country: Uruguay
*Format: mp3@CBR320kbps
*Size: 115MB

Tracklist:
01. Infection
02. Complex Mind
03. Age of Fear
04. Primeval Blacksmiths
05. The One That Haunts Me
06. Mentor
07. The Prayer
08. Time Has Come
09. Thoughts to Deeds
10. Fallen Angels
******************************
Total playing time: 50:01

Preview 1

[more=Technical info]
Input File: 01-Infection.mp3
Channels : 2
Sample Rate : 44100
Precision : 16-bit
Duration : 00:04:05.46 = 10824918 samples = 18409.7 CDDA sectors
File Size : 9.82M
Bit Rate : 320k
Sample Encoding: MPEG audio (layer I, II or III)
Comments :
Title=Infection
Artist=V-Trail
Album=V-Trail
Tracknumber=1
Year=2020
Genre=Progressive / Heavy Metal

[/more]

Register
(11) andgrek28, aviacademy, Corpuscul, Foneg, infiltrator, metala, Olethros, postal67, Rover, senecazm, Сварог Барг,
Mar 21 2020, 22:44:30 Covid-19 - We All Die (2020)


*Artist: Covid-19
*Album: We All Die
*Year: 2020
*Genre: Doom/Death/Black Metal
*Country: Russian Federation
*Format: mp3@CBR320kbps
*Size: 29MB

Tracklist:
01. Coronavirus 02:02
02. Blood China 01:40
03. With A Dead Radiance Life Is Desolating 04:14
04. Pandemia 01:04
05. See Venice And Die 01:14
06. We All Die 02:12
******************************
Total playing time: 12:26



[more=Extended info][youtube]rvBTGULBe2c[/youtube]

The most powerful album from the founder of the band wishdoomdark Alex Ezeptrone designed in the style of doom / death metal and Black Metal. Studio FD Studio in March 2020. The album is dedicated to the worldwide epidemic that has affected everyone.

released March 20, 2020[/more]

[more=Technical info]
Input File: 01-Coronavirus.mp3
Channels : 2
Sample Rate : 44100
Precision : 16-bit
Duration : 00:02:02.18 = 5388050 samples = 9163.35 CDDA sectors
File Size : 4.89M
Bit Rate : 320k
Sample Encoding: MPEG audio (layer I, II or III)
Comments :
Title=Коронавирус
Artist=COVID-19
Album=We All Die
Tracknumber=1
Year=2020
Genre=Doom/Death Metal

[/more]

Register
(17) cen0byte666, chipsgott, craP_cillA, HMHamster, infiltrator, Mannard, morbidangelo, multizwilling, muskatnuss, Olethros, robertho777, SatanicPanzer, senecazm, stumpheavyrock, Svafrlami, VALERY, vasiljev_sergej,
Mar 21 2020, 19:45:55 Perdido Nino - Innocence Lost (2020)


*Artist: Perdido Nino
*Album: Innocence Lost
*Year: 2020
*Genre: Progressive Metal
*Country: United States
*Format: mp3@CBR320kbps
*Size: 118MB

Tracklist:
01. No Fiction 11:31
02. Concrete 03:13
03. Pillow 04:38
04. Vixi 06:28
05. The Moment 04:23
06. Emo Lumberjack 03:05
07. Leaves 03:06
08. Ghost 05:34
09. Innocence Lost 09:41
******************************
Total playing time: 51:39

Preview 1


[more=Technical info]
Input File: 01-No Fiction.mp3
Channels : 2
Sample Rate : 44100
Precision : 16-bit
Duration : 00:11:31.14 = 30479142 samples = 51835.3 CDDA sectors
File Size : 27.6M
Bit Rate : 320k
Sample Encoding: MPEG audio (layer I, II or III)
Comments :
Title=No Fiction
Artist=Perdido Nino
Album=Innocence Lost
Tracknumber=1
Year=2020
Genre=Progressive Metal

[/more]

Register
(7) dimitriusk, infiltrator, KLOP, metala, multizwilling, Olethros, Rover,
Mar 21 2020, 19:28:29 Runemaster - Wanderer (2020)


*Artist: Runemaster
*Album: Wanderer
*Year: 2020
*Genre: Heavy Metal
*Country: United Kingdom
*Format: mp3@CBR320kbps
*Size: 131MB

Tracklist:
01. Raven Lord 06:36
02. Hagalaz 07:43
03. The Blood Dimmed Tide 01:05
04. Inscription in Metal 04:58
05. Pyres of Heathen Kings 04:48
06. Helm of Awe 06:29
07. Mannaz (Immortal Journey of the Chainless Mind) 06:06
08. Maelstrom 01:05
09. The Hidden Force 04:10
10. Rider of the Nine 06:03
11. Ascendant Lunar Runes 07:48
******************************
Total playing time: 56:51




[more=Extended info]https://c.radikal.ru/c03/2003/d2/798ea53c15d6.jpg

Lineup:
Keith Blaikie - Drums
Aidan - Guitars
Guv - Vocals, Guitars
Ed - Bass[/more]

[more=Technical info]
Input File: 01-Raven Lord.mp3
Channels : 2
Sample Rate : 44100
Precision : 16-bit
Duration : 00:06:36.49 = 17484989 samples = 29736.4 CDDA sectors
File Size : 15.9M
Bit Rate : 320k
Sample Encoding: MPEG audio (layer I, II or III)
Comments :
Title=Raven Lord
Artist=Runemaster
Album=Wanderer
Tracknumber=1
Year=2020
Genre=Heavy Metal

[/more]

Register
(20) AHBAnep, aviacademy, Black Cat, BladeOvDarkness, Bzth, Druidir, Goatlord666, infiltrator, metala, metalwoman, morbidangelo, multizwilling, nospeedlimit, postal67, Rover, senecazm, sergsazan, sok, vir2al, Сварог Барг,
Mar 21 2020, 19:15:26 Natur - Afternoon Nightmare (2020)


*Artist: Natur
*Album: Afternoon Nightmare
*Year: 2020
*Genre: Heavy Metal
*Country: United States
*Format: mp3@CBR320kbps
*Size: 92MB

Tracklist:
01. Afternoon Nightmare 05:00
02. Poison King 05:18
03. The Contract 04:20
04. Sick of Dying 05:14
05. Metal Henge* 05:53
06. Mary Cross 05:11
07. The Friend 01:15
08. Unsolved Mysteries 07:44
******************************
Total playing time: 39:55




[more=Extended info]Lineup:
Lead Vocals, Guitars - Weibust
Lead Drums, Vocals * - Tooth Log
Lead Bass - Mexicutioner
Lead Guitars - Dino Destroyer

Recorded at Moonlight Mile Recording by Mike Moebius
Mixed and Mastered by Jame Elton
Cover photo - Ted Harrison
Cryptkeeper - Slaughter Booth[/more]

[more=Technical info]
Input File: 01-Afternoon Nightmare.mp3
Channels : 2
Sample Rate : 44100
Precision : 16-bit
Duration : 00:05:00.43 = 13248831 samples = 22532 CDDA sectors
File Size : 12.0M
Bit Rate : 320k
Sample Encoding: MPEG audio (layer I, II or III)
Comments :
Title=Afternoon Nightmare
Artist=Natur
Album=Afternoon Nightmare
Tracknumber=1
Year=2020
Genre=Heavy Metal

[/more]

Register
(18) aviacademy, Boozer, Bzth, henknegatief, infiltrator, isvili, marilin, metala, morbidangelo, multizwilling, Olethros, postal67, Rover, senecazm, sergsazan, vir2al, wgs73, Сварог Барг,
Mar 21 2020, 12:23:10 Eternal Engine - Into The Void (2020)


*Artist: Eternal Engine
*Album: Into The Void
*Year: 2020
*Genre: Psychedelic Stoner/Progressive Doom Metal
*Country: Germany
*Format: mp3@CBR320kbps
*Size: 111MB

Tracklist:
01. Green Boots 06:42
02. Witch 05:58
03. The Masque of Anarchy 05:54
04. Apple-2 06:04
05. Heretic 07:31
06. Mars Red Sky 07:42
07. Frontiers 08:31
******************************
Total playing time: 48:22




[more=Extended info][youtube]enghSA6uAbM[/youtube]

Out of the bleak landscape of rural South Germany, between huge industrial plants and dark, remote forests, comes ETERNAL ENGINE. Since their founding in 2014 they crafted a unique sound of heavy riffs and atmospheric melodies and finally managed to capture all that on INTO THE VOID.
INTO THE VOID tells 7 stories from the top of the highest mountain, over the war-ravaged lands to the deepest of hell and into the void of space.

Eternal Engine are:
Corbinian Schwarz (Drums)
Bouke van Haasteren (Bass)
Uwe Halmich (Vocals/Guitar)

All songs written and performed by Eternal Engine
Lyrics to The Masque of Anarchy by Percy Bysshe Shelley
Recorded by Eternal Engine
Mixed by Uwe Halmich
Mastered at HOFA Studios
Artwork by Dabulga Design

Eternal Engine Bretten, Germany[/more]

[more=Technical info]
Input File: 01-Green Boots.mp3
Channels : 2
Sample Rate : 44100
Precision : 16-bit
Duration : 00:06:42.42 = 17746502 samples = 30181.1 CDDA sectors
File Size : 16.1M
Bit Rate : 320k
Sample Encoding: MPEG audio (layer I, II or III)
Comments :
Title=Green Boots
Artist=Eternal Engine
Album=Into the Void
Tracknumber=1
Year=2020
Genre=Psychedelic Stoner / Progressive Doom Metal

[/more]

Register
(17) autumnwood, BlackTroll, chipsgott, HMHamster, infiltrator, kimkayoung, krotovich, LEGION69, marilin, metala, multizwilling, Olethros, robertho777, SatanicPanzer, stub888, terron, VALERY,
Mar 21 2020, 12:15:48 Storm Within - Fear Not The Darkness (2020)


*Artist: Storm Within
*Album: Fear Not The Darkness
*Year: 2020
*Genre: Progressive/Heavy/Power Metal
*Country: United States
*Format: mp3@CBR320kbps
*Size: 92MB

Tracklist:
01. The Coming Storm
02. Fear Not the Darkness
03. Finding Euphoria
04. Umbra
05. Ikey
06. Passage
07. Ambivalence
08. The Visit
******************************
Total playing time: 40:09




[more=Extended info][youtube]whYUE3Rzjb4[/youtube]

Line Up:
Stella-Brenna Holland - Vocals
Clayton Cobb - Bass
Michael Kyle - Guitars
James Hestand - Guitars
Justin Matthews - Drums[/more]

[more=Technical info]
Input File: 02-Fear Not the Darkness.mp3
Channels : 2
Sample Rate : 44100
Precision : 16-bit
Duration : 00:07:09.95 = 18960795 samples = 32246.2 CDDA sectors
File Size : 17.2M
Bit Rate : 320k
Sample Encoding: MPEG audio (layer I, II or III)
Comments :
Title=Fear Not the Darkness
Artist=Storm Within
Album=Fear Not the Darkness
Tracknumber=2
Year=2020
Genre=Progressive / Heavy Metal / Female Vocal

[/more]

Register
(13) aviacademy, chipsgott, Herrant, infiltrator, infozahist, metala, morbidangelo, multizwilling, Olethros, Rover, senecazm, stumpheavyrock, Сварог Барг,
Mar 21 2020, 12:04:27 Be Subtle! - Age Of Reputation (2020)


*Artist: Be Subtle!
*Album: Age Of Reputation
*Year: 2020
*Genre: Progressive Metal/Instrumental
*Country: Netherlands
*Format: mp3@CBR320kbps
*Size: 75MB

Tracklist:
01. Education
02. Democracy
03. Religion
04. Fear
05. Begrudge
06. Grudge
07. Justice
08. Science
09. Health
10. History
******************************
Total playing time: 32:53

Preview 1


[more=Extended info][youtube]-xAzljB4ZL4[/youtube]

[youtube]nlGgmj4UGS0[/youtube]

[youtube]cPRm9PlAf94[/youtube]

[youtube]mysG8CN_H5g[/youtube]

https://scontent-frt3-2.xx.fbcdn.net/v/t1.0-0/p370x247/79176328_756539234844270_4657221257404612608_o.jpg?_nc_cat=103&_nc_sid=85a577&_nc_ohc=-QWWO94kDdEAX8AAHda&_nc_ht=scontent-frt3-2.xx&_nc_tp=6&oh=96b92a8fb0899cfd6b587c5ff3f73954&oe=5E9A8073

Be Subtle! is an instrumental progressive solo act from The Netherlands. Reinout Haank started in January 2019 with the first single ‘Education’ and the plan to release a new song every month. This happened and that format is still going strong. A new song is written, recorded, mixed, mastered and released in a month. This has formed some imperfect songs but that has been both the challenge and the goal of Be Subtle! since the start. Imperfection is a part of what makes the music stand out.
The name Be Subtle! came from Reinout’s feeling that almost everything had to be either extremely big or extremely small and he felt there was more need to “Be Subtle!” The extra exclamation was added to both further emphasise the point but also to add a little contradiction in the bandname.
Even with this way of releasing single songs every month, Be Subtle! still work trough a sort of album format. All songs that are released in a year are have song titles that refer to the full ‘album’ they are all on. In 2019 all songs were part of the full album ‘The Age of Reputation’. In 2020, the album ‘The Battles, Picked’ is being released one song at a time.[/more]

[more=Technical info]
Input File: 01-Education.mp3
Channels : 2
Sample Rate : 44100
Precision : 16-bit
Duration : 00:04:23.59 = 11624451 samples = 19769.5 CDDA sectors
File Size : 10.5M
Bit Rate : 320k
Sample Encoding: MPEG audio (layer I, II or III)
Comments :
Title=Education
Artist=Be Subtle!
Album=Age Of Reputation
Tracknumber=1
Year=2020
Genre=Progressive Metal / Instrumental

[/more]

Register
(5) chipsgott, infiltrator, metala, Olethros, Ostinato,
Mar 21 2020, 10:40:25 Orkrist - Artifacts Of Life (2020)


*Artist: Orkrist
*Album: Artifacts Of Life
*Year: 2020
*Genre: Melodic Black/Doom/Heavy Metal
*Country: Slovakia
*Format: mp3@CBR320kbps
*Size: 106MB

Tracklist:
01. Carpathian Wedding (Intro) 01:20
02. Forest's Bride 05:26
03. Shadowlord II 04:32
04. Interludium I 01:04
05. Where the Knights Sleep, Undying 04:47
06. Interludium II 00:42
07. Eterni-Tree 04:40
08. Maid, Dragon, Brother's Blood and Wood So Cursed 04:36
09. Incarceration of Innocence - Artifacts of Life 07:01
10. Last MMIV 05:57
11. Cold Winter Leave 05:48
******************************
Total playing time: 45:53




[more=Extended info][youtube]HZ38YYWguXg[/youtube]

[youtube]D0Bb_YlAYS0[/youtube]

[youtube]XDgyrH-Jgi4[/youtube]

Lineup:
Pyros Drums, Percussion
Lydia Flute, Vocals (female)
Khayo Guitars
Grom Vocals, Synths[/more]

[more=Technical info]
Input File: 02-Forest\'s Bride.mp3
Channels : 2
Sample Rate : 44100
Precision : 16-bit
Duration : 00:05:26.24 = 14387096 samples = 24467.9 CDDA sectors
File Size : 13.1M
Bit Rate : 320k
Sample Encoding: MPEG audio (layer I, II or III)
Comments :
Title=Forest's Bride
Artist=Orkrist
Album=Artifacts of Life
Tracknumber=2
Year=2020
Genre=Melodic Black/Doom/Heavy Metal

[/more]

Register
(39) AHBAnep, Alpha_Prime, BERZERK, Bloodn Lord, cist, craP_cillA, Daecadance, Dark_Viking, DenisKov, Druidir, dulak, Hefir, infiltrator, judaz, kimkayoung, Luminous, metala, morbidangelo, Old Vyaine, Olethros, Ostinato, SaintVitus, Sanctus, SAPOGi, senecazm, sergsazan, serjred, stumpheavyrock, tOmV, VALERY, vasiljev_sergej, Veggr, vikt11, Vranakrik, Wail, xska, zhol, Сварог Барг, скептик,
Mar 21 2020, 09:06:58 Neorhythm - Terrastory (2020)


*Artist: Neorhythm
*Album: Terrastory
*Year: 2020
*Genre: Progressive Groove/Math Metal
*Country: Finland
*Format: mp3@CBR320kbps
*Size: 104MB

Tracklist:
01. Mirovia 02:06
02. Photosynthesis and Its Aftermath 04:03
03. Milken Step of Humankind 04:06
04. Fight for Fire 02:58
05. Zeus Rules! 04:38
06. Empire Glory 06:03
07. The Critique of Dark Reason 04:48
08. Sapere Aude 03:52
09. Global Mayhems 04:05
10. Information Age 04:35
11. Anticipations 03:50
******************************
Total playing time: 45:04


Preview 2
Preview 3

[more=Extended info][youtube]xUXQl2lPedU[/youtube]

Земляне!
Мы представляем на Ваш суд и изучение нашу вторую глобальную работу под названием "Terrastory" - концептуальный альбом, обозревающий и описывающий историю и эволюцию человечества и цивилизаций, рассказывающий всю историю планеты Земля от зарождения звезды до наших дней. Мы пронизали временное пространство от архейского эона до модерна, исследовали различные культуры и постарались передать не только лирически, но и музыкально развитие нашего отчего дома, от протобактерального мира до современного технологического прогресса, попытавшись заглянуть даже в будущее.
Ибо История — сокровищница людских деяний, свидетельница прошлого, пример и поучение для настоящего и предостережение для будущего.

Да счастлив будет познающий!

Neorhythm:
Деметр Грэйл - вокал, лирика
Евгений Рассадкин - инструменты, музыка

Орм Эмбар - оформление
Роман Арсафес - сведение, мастеринг[/more]

[more=Technical info]
Input File: 02-Photosynthesis and Its Aftermath.mp3
Channels : 2
Sample Rate : 44100
Precision : 16-bit
Duration : 00:04:03.79 = 10751183 samples = 18284.3 CDDA sectors
File Size : 9.75M
Bit Rate : 320k
Sample Encoding: MPEG audio (layer I, II or III)
Comments :
Title=Photosynthesis and Its Aftermath
Artist=Neorhythm
Album=Terrastory
Tracknumber=2
Year=2020
Genre=Progressive Groove / Math Metal

[/more]

Register
(11) chipsgott, infiltrator, kimkayoung, maochen, metala, morbidangelo, Olethros, sadmannn, Shadowman, stumpheavyrock, terron,
Mar 21 2020, 08:47:20 Ovid's Withering - Terraphage (2020)


*Artist: Ovid's Withering
*Album: Terraphage
*Year: 2020
*Genre: Symphonic/Blackened/Progressive Deathcore
*Country: United States
*Format: mp3@CBR320kbps
*Size: 144MB

Tracklist:
01. Oracle 07:00
02. Godless 06:55
03. Spectres on the Ebon River 05:18
04. The Bandits of Shamblekeep 07:28
05. At the Dreadlord's Behest 06:32
06. Ballad of the Lycan 01:17
07. Bloodscape 08:11
08. Tholg 05:09
09. Desperation 01:21
10. Corpsemover I 06:07
11. Corpsemover II 03:46
******************************
Total playing time: 59:04




[more=Extended info][youtube]EtBlCrP3bjY[/youtube]

Guest Solo on "Tholg" - Jeffrey Fisher
Guest Vocals on "Tholg" - Filip Danielsson of Humanity's Last Breath
Guest Narration on "The Bandits of Shamblekeep" - Desmond Reddick

*Mastered by Stephan Hawkes at Interlace Audio North, Portland Oregon*
Album Artwork by Michael Salas[/more]

[more=Technical info]
Input File: 01-Oracle.mp3
Channels : 2
Sample Rate : 44100
Precision : 16-bit
Duration : 00:07:01.02 = 18566762 samples = 31576.1 CDDA sectors
File Size : 16.8M
Bit Rate : 320k
Sample Encoding: MPEG audio (layer I, II or III)
Comments :
Title=Oracle
Artist=Ovid's Withering
Album=Terraphage
Tracknumber=1
Year=2020
Genre=Progressive Deathcore / Symphonic / Blackened

[/more]

Register
(10) chipsgott, Femto, kimkayoung, metala, Morgoth, Olethros, Ostinato, ProstoPuh, sadmannn, VALERY,
Mar 21 2020, 08:06:07 Roman Ring - The Halogen (2020)
Более годный FLAC-Rip mp3@320
Register


FLAC tracks
Register
(6) AHBAnep, atavist, FunZombie, infiltrator, older68, Olethros,
Mar 20 2020, 22:08:29 Nam-Khar - Sur Chöd (2020)


*Artist: Nam-Khar
*Album: Sur Chöd
*Year: 2020
*Genre: Dark Ambient/Ritual/Drone/Experimental
*Country: Netherlands
*Format: mp3@CBR320kbps
*Size: 142MB

Tracklist:
01. Dgra Lha 08:38
02. aDre 13:00
03. Dregs Pa 07:19
04. gNod sybyin 10:09
05. Gangs chen mdzod lnga 09:41
06. T'ew rang 13:09
******************************
Total playing time: 1:01:56



Preview 3


[more=Extended info][youtube]IT7iU57AQjg[/youtube]

On "Sur Chöd" Nam-Khar are:
Boenke, Gossmann, Gyaltsen, Martinegou, Prochir.

The Track "T´ew rang" is a collaboration with Akoustik Timbre Frekuency.

All music by Nam-Khar.
Mastered by Robin Storey/Rapoon.
Cover artwork and design by Midnight Sun Studio.[/more]

[more=Technical info]
Input File: 04-gNod sybyin.mp3
Channels : 2
Sample Rate : 48000
Precision : 16-bit
Duration : 00:10:08.64 = 29214864 samples ~ 45648.2 CDDA sectors
File Size : 24.3M
Bit Rate : 320k
Sample Encoding: MPEG audio (layer I, II or III)
Comments :
Title=gNod sybyin
Artist=Nam-Khar
Album=Sur Chöd
Tracknumber=4
Year=2020
Genre=Dark Ambient/Drone/Experimental

[/more]

Register
(5) A.L.Rapsod, gena, Infidel, infiltrator, Olethros,
Mar 20 2020, 21:29:58 Roman Ring - The Halogen (2020)


*Artist: Roman Ring
*Album: The Halogen
*Year: 2020
*Genre: Technical Death Metal/Deathcore
*Country: United States
*Format: mp3@CBR320kbps
*Size: 82MB

Tracklist:
01. Charles 02:49
02. Vatican City 04:40
03. God Narcotic 06:09
04. Helix Altar 01:11
05. Umbra Mortis 03:41
06. Flesh Dispel 10:21
07. White Noise 06:33
******************************
Total playing time: 35:24




[more=Extended info][youtube]1RdSg_IBpJk[/youtube]

Lineup:
Bill Fay Guitars (2011-present)
Nate Madden Guitars (2011-present)
Franco Caballero Bass (2012-present)
Danny Rodriguez Vocals (2013-present)
Jason Nitts Drums (2014-present)[/more]

[more=Technical info]
Input File: 06-Flesh Dispel.mp3
Channels : 2
Sample Rate : 44100
Precision : 16-bit
Duration : 00:10:20.65 = 27370841 samples = 46549 CDDA sectors
File Size : 24.8M
Bit Rate : 320k
Sample Encoding: MPEG audio (layer I, II or III)
Comments :
Title=Flesh Dispel
Artist=Roman Ring
Album=The Halogen
Tracknumber=6
Year=2020
Genre=Technical Death Metal/Deathcore

[/more]

Register
(10) atavist, Bloodn Lord, chipsgott, GorAtheist, infiltrator, maochen, metala, Olethros, VALERY, Vladimir,
Mar 20 2020, 21:06:35 The Oblyvion - Amygdala (2020)


*Artist: The Oblyvion
*Album: Amygdala
*Year: 2020
*Genre: Melodic Death Metal/Modern Metal
*Country: Germany
*Format: mp3@CBR320kbps
*Size: 100MB

Tracklist:
01. Intro 02:36
02. Praying Mantis 04:44
03. New Messiah 04:20
04. Helios 04:25
05. Flawless 03:38
06. Black Orchid 04:06
07. Amygdala 02:12
08. Hollow Crown 04:08
09. Losing Gravity 04:12
10. Infinite Youth 03:52
11. Pandorum 05:11
******************************
Total playing time: 43:24


Preview 2
Preview 3
Preview 4

[more=Extended info][youtube]JOnELHNA9C0[/youtube]

[youtube]Ali75cADElA[/youtube]

[youtube]RvjrKUcXlZ8[/youtube]

THE OBLYVION ARE:
christoph rogdakis - guitar
pablo mateo ramirez - guitar
attila erdélyi - vocals/piano
benedigt wagner - bass
ingo kolb - drums

released March 20, 2020

AMYGDALA was completely written and produced by THE OBLYVION,
music written by christoph rogdakis, arranged by christoph rogdakis, attila erdélyi and ingo kolb all lyrics are written by attila erdélyi
all piano, synths and orchestrations are written by attila erdélyi
mixed by marco bayati and mastered by marco kollenz[/more]

[more=Technical info]
Input File: 02-Praying Mantis.mp3
Channels : 2
Sample Rate : 44100
Precision : 16-bit
Duration : 00:04:44.99 = 12567971 samples = 21374.1 CDDA sectors
File Size : 11.4M
Bit Rate : 320k
Sample Encoding: MPEG audio (layer I, II or III)
Comments :
Title=Praying Mantis
Artist=The Oblyvion
Album=Amygdala
Tracknumber=2
Year=2020-03-20
Genre=Melodic Death Metal / Modern Metal

[/more]

Register
(11) Bloodn Lord, chipsgott, DenisKov, infiltrator, Olethros, SatanicPanzer, talismanFS, thenego, VALERY, Vladimir, zhol,
Mar 19 2020, 21:23:06 Arkana - Demoni [demo] (1996)
Unfortunately, only a terrible cassette rip.
Register
(2) stumpheavyrock, varlam4,
Mar 17 2020, 14:35:03 Soliloquium - Things We Leave Behind (2020)
ЦИТАТА(ondrazevsi @ 17th March 2020 - 16:03:27) *
Mirror, please?

Register
(10) infiltrator, kluval, marilin, Metalass, MMMMM, multizwilling, murayne, Old Vyaine, ondrazevsi, PainMiseryDeath,

23 Pages V   1 2 3 > » 
- Lo-Fi Version Support form
Copyrights and abuse reports form
Time is now: 1st April 2020 - 06:41:20