Welcome Guest ( Log In | Register )

История благодарностей участнику Tular ::: Спасибо сказали: 5725 раз(а)
Дата поста: В теме: За сообщение: Спасибо сказали:
Jul 13 2019, 21:10:24 Scorpions
ЦИТАТА(Anger @ 13th July 2019 - 23:08:46) *
ну это чисто твоя и тебе подобным вкусовщина

Да, вкусовшина человека, который их слушал.
(2) Exorcist, Old Vyaine,
Jul 11 2019, 22:26:38 Verwüstung - Gospel Ov Fury (2019)
ЦИТАТА(garmonbozia @ 7th July 2019 - 12:53:08) *
расколбасно

Всё так, и это главная черта альбома. Мне отлично заходит. Злость и воинственность на фундаменте алкоголизма.
(1) Абигор,
Jul 11 2019, 11:41:48 Devourment - Cognitive Sedation Butchery [single] (2019)
И еще одна
[youtube]8gF-860Y3R4[/youtube]
Гораздо лучше прошлого альбома.
(2) infiltrator, troll_swamp,
Jul 5 2019, 23:35:49 Bloody Hammers - The Summoning (2019)
По большому счету, это хэви-метал. Не чистейший, но всякие сторонние влияния здесь, пардон, не настолько влиятельны. Есть некоторая готичность, создаваемая клавишами, а в медленных вещах и музыка в целом отклоняется от тру-металёвых настроек (Welcome To Darkness звучит, как кавер на The Sisters Of Mercy), но не настолько, чтобы теги кромсать. Хэви, кстати, американской школы, не думаю, что NWOBHM. На Мановар не похоже, но Fire In The Dark, например, напомнила Grand Magus, которые как раз напоминают Мановар smile1.gif

Материал крутой. А если бы все было, как первая песня, то быть альбому года. Но место в десятке — тоже хорошо. Мелодии очень цепляющие, не требующие времени на раскус. Послушал песню до середины, а то и меньше, и уже знаешь: "О, это хит". Понравился звук. Очень четенько сведено, всем инструментам ровно столько места досталось, сколько надо. При этом главенствует вокал, что правильно. Хороший голос у дядьки, а манера, когда он напирает-напирает, а потом резко смягчается, создает существенную долю здешнего шарма.

На ютубе написали, что похоже на Ghost, только более металический. Не возражаю.
(1) vosmidesijatye,
Jul 3 2019, 23:04:04 Новости Experimental/Progressive Metal
Легендарная американская группа PSYCHOTIC WALTZ подписала контракт с InsideOutMusic на выпуск первого за 23 года стадийного альбома.

Новый материал будет записан вместе со звукоинженером Ulrich'ом Wild'ом, а сведением будет заниматься Jens Bogren (OPETH, FATES WARNING, ARCH ENEMY). Ожидается, что новый диск выйдет в 2020 году. Весь каталог PSYCHOTIC WALTZ будет переиздан на InsideOutMusic.
(2) Ghostb, mirotvorets,
Jun 27 2019, 18:28:50 The Red Widows - Fuzzifixion (2019)
Anhra Mainyu зачем-то эту тему прикрыл Нужен совет в Stoner/Doom Metal а ведь сабж как раз отлично вписывается в требуемые параметры. Стоунер-дум с очень резиновым звучанием, примитивным люцефирианством в текстах и ведьминым вокалом с охмурительным тремолированием. Запоминающиеся рефрены и интересное звуковое решение: не только грузит, как положено, но и обволакивает. Словно в бочке сидишь. Топчик.
(1) vosmidesijatye,
Jun 16 2019, 13:33:42 Soilwork - Underworld [ep] (2019)
Макс забебал, но адептус справился быстрее.
(1) technoboy69,
Jun 3 2019, 12:36:09 Accept - Death Row (1994)
ЦИТАТА(Yarri @ 3rd June 2019 - 13:16:06) *
Я бы сказал - Metal Heart. Хотя он вообще не проигрывает Balls To The Wall.

Metal Heart проигрывает Balls To The Wall и еще двум перед ним. Вот там лучший искать надо.
(3) Alexis The Best, infiltrator, vam1972,
Jun 1 2019, 23:36:13 Napalm Death - From Enslavement To Obliteration (1988)
ЦИТАТА(Old Vyaine @ 2nd June 2019 - 01:17:04) *
Категорически не понимаю, что крутого может быть в полутораминутных песнях.

В полутораминутных песнях может быть 90 секунд крутого музла.
(5) Alexis The Best, Anger, Emm Human, Ghostb, vam1972,
Jun 1 2019, 12:22:53 Irata - Tower (2019)


*Artist: Irata
*Album: Tower
*Year: 2019
*Genre: Progressive Stoner Metal
*Country: United States
*Format: mp3@CBR320kbps
*Size: 90MB

Tracklist:
01. Tower
02. Waking Eye
03. Weightless
04. Innocent Murmur
05. Leviathan
06. Crawl To Corners
07. Golden Tongue
08. Constellations
******************************
Total playing time: 39:07



[more=Technical info]
Input File: 01. Tower.mp3
Channels : 2
Sample Rate : 44100
Precision : 16-bit
Duration : 00:02:45.42 = 7294978 samples = 12406.4 CDDA sectors
File Size : 6.74M
Bit Rate : 326k
Sample Encoding: MPEG audio (layer I, II or III)
Comments :
Title=Tower
Artist=Irata
Album=Tower
Tracknumber=1
Year=2019
Genre=Metal

[/more]

Register
(5) Olethros, Ostinato, Rosen, snot, wreak,
May 29 2019, 18:28:25 Rammstein - Rammstein (2019)
А я сразу сказал, что ее надо было в конец альбома ставить. Ею же и концерт закончить можно.
Но потом вслушался, и понял, что Weit Weg еще лучше. Вторая песня на альбоме по лучшести. Началом еще на Perfect Strangers похожа.
(2) BERZERK, infiltrator,
May 28 2019, 13:59:28 !T.O.O.H.! (1) Ghostb,
May 28 2019, 11:27:53 Rammstein - Rammstein (2019)
ЦИТАТА(Krosis @ 17th May 2019 - 16:31:46) *
Не удивлюсь, если сетлист будет как на DVD Paris, на котором песен с LIFAD чуть более, чем нихрена

таки играют почти всё
https://www.setlist.fm/setlist/rammstein/20...y-2b9068a6.html
(2) 6666666, infiltrator,
May 27 2019, 22:42:20 Океан Мессиобожателей на Невском, или Голосовалка за лучший альбом 2018 года, Итог
21.gif
(2) infiltrator, paganheart,
May 26 2019, 13:27:05 Diamond Head - The Coffin Train (2019)
Хороший форматный альбом.
Не скажу, что я большой любитель Diamond Head, но слушаю этот альбом и прошлый, и аж радостно за дедов. Очень крепко и бодро звучат, уважуха. Не все там деды, конечно, но все же.
(1) hammer,
May 20 2019, 22:51:58 Rammstein - Rammstein (2019)
Deutschland — этой песне повезло с тем, что она стала саундтреком для лучшего видео Rammstein за всю их историю. Если бы я его раз десять не посмотрел, а просто включил бы альбом, то еще неизвестно, как бы отреагировал. Бэк-вокал Круспе не нравятся, выход на первый припев совсем никакой (зато на второй ух какой!), да и сам припев не лучший. Но я видел клип, и теперь это крутая песня.
Radio — приставучесть 80 левела. Опять какая-то нестыковка куплетов с припевами и опять клип скрашивает положение. Хотя песня и без него норм.
Zeig Dich — нравится настроение такое, с одной стороны тревожное ощущение неминуемого пижнеца, с другой — хладнокровие и решительность. На припеве Тилль куда-то улетел, ну да ничего.
Auslander — все уж было подумали, что за дискач на альбоме отвечает Radio, а тут на тебе! Совсем адский рэйв. Не понял только, к кому идет обращение "mon cheri", это ж мужской род! Вот такой ты, Тилль, полиглот.
Sex — хорошая, но какая-то буферная композиция. Проскакивает, особо не задерживаясь, хотя рифф назову, пожалуй, лучшим за весь альбом. Сделал бы честь какой-нибудь жирной стоунер-рок группе. Люблю такой кач.
Puppe — главная пьеса альбома, не похожая ни на что, что было у Rammstein до этого. Какую-то слабенькую параллель с Wiener Blut можно провести (на концертах под нее как раз куклы взрывались), но все равно не то. Понятно, что жуткий вокал делает 90% ее успеха, но остальное тоже получилось: и разделение песни пополам, и "та-дамм", и текст. Йргбуттгерйтйбнврот!
Was Ich Liebe — проблема этой песни в том, что она расположена не там, где надо. Эпичность, грустинка, рефлексия, усталость и задумчивость, такими нужно альбом заканчивать. Чтоб потом всё затихло, и ты сказал "Даааа". Недополучилось.
Diamant — проблема этой песни в том, что это и не песня вовсе. Шлифанули бы каким-нибудь соляком на виолончели, повторили бы припев, и было бы зупа гут. А вышла всего лишь интерлюдия. С трогательной вокальной партией и неплохим текстом, но "только этого мало".
Weit Weg — все про Was Ich Liebe касается и ее. Это, кстати, единственная пара песен за весь альбом, которые можно сопоставить и как-то приравнять. Электроника тут очень в тему.
Tattoo — если кто-то еще не понял, что Rammstein этим альбомом подводят итоги и играют все, что умеют, то у него есть шанс на этой песне, ибо она бы не потерялась на Sehnsucht.
Hallomann — вторая половина альбома для Rammstein оказалась традиционно слабее первой и закончилась самым невзрачным треком, который можно было и выкинуть. Но я тут обнаружил, что у них на каждом альбоме по 11 песен. Видимо, тоже традиции. 11. Две спички.

Кстати, о спичках. Символизм обложки можно трактовать по-разному, я думаю, что спичка просто олицетворяет группу. Которая ярко вспыхнула, немного погорела и спокойно себе угасла. И времени по вселенским меркам особо не прошло. Мне кажется, они уже твердо знают, что это их последний альбом, и на своем финальном концерте полуторатонную спичку, которая сейчас колесит по Германии, торжественно сожгут. И что-нибудь взорвут.

Альбом хороший, и с учетом моего непопулярного мнения о дискографии Rammstein, входит в топ-3 группы, но претензии к нему есть. Главная — быстро надоедает. Вторая — звук бывал и помясистее. Хоть он и записывался частично в Минске, но правда дороже. Третья — новый Oomph! лучше.

7,5 из 10
(5) 6666666, Black Cat, quicksand, SancheZZ, verner,
May 15 2019, 18:22:26 Rammstein - Rammstein (2019)
*бьет кулаком по колену*
Думаю, альбом вхож в топ-3 группы. Сохранили узнаваемость (ну а хмули там сохранять?), и даже сами себя цитируют, но при этом и наэкспериментировались вдоволь. Альбом-аттракцион эдакий получился, грядет несколько прогонов.
(4) Arseniy, Black Cat, infiltrator, RUSP73,
May 10 2019, 23:13:40 Black River - Humanoid (2019)
[youtube]vAJTOC3qMuI[/youtube]
(1) hammer,
May 10 2019, 13:15:13 Fear Factory
ЦИТАТА(Anger @ 8th May 2019 - 23:55:20) *
не было у них дэта иногда

Мощно задвинул.
(4) Arseniy, Exorcist, infiltrator, Synthaeon,
May 10 2019, 12:02:53 Whitesnake - Flesh & Blood (2019)


*Artist: Whitesnake
*Album: Flesh & Blood
*Year: 2019
*Genre: Hard Rock
*Country: United States
*Format: mp3@CBR320kbps
*Size: 195MB

Tracklist:
01. Good To See You Again (3:43)
02. Gonna Be Alright (3:52)
03. Shut Up & Kiss Me (3:37)
04. Hey You (You Make Me Rock) (5:30)
05. Always & Forever (3:53)
06. When I Think of You (Color Me Blue) (3:53)
07. Trouble Is Your Middle Name (4:17)
08. Flesh & Blood (5:18)
09. Well I Never (4:01)
10. Heart Of Stone (6:43)
11. Get Up (4:46)
12. After All (3:47)
13. Sands Of Time (6:09)
14. Can't Do Right For Doing Wrong (Bonus Track) (4:59)
15. If I Can't Have You (Bonus Track) (4:23)
16. Gonna Be Alright (X-Tendo Mix - Bonus Track) (4:12)
17. Sands Of Time (Radio Mix - Bonus Track) (6:21)
18. Shut Up & Kiss Me (Video Mix - Bonus Track) (3:44)
******************************
Total playing time: 1:23:08

[more=Extended info][youtube]hKMwGzOmtsE[/youtube][/more]

[more=Technical info]
Input File: 01 Good To See You Again.mp3
Channels : 2
Sample Rate : 44100
Precision : 16-bit
Duration : 00:03:42.60 = 9816836 samples = 16695.3 CDDA sectors
File Size : 9.21M
Bit Rate : 331k
Sample Encoding: MPEG audio (layer I, II or III)
Comments :
Title=Good To See You Again
Artist=Whitesnake
Album=Flesh & Blood (Deluxe Edition)
Tracknumber=1
Year=2019
Genre=Hard Rock
Discnumber=1

[/more]

Register
(17) Aresson, avkruchinin, canadaspaceman, cesar, Deimos, DMIYUR, hammer, jpvalentim, max_stalingradsky, metaljosue, Mplast, MеtalHead, Old Vyaine, tschunioronbeer, VALERY, veselchak_u, zaqxsw,
May 8 2019, 09:06:05 Новости Experimental/Progressive Metal
ЦИТАТА(mirotvorets @ 6th May 2019 - 13:42:35) *
TOOL Plays New Songs "Invincible" & "Descending" (with vocals) Live

Альбом 30 августа.
(1) Ghostb,
May 6 2019, 17:40:09 Bus - Never Decide (2019)
Греческая сцена зело радует. Оч крутой альбом, нашпигованный мелодиями и лишенный типичных жанровых недугов. Каждую песню словно другая банда играет, в итоге есть и трад-думовые мотивы, и простой, но дюже хитовый метальчик, и образцовый стоунер-грув, и психоделовые трипы, но без перегибов.
(1) Diflock,
May 6 2019, 12:35:35 Vltimas - Something Wicked Marches In (2019) (4) Baudolino, Deze, judaz, Lux,
May 5 2019, 12:26:30 Bus - Never Decide (2019)


*Artist: Bus
*Album: Never Decide
*Year: 2019
*Genre: Stoner Metal/Rock/Heavy Psych
*Country: Greece
*Format: mp3@CBR320kbps
*Size: 101MB

Tracklist:
1. You Better Come in You Better Calm Down
2. The Hunt
3. I Buried Paul
4. Lucifer
5. Moonchild
6. Into the Night
7. Evil Eyes
8. This King
******************************
Total playing time: 43:38

[more=Extended info][youtube]2KYQ1Webc7c[/youtube][/more]

[more=Technical info]
Input File: 05 - Moonchild.mp3
Channels : 2
Sample Rate : 44100
Precision : 16-bit
Duration : 00:02:44.56 = 7256964 samples = 12341.8 CDDA sectors
File Size : 6.69M
Bit Rate : 325k
Sample Encoding: MPEG audio (layer I, II or III)
Comments :
Title=Moonchild
Artist=Bus
Album=Never Decide
Tracknumber=5
Year=2019

[/more]

Register
(3) marilin, Rosen, yuratroll,
May 4 2019, 11:56:16 Evergrey - The Atlantic (2019)
Я Evergrey боюсь. Люблю и боюсь. Потому что всякий раз требуется несколько попыток на раскусывание альбома, с неопределенным результатом. В случае с ранними, музыка раз на четвертый раскрывалась во всем великолепии и до этого максимум интригующие песни оказывались хитами, которые ни с того ни с сего начинаешь напевать в любое время дня и ночи. А в более поздние годы находились альбомы, через которые буквально приходилось продираться, а в итоге обнаруживаешь лишь зияющую пустоту.
В этот раз внезапно все изменилось. Альбом для меня не раскрылся и не оказался чем-то выдающимся, но зато на первом же прогоне погрузил меня в умиротворение и нордическую меланхолию. Абсолютно типичные для группы настроения, но поданы под немного другим углом. Просто приятно в этом пребывать и слушать Энглунда (вот он никогда не разочаровывает, и благодаря его голосу откровенных провалов у Evergrey не бывает), иногда отвлекаясь на цепляющие мелодические кусочки, коих относительно немного. Вряд ли я предпочту такую формулу, например, The Inner Circle, но она точно жизнеспособна и одобряема.
(2) hammer, mirotvorets,

83 Pages V   1 2 3 > » 
- Lo-Fi Version Support form
Copyrights and abuse reports form
Time is now: 19th July 2019 - 09:05:54

https://kalamrita.ru/lubovniy_goroskop/