Welcome Guest ( Log In | Register )

Объявления

* gmail.com упорно продолжает считать почту с нас "unsolicited" и отбивает в том числе и письма активации, поэтому просьба использовать альтернативные почтовые ящики.
------------
* gmail.com continues reject all mail from us as "unsolicited" (activation mails too) therefore please use alternate mail servers.
История благодарностей участнику bloodwind ::: Спасибо сказали: 200 раз(а)
Дата поста: В теме: За сообщение: Спасибо сказали:
May 11 2021, 21:32:50 Fluisteraars - Bloem (2020)
Register
(13) dead4, dm_372761, eternald, Fallen Soul, furia666, gena, Kazoth, korovakaska, MadCarrot, Mencae77, metal73, morve, SortVokter,
Sep 15 2019, 17:20:39 Armagenda - Seelentyrann (2019)
Показалось.
(1) ent404,
Nov 30 2018, 18:19:16 Мужчины В Металле - Пусть Душа Расправит Крылья (2018)
Не слушал, но осуждаю.
(4) Deze, Maestrovs, maxmagmas, Nattfodd,
Jul 9 2013, 14:37:25 Devastator - Nuclear Proliferation (2006)
Register
(1) artscald,
May 23 2013, 13:14:46 Thrash c death вокалом, thrash-death c уклоном в thrash
Вот весьма годная подборка по дез-трэшу, может пригодится кому, лично я для себя выцепил кучу отличных команд.
[youtube]BbMxbpNeNEM[/youtube]
[youtube]ZLYeiJzDlOo[/youtube]
[youtube]KjsvAGi8flc[/youtube]
(2) daffy190, Leshiy666,
May 23 2013, 10:04:45 Deviated Instinct - Liberty Crawls To The Sanctuary Of Slaves [ep] (2012)


*Artist: Deviated Instinct
*Album: Liberty Crawls To The Sanctuary Of Slaves [ep]
*Year: 2012
*Genre: Crust Punk/Death Metal
*Country: United Kingdom
*Format: mp3@CBR128kbps
*Size: 19MB

Tracklist:
1. Blunt Instrument
2. Architect of Misery
3. Thorn In Your Flesh
4. Blandscape Slavebait
******************************
Total playing time: 19:50

Register
(4) abob, IllInTheHead, krevill123, Razorbladeswaltz,
Jan 21 2013, 18:29:40 Old - Down With The Nails (2006)
Register
(5) Boozer, DarkHorde, deathic, marilin, zlvd,
Nov 21 2012, 08:04:37 Mosh Angel - In The Sign Of Mosh Angel [demo] (2002)
Register
(2) MEmethuselah, Samaritianin,
Oct 14 2012, 15:01:12 Байки из склепа
Думаю этот альбом здесь будет в кассу, несмотря на то. что два предыдущих являют собой дез-трэш, весьма качественный кстати.
Num Skull - When Suffering Comes (1996)
[youtube]s2YUkcIVWjk[/youtube]
(1) Alex5,
Sep 8 2012, 22:36:41 Саундтрек Апокалипсиса
Grave Ritual
[youtube]jSzB5B2Ui9M[/youtube]
(1) Alex5,
Sep 8 2012, 22:21:08 Саундтрек Апокалипсиса
Profanal
[youtube]7AONe8pGFik[/youtube]

Necrowretch
(1) Alex5,
Jun 30 2012, 06:53:32 Wrathprayer - The Sun Of Moloch: The Sublimation Of Sulphur's Essence Which Spawned Death And Life (2012)
отличный альбом!
звук почище стал, чем на демке, но атмосфера осталась та же, что радует.
(1) Beazth,
Jun 10 2012, 10:02:19 Svartidauði - Those Who Crawl And Slither Shall Again Inherit The Earth [demo] (2010)
разделённая версия:
Register
(10) acerbus, donnar, Fryz, hastur, Hswhhh, infiltrator, Kazoth, Kwaad, Sarcis, toly1917,
Jun 7 2012, 17:32:37 Sadomator - Goatblood Panspermia (2010)
Register
(6) abob, anguis666, Black Arts, Disgorge666, Eug En, Redesecretor,
May 30 2012, 15:40:38 Martyrdöd - Paranoia (2012)


*Artist: Martyrdöd
*Album: Paranoia
*Year: 2012
*Genre: Black Metal/Crust
*Country: Sweden
*Format: mp3@CBR320kbps
*Size: 93MB

Tracklist:
01. Nog Är Nog
02. Överkom Er Rädsla
03. Klassfienden
04. Hör Världens Rop
05. Ett Hjärta Av Eld
06. En Tragisk Zeitgeist
07. Det Sker Samtidigt
08. Paranoia
09. Köttberg
10. Avbön
11. Varje Val Har Sitt Pris
******************************
Total playing time: 42:07

[more=Extended info]


Input File: 01. Nog Ar Nog.mp3
Channels : 2
Sample Rate : 44100
Precision : 16-bit
Duration : 00:05:20.50 = 14134182 samples = 24037.7 CDDA sectors
File Size : 12.8M
Bit Rate : 320k
Sample Encoding: MPEG audio (layer I, II or III)
Comments :
Title=Nog Ar Nog
Artist=Martyrdöd
Album=Paranoia
Tracknumber=01/11
Year=2012
Genre=Crust

[/more]

Register
(31) artscald, Ballisargon, Carcharoth, Constantinus I, DOKTORBLACK88, e2_81, fuck3r, Genuine Thrashiac, Infidel, Konst, Koscheyushka, metal73, Mich, nannoblack, neoatheist, Representer, RipperCrust, sarcophagus, satanist666, Scuns, SIAVASH, SilverLady, Thunderbird, tont, Urfeuer, uroboros, VALERY, varlam4, Wolfera, xska, Варонъ,
Apr 13 2012, 10:49:13 Bonesaw - Sawtopsy (2009)
Register
(2) incensestick, Proteus_666,
Dec 26 2011, 18:59:36 Diocletian - Sect Of Swords [ep] (2008)
Register
(4) achimmada, Kerkerseele, SilentNidhogg, Urfeuer,
Jun 7 2011, 15:55:37 Disma - The Vault Of Membros [demo] (2009)
reupload please!
(1) satanist666,
Apr 23 2011, 09:53:59 Speedwolf - Denver666 [ep] (2010)
Register
(2) Evrom, Genuine Thrashiac,
Apr 19 2011, 12:26:43 Wargrinder & Blasphemous Noise Torment - New Age Terrorism/Destruction And Re-Generation [split] (2002)
reupload please!
(1) Ugly13,
Apr 13 2011, 16:10:01 Mosh Angel - In The Sign Of Mosh Angel [demo] (2002)


*Artist: Mosh Angel
*Album: In The Sign Of Mosh Angel [demo]
*Year: 2002
*Genre: Thrash/Speed Metal
*Country: Finland
*Format: mp3@CBR160kbps
*Size: 17MB

Tracklist:
1. The Revenge Of The Grave Digger 03:08
2. Tormentor 03:27
3. Fire In The Night 02:47
4. High Speed Metal 05:21
******************************
Total playing time: 14:43

http://www.mikseri.net/artists/?id=31138

Register
(5) ancientlair, garretje, Genuine Thrashiac, metala, satanas189,
Mar 9 2011, 20:38:33 Sadistik Goathammer - Goatical Nuclear Order [demo] (2008)
Register
(2) korovakaska, Wolftribes,
Jan 13 2011, 15:37:08 Bunker 66 - Out Of The Bunker [ep] (2010)
нашёл, если кому надо:
Register
(6) Boozer, crestfallen999, denver, freki, W.N.F.C., ZA670,
Nov 2 2010, 15:51:40 Sanguis Imperem & Nocturnal Blood - Imperial Impurity [split] (2010)
Register
(12) AHBAnep, Boozer, Hell_Is_Here, igore2911, MEmethuselah, Patrick, RUSP73, SilentNidhogg, uroboros, varlam4, W.N.F.C., Winter Funeral,
Oct 11 2010, 18:37:44 Diocletian - Decimator [ep] (2007)
Register
(7) achimmada, Brann, Pinhead666, RUSP73, spiritualdecay666, Urfeuer, Wolftribes,

2 Pages V   1 2 >
- Lo-Fi Version Support form
Copyrights and abuse reports form
Time is now: 14th June 2024 - 00:57:36