Welcome Guest ( Log In | Register )

История благодарностей участнику UlvhedinGrom ::: Спасибо сказали: 1937 раз(а)
Дата поста: В теме: За сообщение: Спасибо сказали:
Oct 15 2021, 08:45:43 Karachun - Хаморливасьць [demo] (1997)
ниче себе такое, одно из лучших демо не только в Беларуси, но и на всем пост-совке.
Register
(3) kim666, Rodin, thenecromancer,
Sep 21 2021, 06:40:47 Selvhat - Den Svarte Tid [demo] (2004)
Register
(1) thenecromancer,
Sep 17 2021, 20:37:32 Dimmu Borgir - Live At Dynamo Open Air,Eindhoven,Holland (30.05.1998) [bootleg] (1998)
[youtube]cGyXDvd6NzU[/youtube]
(1) thenecromancer,
Sep 14 2021, 15:30:11 Lvcifyre - The Broken Seal (2021)
Отлично, как и всегда.
(2) Antichrist, Nerevar,
Sep 14 2021, 15:28:00 Diabolical Fullmoon - The Pagan Wolves Will Rise Again (2021)
Отборная польская моча, жалкая попытка юного ляха скосплеить гениальные и нетленные творения старших собратьев. В утиль.
(1) lopuh21,
Jun 19 2021, 21:07:48 Granskog ‎– Carpathian Outlaws - 15 Years Of Bukowinian Pagan Madness [compilation] (2021)


*Artist: Granskog
*Album: Carpathian Outlaws - 15 Years Of Bukowinian Pagan Madness [compilation]
*Year: 2021
*Genre: Black Metal
*Country: Ukraine
*Format: mp3@CBR320kbps
*Size: 121MB

Tracklist:
1. Green And Black Seen As One (The First Leaves)
2. Unknown Woods Whisper My Name (Неведомые Леса Зовут Меня)
3. AutumnStorm
4. Werewolf Archetype (Архетип Вервольфа)
5. Last Battalion (Последний Батальон)
6. Alone (Goatmoon Cover)
7. Ancient Invocation (Давнє Закляття)
8. Cosmic Verities (Космосу Істини)
9. Thunder’s Hatchet (Громова Бартка)
10. A Spectre From The Past (Мара З Минулого)
11. Azelsgard’s Wolves (Волки Азельсгарда)
12. Tchugaister’s Dance (Танок Чугайстра)
13. Sun Is Setting Over A Black Mountain
14. Cosmic Verities
15. Thunder's Hatchet
16. Carpathian Windspirit (Fullmoon Cover)
17. Werewolf Archetype (Raw Mix)
18. Last Battalion (Raw Mix)
******************************
Total playing time: 54:03




[more=Extended info][/more]

[more=Technical info]
Input File: 01 - Green And Black Seen As One (The First Leaves).mp3
Channels : 2
Sample Rate : 44100
Precision : 16-bit
Duration : 00:02:10.53 = 5756505 samples = 9789.97 CDDA sectors
File Size : 5.22M
Bit Rate : 320k
Sample Encoding: MPEG audio (layer I, II or III)
Comments :
Title=Green And Black Seen As One (The First Leaves)
Artist=Granskog
Album=Carpathian Outlaws – 15 Years of Bukowinian Pagan Madness
Tracknumber=1/18
Year=2021
Genre=Black Metal

[/more]

Register
(24) Antichrist, Boozer, caro, dalex, dcatagua, Ildjarn, infiltrator, kim666, lordbathor, Moonshtook, Olethros, Reverend, russ777, stone88, supremo, Taakeferd, thenecromancer, VALERY, varlam4, vasiljev_sergej, Wail, Wilczygniew Strzygoń, wreak, Абигор,
Jun 15 2021, 16:13:30 Sigrblot - Blodsband (Blood Religion Manifest) (2003)
You can hear the track here (it's also available on the first press CD):

[youtube]3C8ngxSXvFE[/youtube]

fun fact, Tobias Forge pictured near Sigrblot poster.


(1) dalex,
May 16 2021, 16:03:37 Cultes Des Ghoules - Deeds Without A Name [ep] (2021)
ЦИТАТА(ent404 @ May 16 2021, 16:01:40) *
чувак, мы даже ноль пять не распивали, чтобы ты мне подобное заявлял)

каков вопрос - таков ответ)
(1) Occultas,
May 16 2021, 12:35:13 Ghost (1) thenecromancer,
Jan 17 2021, 14:19:43 Various Artists - Gummo Soundtrack [compilation] (1998)
320
Register
(2) canadaspaceman, INDARKNESS,
Jan 17 2021, 14:08:49 Thy Worshiper - Winter Dream [demo](1994)
320
Register
(3) Antichrist, stumpheavyrock, thenecromancer,
Jan 5 2021, 20:47:32 Burzum - Burzum (1992)
ЦИТАТА(NathanSS @ Jan 4 2021, 01:19:21) *
SOMEONE HAVE SCANS OF FIRST VERSIONS?

just buy the first press. bye.gif
(1) NathanSS,
Dec 27 2020, 00:20:20 Vondur - The Galactic Rock'n'roll Empire (1996)
320
Register
(4) kimkayoung, stumpheavyrock, thenecromancer, varlam4,
Dec 27 2020, 00:19:40 Algaion - The Herostratic Legacy [ep] (2001)
Register
(1) stumpheavyrock,
Dec 21 2020, 21:55:38 Château Noir - Troubadours Of Pestilence (2020) (4) Antichrist, Daale, Rodin, technoboy69,
Dec 1 2020, 12:37:18 VTTA - Там? Где! (2018)
FLAC
Register
(2) acerbus, Yuk,
Oct 3 2020, 12:36:50 Château Noir - Troubadours Of Pestilence (2020)
(3) Antichrist, Legacy100, suseka,
Oct 1 2020, 19:35:47 Château Noir - Troubadours Of Pestilence (2020)


*Artist: Château Noir
*Album: Troubadours Of Pestilence
*Year: 2020
*Genre: Black Metal
*Country: Ukraine
*Format: mp3@CBR320kbps
*Size: 58MB

Tracklist:
1. The Pest Is Nigh (Intro)
2. Dark Castle of Pestilence
3. Shrine of Adversaries
4. Seven Deadly Sins
5. The Victorious Flame
6. Mourning Soul (Absurd cover)
7. Into Oblivion (Outro)
******************************
Total playing time: 25:30:00


Youtube

[more=Technical info]
Input File: 02 - Dark Castle Of Pestilence.mp3
Channels : 2
Sample Rate : 44100
Precision : 16-bit
Duration : 00:04:05.61 = 10831401 samples = 18420.8 CDDA sectors
File Size : 9.83M
Bit Rate : 320k
Sample Encoding: MPEG audio (layer I, II or III)
Comment : 'Artist=Château Noir'

[/more]

Register
(60) 1968_janeart, 6666666, AlexSmith, alikkon, Antichrist, babanguida, Boozer, caro, Chasm, cist, comradEnemy, Daale, dalex, Ibex, Ildjarn, INDARKNESS, infiltrator, judaz, kim666, Legacy100, Ludwig Hagen, M8R8K, metal73, Moldavite, Moonshtook, multizwilling, nemx, nsk2008, Olethros, ondrazevsi, pahail, rammmirez, randumbum, regorgitated, rimfrost, robertho777, Rosen, SaintVitus, satanist666, SeeNoEvil, SilentNidhogg, smes, smysl, StabWound, stormhatt, Surt, suseka, system36, TeamatSE, technoboy69, thenecromancer, VALERY, varlam4, vasiljev_sergej, VECTOR, Wail, wreak, zotyo1975, Абигор, Авел,
Jan 26 2020, 21:23:16 Branikald - The Strings Of Inspiration Sing (2000)
ЦИТАТА(DeathMetalBrony @ Jan 23 2020, 10:07:06) *
Альбом был переиздан Blazebirth Hall под названием «Ulvegr». Кто-нибудь думает, что он может отсканировать его любому, кто заказал у них диск? Всегда любил оформление релиза.

Издан не Blazebirth Hall, а бутлеггером чернобобой, прошу не путать. Официальная версия скоро на Der Schwarze Tod.
(1) Moonshtook,
Jan 26 2020, 21:04:18 Council Daimonion - When Hell Calls... [demo] (2018)
Это даже не дань великому прошлому, это живое прошлое! Без преувеличений гениально.
(4) Antichrist, infiltrator, rimfrost, Абигор,
Oct 29 2019, 09:52:14 Seigneur Voland
ЦИТАТА(yarrsuaa @ Oct 19 2019, 06:06:12) *
Даже в Японии будет пара концертов, собственно, на японском лейбле выпустили ремастеред компиляцию

Крайне сомнительная инфа...
(2) lordbathor, rimfrost,
Jun 23 2019, 11:39:47 Deus Mortem - Kosmocide (2019)
Мощный альбом, что сказать. Отлично слушается, особенно на фоне того дерьма, которое массово выпускается на сегодняшний день.
(2) Antichrist, suseka,
Jun 18 2019, 07:56:26 Mortuary Drape - Into The Drape [ep] (1992)
ЦИТАТА(PanzerDivisionMarduk @ Jun 18 2019, 02:06:47) *
Re-upload please.

The link above is still working.
(3) Antichrist, infiltrator, thenecromancer,
Aug 31 2018, 09:58:54 Granskog & Château Noir - Shrine Of Adversaries [split] (2016)
[youtube]4aDQMV-O8kI[/youtube]


(1) Storky,
Aug 24 2018, 10:26:16 Château Noir - The Victorious Flame [demo] (2012)
[youtube]5H2r3U2McIs[/youtube]



(2) Moldavite, Storky,

17 Pages V   1 2 3 > » 
- Lo-Fi Version Support form
Copyrights and abuse reports form
Time is now: 23rd October 2021 - 22:13:17