Welcome Guest ( Log In | Register )

История благодарностей участнику Dreamtale ::: Спасибо сказали: 868 раз(а)
Дата поста: В теме: За сообщение: Спасибо сказали:
Sep 17 2021, 18:45:38 Ghostheart Nebula - Ascension (2021)
Хороший альбом.
(1) WOLAND,
Sep 6 2021, 19:03:42 Iron Maiden - Senjutsu (2021)
С учетом того, что пацанам под 70 лет уже, альбом нормальный. Stratego зашла - хитовенько.
(1) plfan93,
Aug 27 2021, 10:54:26 Leprous - Aphelion (2021)
Интересно, можно ли запретить сабж по статье о пропаганде сами знаете чего?..
(1) Shadowman,
Aug 13 2021, 11:52:42 Dream Theater - The Alien [single] (2021)


*Artist: Dream Theater
*Album: The Alien [single]
*Year: 2021
*Genre: Progressive Metal
*Country: United States
*Format: mp3@CBR320kbps
*Size: 22MB

Tracklist:
01. The Alien 9:32
******************************
Total playing time: 9:32



[more=Technical info]
Input File: 01 - The Alien.mp3
Channels : 2
Sample Rate : 48000
Precision : 16-bit
Duration : 00:09:32.00 = 27455760 samples ~ 42899.6 CDDA sectors
File Size : 23.0M
Bit Rate : 322k
Sample Encoding: MPEG audio (layer I, II or III)
Comments :
Title=The Alien
Artist=Dream Theater
Album=The Alien (Single)
Tracknumber=1
Year=2021
Genre=Progressive Metal

[/more]

Register
(17) ace73pq, Aresson, boby9052, caro, cesar, chipsgott, djsema4, gwynnbleid, older68, Olethros, Reverend, sadmannn, SAPOGi, Shadechaser, sludge666, wreak, Дерсу Узала,
Aug 11 2021, 19:52:52 Шип Сна - Шип Сна [ep] (2021)
ЦИТАТА(TDM @ 11th August 2021 - 20:44:48) *
алкогольный сумрак реверберации

Был там - никаких шипов не видел... 13.gif
(1) RUSP73,
Aug 9 2021, 23:37:43 Elffor - Arkaik (2021)


*Artist: Elffor
*Album: Arkaik
*Year: 2021
*Genre: Dungeon Synth
*Country: Spain
*Format: mp3@CBR320kbps
*Size: 101MB

Tracklist:
01. Voices From The Mountains Deep 22:07
02. Blood On The Wind 10:43
03. Iturbeltz 11:33
******************************
Total playing time: 44:23



[more=Technical info]
Input File: 02 - Blood On The Wind.mp3
Channels : 2
Sample Rate : 44100
Precision : 16-bit
Duration : 00:10:42.57 = 28337425 samples = 48192.9 CDDA sectors
File Size : 25.7M
Bit Rate : 320k
Sample Encoding: MPEG audio (layer I, II or III)
Comments :
Title=Blood On The Wind
Artist=Elffor
Album=Arkaik
Tracknumber=02
Year=2021
Genre=Dungeon Synth

[/more]

Register
(22) Boozer, Dragonballz, Emhyr var Emreis, gnosiis, Hexer, Infidel, kimkayoung, KKK1488, Lucju, nadin85, nemx, oldvarg, Olethros, rabindranad, recber, Reverend, Tarkron, tOmV, Torop, Zahrim, zargonath, zoog,
Jul 4 2021, 14:00:35 Nanowar Of Steel - Italian Folk Metal (2021)
А где, собственно, конкретно в этом релизе стёб? В текстах, которых никто не понимает, кроме итальянцев? А по музыке это в общем-то третьесорт.
(1) Shadowman,
Apr 21 2021, 11:24:14 Sylvatica - Ashes And Snow (2021)
ЦИТАТА(morrom @ 20th April 2021 - 14:42:00) *
Dividead - Exile (2011)

Сабж скучный, как и Винтерсан. Перезалейте лучше это.
(1) isvili,
Apr 3 2021, 15:41:37 Everson Poe - Grief (2021)
[youtube]C1Z12h92VwE[/youtube]
(2) infiltrator, Old Vyaine,
Apr 2 2021, 15:38:34 Arthuros - Goddess (2021)
Register
(2) infiltrator, Olethros,
Apr 1 2021, 15:02:41 Godspeed You! Black Emperor - G_D's Pee At State's End! (2021)
Хороший альбом. Ждем лося.
(2) deineath, infiltrator,
Apr 1 2021, 14:55:06 Arthuros - Goddess (2021)


*Artist: Arthuros
*Album: Goddess
*Year: 2021
*Genre: Dungeon Synth
*Country: Greece
*Format: mp3@CBR320kbps
*Size: 90MB

Tracklist:
01. Genesis Of A New Goddess... 1:59
02. Resisting Her Spell 3:54
03. Through Valley Of Charms 6:59
04. To Be Her Eternal Love 5:57
05. Forging Stardust Into Light 5:53
06. Vivid Memories Of An Ancient Past 6:20
07. Older Than Light... 7:42
******************************
Total playing time: 38:44



[more=Extended info]Personal purchase[/more]

[more=Technical info]
Input File: 03 - Through Valley Of Charms.mp3
Channels : 2
Sample Rate : 44100
Precision : 16-bit
Duration : 00:06:58.62 = 18461230 samples = 31396.6 CDDA sectors
File Size : 16.9M
Bit Rate : 323k
Sample Encoding: MPEG audio (layer I, II or III)
Comments :
Title=Through Valley Of Charms
Artist=Arthuros
Album=Goddess
Tracknumber=3
Year=2021
Genre=Dungeon Synth

[/more]

Register
(5) FunZombie, infiltrator, nemx, Occultas, Olethros,
Mar 31 2021, 11:54:50 Pure - Seeds Of Despair (2021)
[more="________________________________"][/more]
(10) Ash_1980, Dargaud, infiltrator, ingram, karut, Metalass, Nordavind, nsk2008, stub888, vosmidesijatye,
Mar 26 2021, 17:39:31 Oriflamme - L'égide Ardente (2021)
Про Орифлейм уже шутили?
(1) Strid,
Mar 25 2021, 16:46:34 Во Гневе - Furorem (2021)
ЦИТАТА(Vitald @ 25th March 2021 - 15:59:12) *
Не понравилось. На деле - малоинтересное диссонансное блеяние.

ЦИТАТА(WOLAND @ 25th March 2021 - 17:47:45) *
Одна из сильнейших работ в таком стиле за пятилетку точно .Без слабых мест. Вообще .

Всегда проигрывал с полярности мнений в блэк-тредах.
(2) Dantalian, vosmidesijatye,
Mar 15 2021, 13:10:57 Suncrown - Invincible (2021)
ЦИТАТА(avather @ 15th March 2021 - 01:47:13) *
В смысле, только превью и слушаешь?

(1) Foneg,
Mar 11 2021, 12:35:11 Orden Ogan - Final Days (2021)
ЦИТАТА(Terrorizer @ 10th March 2021 - 17:44:33) *
И, такое ощущение, что сползут они, таки, в модерн поп-метал

Это было бы лучше, чем то, что сейчас.
(1) MeatWolf,
Feb 25 2021, 15:45:08 Empyrium - Über Den Sternen (2021)
Ух бл!
(4) Bloodn Lord, infiltrator, lucifix, Maestrovs,
Feb 9 2021, 07:13:46 Daius - Ascuns (2021)
Во-первых, сорт оф дсбм вокал совершенно не гармонирует с музыкой. Во-вторых, это куда больше блек, чем упомянутый Саор; без дудок никто бы сходства и не заметил. Для дебюта норм, но общих восторгов не разделил.
(1) Metalass,
Jan 8 2021, 05:12:43 Winterblood - Waldeinsamkeit I-Iii (2018)


*Artist: Winterblood
*Album: Waldeinsamkeit I-Iii
*Year: 2018
*Genre: Dark Ambient
*Country: Italy
*Format: mp3@CBR320kbps
*Size: 281MB

Tracklist:
01. Waldeinsamkeit I - Chapter 1
02. Waldeinsamkeit I - Chapter 2
03. Waldeinsamkeit II
04. Waldeinsamkeit III
******************************
Total playing time: 2:03:30



[more=Extended info]Personal purchase[/more]

[more=Technical info]
Input File: 01 - Waldeinsamkeit I - Chapter 1.mp3
Channels : 2
Sample Rate : 44100
Precision : 16-bit
Duration : 00:28:06.76 = 74386028 samples = 126507 CDDA sectors
File Size : 67.6M
Bit Rate : 321k
Sample Encoding: MPEG audio (layer I, II or III)
Comments :
Title=Waldeinsamkeit I - Chapter 1
Artist=Winterblood
Album=Waldeinsamkeit I-III
Tracknumber=1
Year=2018

[/more]

Register
(7) gena, infiltrator, Olethros, recber, soulskinner681, undeadlich, wreak,
Nov 29 2020, 12:43:04 Dream Theater - Distant Memories - Live In London [live] (2020)
Лабри вживую - это, к сожалению, печально...
(4) Ghostb, plfan93, Rhoads, Хогги,
Oct 25 2020, 04:10:49 Thousand Oxen Fury - Victory March (2020)
Я такого отвратительного вокала давно не слышал! Музыка лучше.
(1) Ghostb,
Oct 22 2020, 04:01:14 Invisible Fortress - Sojourner (2020)
[youtube]m8Ec6PM7_Nk[/youtube]
(2) ace73pq, BandR75,
Oct 16 2020, 21:30:43 Old Tower - The Rise Of The Spectral Horizons [compilation] (2018)
ЦИТАТА(selvmord @ 16th October 2020 - 22:21:43) *
обновите линк, пожалуйста.

Register
(5) Alexis The Best, ent404, infiltrator, korovakaska, thenecromancer,
Oct 1 2020, 20:05:39 Amaranthe - Manifest (2020)
ЦИТАТА(Old Vyaine @ 1st October 2020 - 21:34:30) *
Манифест бибы, бобы и вовы?

Пупы и Лупы.
(1) Lucifer,

16 Pages V   1 2 3 > » 
- Lo-Fi Version Support form
Copyrights and abuse reports form
Time is now: 19th September 2021 - 19:04:15