Welcome Guest ( Log In | Register )

История благодарностей участнику Dreamtale ::: Спасибо сказали: 684 раз(а)
Дата поста: В теме: За сообщение: Спасибо сказали:
Mar 19 2020, 17:10:02 Sweven - The Eternal Resonance (2020)
До Свано многим далеко...
(2) Deze, infiltrator,
Mar 8 2020, 11:43:25 Висельник - Inexorable Fate [demo] (2020)
Register
(4) exorcist1969, infiltrator, multizwilling, Olethros,
Mar 7 2020, 23:49:28 Висельник - Inexorable Fate [demo] (2020)


*Artist: Висельник
*Album: Inexorable Fate [demo]
*Year: 2020
*Genre: Depressive Black Metal
*Country: Russian Federation
*Format: mp3@CBR320kbps
*Size: 91MB

Tracklist:
1. Contemplating Eternity 06:34
2. Prisoner of Depression 07:01
3. Dying Nature I 02:25
4. Look at the Eyes of Death 05:42
5. Pure Hatred 06:27
6. Dying Nature II 02:18
7. Ephemerality of the Material World 06:31
******************************
Total playing time: 36:58



[more=Extended info]Neratoh - all instruments, vocals.
Lord Tepean - album cover art.[/more]

[more=Technical info]
Input File: 01 - Contemplating Eternity.mp3
Channels : 2
Sample Rate : 44100
Precision : 16-bit
Duration : 00:06:34.18 = 17383470 samples = 29563.7 CDDA sectors
File Size : 15.8M
Bit Rate : 322k
Sample Encoding: MPEG audio (layer I, II or III)
Comments :
Title=Contemplating Eternity
Artist=Висельник
Album=Inexorable Fate (Demo)
Tracknumber=1
Year=2020

[/more]

Register
(19) 1968_janeart, alikkon, ASkyThatBurns, deadterror, Der_Hexer, exorcist1969, infiltrator, kim666, murian, randumbum, robertho777, Sanctus, senecazm, SilentNidhogg, thenecromancer, VALERY, varlam4, vasiljev_sergej, wreak,
Mar 1 2020, 18:12:21 Ilium - Carcinogeist (2020)
Нормальный альбом. не понимаю, что вы ожидали тут услышать? Пацаны явно собрались рубить музон конца 90-х - начала 00-х, без всяких наворотов и модерновых фишек (что в 2020 году уже само по себе необычно). Не вижу в этом ничего плохого. Всегда лучше качественно сыграть проверенный годами материал, чем кривыми руками пытаться собрать велосипед из графеновых нанотрубок.
(1) aviacademy,
Feb 29 2020, 23:13:22 Violet Cold - Noir Kid (2020)
Ну хоть не эмокид - и на том спасибо!
(1) seinto,
Feb 26 2020, 11:13:45 Kampen - Монолитов Сказ (2020) (1) plfan93,
Feb 14 2020, 03:32:22 Morketsvind - Saga Of Blood Lands (2018)
Register
(3) Der_Hexer, infiltrator, Moonshtook,
Feb 13 2020, 23:28:56 Morketsvind - Saga Of Blood Lands (2018)


*Artist: Morketsvind
*Album: Saga Of Blood Lands
*Year: 2018
*Genre: Dungeon Synth
*Country: Russian Federation
*Format: mp3@CBR320kbps
*Size: 85MB

Tracklist:
1.Crusade 03:24
2. Borderland Forest 04:00
3. Sunset in Dark Mountains 03:58
4. Mountains of Blood 03:23
5. Citadel on Horisont 03:02
6. Intrigues of Kha-Enir 03:07
7. Ceremony of Blood God 04:14
8. Imperial Ball 03:16
9. Gates above the Altar 03:41
10. Return 03:38
******************************
Total playing time: 35:43


VK

[more=Technical info]
Input File: Morketsvind - Saga Of Blood Lands - 01 Crusade.mp3
Channels : 2
Sample Rate : 44100
Precision : 16-bit
Duration : 00:03:24.08 = 8999884 samples = 15305.9 CDDA sectors
File Size : 8.26M
Bit Rate : 324k
Sample Encoding: MPEG audio (layer I, II or III)
Comments :
Title=Crusade
Artist=Morketsvind
Album=Saga Of Blood Lands
Tracknumber=1
Year=2018

[/more]

Register
(4) Der_Hexer, infiltrator, Sanctus, xska,
Feb 6 2020, 11:18:15 Delain - Apocalypse & Chill (2020)
ЦИТАТА(sadmannn @ 6th February 2020 - 11:06:30) *
ну, всё тот же маловыразительный псевдо-симфо-готик без единого хита

Требовать хиты от групп с фимейл вокалз в 2020 году – это харассмент и абьюзив бехевьор!
(10) Dargaud, draht, Ghostb, Kwaad, Maestrovs, MeatWolf, Old Vyaine, Thiarnan, Vardlokkur, Сварог Барг,
Feb 5 2020, 14:01:00 الجن - حراس قبر حمزة مطرب المقدس [demo] (2020)
Здесь нельзя взрываться!
(2) Battaleon, infiltrator,
Jan 28 2020, 17:19:48 Decarabia - Ancestral Kingdoms (2019)
ЦИТАТА(isvili @ 28th January 2020 - 11:49:24) *
только реализация отвратительная

А по-моему, так и задумано. Такой данжн синт стайл.
(1) Occultas,
Jan 28 2020, 17:17:44 Mulla - مَوْلَى (2020)
ЦИТАТА
Lyrical themes:
Islam

Если есть un-black, или white, metal, то это что, green metal?
https://media1.giphy.com/media/8lQyyys3SGBoUUxrUp/giphy.gif
(5) Eisbar, Foneg, infiltrator, Kuzya, Kwaad,
Jan 24 2020, 15:17:01 Dawn Of Solace - Waves (2020)
ЦИТАТА(vosmidesijatye @ 24th January 2020 - 12:54:31) *
Как будто шо то плохое.

Если бы я хотел послушать 69 глаз – я бы послушал 69 глаз. Я понимаю, что мои ожидания – это мои проблемы, но все же как-то рассчитывал здесь услышать атмосферный дарк метал, а не выхолощенный и безыдейный готик.
(1) BladeOvDarkness,
Dec 23 2019, 18:01:17 Sons Of Apollo - MMXX (2020)
Первый их альбом я так и не понял...

Этот тоже не понял.
(1) Shadowman,
Dec 5 2019, 12:30:06 Human Fortress - Reign Of Gold (2019)
О, 2003 год до сих пор иногда переслушиваю.
(1) Foneg,
Nov 24 2019, 14:07:29 Iapetus - The Body Cosmic (2019)
Прогрессивная составляющая понравилась, остальное шаблонно. Как вы тут финнов смогли усмотреть, я вообще хз.
(1) Lucifer,
Nov 15 2019, 01:45:55 Low Levels Of Serotonin - Katharsis (2019) (1) postal67,
Nov 13 2019, 13:58:48 Amenti - Fuerza Vital (2019)
Испаноязычный павер должен был запрещен законодательно, я давно говорю!
(5) avather, Foneg, MeatWolf, Mplast, Yarri,
Nov 8 2019, 21:45:25 The Dark Element - Songs The Night Sings (2019)
ЦИТАТА(Old Vyaine @ 8th November 2019 - 23:14:37) *
Клиповая тема — лучшее, что тут есть?

Там все одинаковые.
(1) Ghostb,
Oct 29 2019, 09:34:04 Vision Divine - When All The Heroes Are Dead (2019)
Держат свой уровень, проблема в том, что этот уровень никогда не был запредельным.
(1) Deze,
Oct 16 2019, 20:02:23 Twelve Eighteen - Ascendit Apparatus (2019)
[youtube]dpK8pRM5xII[/youtube]
(1) Old Vyaine,
Oct 10 2019, 15:50:25 Insomnium - Heart Like A Grave (2019)
Кстати, я так понимаю, оно не только у меня такое (насчет сабжа и вообще подобных групп): прослушал альбом не раз, даже понравилось, но вот спустя неделю я не помню оттуда ни одной ноты вообще...
(3) Baarin, Ghostb, infiltrator,
Oct 10 2019, 15:00:19 Ethereal Kingdoms - Hollow Mirror (2019)
Попытался вспомнить хоть один достойный фимейл вокалз релиз за последние N лет, но не смог...
(2) avather, sayfut,
Oct 10 2019, 13:18:36 Eye Of The Enemy - Titan (2019)
Если учесть, что эволюционно рога у многих животных сформулировались как атрибут внутривидовой борьбы за доминирование, а не как средство нападения, на всяких рогатых чертей на обложках можно взглянуть с новой, неожиданной стороны...
(2) infiltrator, vosmidesijatye,
Oct 10 2019, 13:15:11 Vanden Plas - The Ghost Xperiment - Awakening (2019)
Ну, всегда были такими крепкими середняками второго эшелона. Послушаем.
(2) Ghostb, infiltrator,

14 Pages V   1 2 3 > » 
- Lo-Fi Version Support form
Copyrights and abuse reports form
Time is now: 10th April 2020 - 11:03:47