Welcome Guest ( Log In | Register )

Объявления

* gmail.com упорно продолжает считать почту с нас "unsolicited" и отбивает в том числе и письма активации, поэтому просьба использовать альтернативные почтовые ящики.
------------
* gmail.com continues reject all mail from us as "unsolicited" (activation mails too) therefore please use alternate mail servers.
История благодарностей участнику deathic ::: Спасибо сказали: 185 раз(а)
Дата поста: В теме: За сообщение: Спасибо сказали:
Sep 23 2022, 16:11:02 Utter Silence - The Terror [ep] (2022)
QUOTE(thenecromancer @ Sep 23 2022, 08:47:23) *
320kbps (personal purchase from Bandcamp)


Thank you so much.
(1) thenecromancer,
Sep 18 2022, 03:00:38 Mournful Congregation - The Monad Of Creation (2005)
QUOTE(Purestenchkvlt @ Sep 18 2022, 01:45:52) *
please reup, thank you!


Link is still working.

https://disk.yandex.ru/public?hash=OFRAGG5V...Dbqen%2BqAig%3D
(3) Purestenchkvlt, SerpentineLords, Zhehan1986,
Sep 17 2022, 14:17:39 Mournful Congregation - Tears From A Grieving Heart (1999)
Please, re-upload.
(1) Purestenchkvlt,
Sep 13 2022, 23:42:09 Sirenia - The 13th Floor (2009)
Please, re-upload mp3 320.
(1) Veggr,
Sep 13 2022, 15:08:03 Lake Of Tears - Moons And Mushrooms (2007)
QUOTE(Ingvar @ Sep 13 2022, 15:45:30) *
107 mb/320 kbps



спасибо большое! My russian friend. smile1.gif
(1) Ingvar,
May 6 2022, 15:53:54 Lacrimas Profundere - Memorandum (1999)
QUOTE(Ingvar @ May 6 2022, 16:50:22) *
101 mb/320 kbps


Thank you my friend. You are a Master.
(1) Ingvar,
Apr 24 2022, 10:47:27 Mantar - Grungetown Hooligans Ii (2020)
Please, re-upload.
(1) blackestdesire,
Apr 24 2022, 07:29:56 Dool - Summerland (2020)
Please, re-upload.
(1) nazgul666,
Apr 23 2022, 10:00:17 The 69 Eyes - Back In Blood (2009)
Please, re-upload
(1) blackestdesire,
Apr 23 2022, 09:58:57 The 69 Eyes - X (2012)
Please, re-upload
(1) blackestdesire,
Apr 22 2022, 22:51:20 Timor Et Tremor - For Cold Shades (2016)
Please, re-upload.
(1) Kwaad,
Apr 17 2022, 11:53:30 Subway To Sally - Engelskrieger (2003)
Please, re-upload.
(1) blackestdesire,
Apr 17 2022, 11:53:05 Subway To Sally - Herzblut (2001)
Please, re-upload.
(1) blackestdesire,
Apr 17 2022, 11:52:11 Subway To Sally - Hochzeit (1999)
Please, re-upload.
(1) blackestdesire,
Apr 17 2022, 11:51:13 Subway To Sally - Bannkreis (1997)
Please, re-upload.
(1) blackestdesire,
Apr 15 2022, 22:24:57 Transilvanian Beat Club - Willkommen Im Club (2006)
QUOTE(kimkayoung @ Apr 14 2022, 16:42:06) *
Each track playable and downloadable for free (or for purchase) at 320 kbps:



Thank you. But unfortunitely is one song missing.
(1) blackestdesire,
Oct 28 2021, 17:03:05 Peste Noire - Le Retour Des Pastoureaux (2021)
please, re-upload.
(1) waffenss,
Aug 8 2019, 21:36:37 Deiquisitor - Towards Our Impending Doom (2019)
QUOTE(vosmidesijatye @ Aug 8 2019, 21:57:45) *
@320



Spasiba
(1) vosmidesijatye,
Jan 14 2019, 23:21:33 Moi Dix Mois - Dixanadu (2007)
please, re-upload.
(1) DomAugusto,
Jan 27 2018, 05:47:21 Corpo-Mente - Corpo-Mente (2015) (2) carla667, Vintersorg,
Jan 26 2018, 02:36:40 Corpo-Mente - Corpo-Mente (2015)
yes, please re-upload this masterpiece!
(2) carla667, kimkayoung,
Dec 4 2015, 16:22:46 Amber Asylum - Frozen In Amber (1996)
please, re-upload.
(1) kauyumari,
Apr 14 2015, 22:49:18 Shining - IX – Everyone, Everything, Everywhere, Ends (2015)
does someone already have the bonus tracks?
Jun 15 2014, 22:51:48 Winterblood - Scherbengericht [single] (2014)


*Artist: Winterblood
*Album: Scherbengericht (Ytterligare ett steg närmare total jävla utfrysning - Shining Cover)[single]
*Year: 2014
*Genre: Atmospheric/Post Black Metal
*Country: Germany
*Format: mp3@CBR320kbps
*Size: 14MB

Tracklist:
01. Scherbengericht (Ytterligare ett steg närmare total jävla utfrysning - Shining Cover)

******************************
Total playing time: 6:31





[more=Extended info][youtube]lYk8RkK_7Ro[/youtube]

[/more]

[more=Technical info]
Input File: Winterblood - Scherbengericht (Ytterligare ett steg närmare total jävla utfrysning - Shining Cover).mp3
Channels : 2
Sample Rate : 44100
Precision : 16-bit
Duration : 00:06:31.29 = 17255757 samples = 29346.5 CDDA sectors
File Size : 15.7M
Bit Rate : 320k
Sample Encoding: MPEG audio (layer I, II or III)
Comments :
Title=Scherbengericht (Ytterligare ett steg närmare total jävla utfrysning - Shining Cover)
Artist=Winterblood
Album=Scherbengericht
Tracknumber=1
Year=2014
Genre=Black Metal

[/more]

Register
(11) 1968_janeart, blacky66, Carcharoth, NachtWulf, rom666, savatage13, SIAVASH, spiritualdecay666, tont, vasiljev_sergej, wreak,
Jul 15 2013, 21:54:10 Dām - Purity: The Darwinian Paradox (2005)
please, reupload.
(1) fishish,

2 Pages V   1 2 >
- Lo-Fi Version Support form
Copyrights and abuse reports form
Time is now: 23rd June 2024 - 03:06:44