Welcome Guest ( Log In | Register )

Объявления

* gmail.com упорно продолжает считать почту с нас "unsolicited" и отбивает в том числе и письма активации, поэтому просьба использовать альтернативные почтовые ящики.
------------
* gmail.com continues reject all mail from us as "unsolicited" (activation mails too) therefore please use alternate mail servers.
История благодарностей участнику Vasiliy09 ::: Спасибо сказали: 157 раз(а)
Дата поста: В теме: За сообщение: Спасибо сказали:
Yesterday, 19:15:54 REQUEST: Forelunar - Wine And The Limerent (1) simonalacacarisa,
Yesterday, 19:07:35 BSOM - Life Among Nothing [ep] (2009)
320
Register
(1) Carcharoth,
Yesterday, 19:05:14 BSOM - Life Among Nothing [ep] (2009)
320
Register
(2) stumpheavyrock, Wail,
Yesterday, 14:35:49 Forelunar - Wine And The Limerent [ep] (2018)


*Artist: Forelunar
*Album: Wine And The Limerent [ep]
*Year: 2018
*Genre: Atmospheric/Post-Black Metal
*Country: Iran
*Format: mp3@CBR320kbps
*Size: 46MB

Tracklist:
1. Lunar Wine 09:37
2. Ephemeral Light 10:32
******************************
Total playing time: 20:09

[more=Extended info]Metal-Archives[/more]

[more=Technical info]
Input File: 01 Lunar Wine - sample.mp3
Channels : 2
Sample Rate : 44100
Precision : 16-bit
Duration : 00:00:20.06 = 884778 samples = 1504.72 CDDA sectors
File Size : 802k
Bit Rate : 320k
Sample Encoding: MPEG audio (layer I, II or III)

[/more]

Register
(5) aleon, dermarsoran, Druidir, SilentNidhogg, simonalacacarisa,
May 23 2024, 11:00:15 Demon Bell - Steel Sorcery [ep] (2016)
ЦИТАТА(Genuine Thrashiac @ May 23 2024, 02:24:04) *
Ждём от релизёра "Evoked & Menacing" '2017-го до пары)

Demon Bell - Evoked & Menacing [ep] (2017)
(1) Genuine Thrashiac,
May 23 2024, 10:08:14 Demon Bell - Evoked & Menacing [ep] (2017)


*Artist: Demon Bell
*Album: Evoked & Menacing [ep]
*Year: 2017
*Genre: Thrash/Speed/Black Metal
*Country: Italy
*Format: mp3@CBR320kbps
*Size: 43MB

Tracklist:
1. Witches Tormentor 03:51
2. Metal Belongs to Satan 03:09
3. The Horned Nightmare 04:13
4. Goatblood Wine 03:28
5. Death Magic Den 03:56
******************************
Total playing time: 18:37

[more=Technical info]
Input File: 01 Witches Tormentor - sample.mp3
Channels : 2
Sample Rate : 44100
Precision : 16-bit
Duration : 00:00:06.01 = 264953 samples = 450.6 CDDA sectors
File Size : 240k
Bit Rate : 320k
Sample Encoding: MPEG audio (layer I, II or III)

[/more]

Register
(12) boby9052, Carcharoth, Evrom, fuoco, Genuine Thrashiac, librat, marilin, Nolan2025, sergsazan, stumpheavyrock, Wail, wgs73,
May 23 2024, 09:05:57 Some Hardcore, Punk, Speed Metal releases from 2014-2023
ЦИТАТА(librat @ May 16 2024, 14:04:07) *
Demon Bell - Steel Sorcery EP 2016
Witchnight - Witch's Night 2016

Demon Bell - Steel Sorcery [ep] (2016)
Witchnight - Unholy Speed Metal [ep] (2017)

"Witchnight - Witch's Night 2016" - track in "Unholy Speed Metal". I did not find this release in the discography - https://www.metal-archives.com/bands/Witchnight/3540422232
(2) Genuine Thrashiac, librat,
May 22 2024, 16:10:29 Witchnight - Unholy Speed Metal [ep] (2017)


*Artist: Witchnight
*Album: Unholy Speed Metal [ep]
*Year: 2017
*Genre: Speed/Black Metal
*Country: Argentina
*Format: mp3@VBR263kbps
*Size: 27MB

Tracklist:
1. Witch's Night 03:49
2. Die by the Blade 02:56
3. Slut of Hell 03:15
4. Planificando la muerte (RetroSatan cover) 05:02
******************************
Total playing time: 15:02

[more=Technical info]
Input File: 02. Die by the Blade (2).wav
Channels : 2
Sample Rate : 44100
Precision : 16-bit
Duration : 00:00:01.99 = 87558 samples = 148.908 CDDA sectors
File Size : 350k
Bit Rate : 1.41M
Sample Encoding: 16-bit Signed Integer PCM

[/more]

Register
(7) Carcharoth, librat, sergsazan, stumpheavyrock, supremo, Wail, wgs73,
May 22 2024, 15:47:18 Demon Bell - Steel Sorcery [ep] (2016)


*Artist: Demon Bell
*Album: Steel Sorcery [ep]
*Year: 2016
*Genre: Thrash/Speed/Black Metal
*Country: Italy
*Format: mp3@VBR283kbps
*Size: 37MB

Tracklist:
1. Satanic Steel Rapist 03:52
2. Arrival of the Hangman 04:14
3. Bombing Hellfire 03:26
4. Demon Bell 04:22
5. Triumph of Evil (Bewitched cover) 02:25
******************************
Total playing time: 18:19

[more=Technical info]
Input File: 01. Satanic Steel Rapist (2).wav
Channels : 2
Sample Rate : 44100
Precision : 16-bit
Duration : 00:00:04.45 = 196175 samples = 333.631 CDDA sectors
File Size : 785k
Bit Rate : 1.41M
Sample Encoding: 16-bit Signed Integer PCM

[/more]

Register
(9) Carcharoth, Genuine Thrashiac, librat, marilin, sergsazan, stumpheavyrock, supremo, Wail, wgs73,
May 22 2024, 15:39:10 Various Artists - Antichrist Magazine - A Tribute To Motorhead [compilation] (2022)
ЦИТАТА(Carcharoth @ May 22 2024, 22:31:05) *
the link is offline!

fix
(1) Carcharoth,
May 22 2024, 13:58:27 Various Artists - Antichrist Magazine - A Tribute To Motorhead [compilation] (2022)


*Artist: Various Artists
*Album: Antichrist Magazine - A Tribute To Motorhead [compilation]
*Year: 2022
*Genre: Black/Death/Thrash Metal
*Country: Many
*Format: mp3@CBR192kbps
*Size: 150MB

Tracklist:
01. Myrholt (Norway) - Motorhead
02. WYV85 (Italy) - Iron Horse-Born to Lose
03. Somberwind (Chile) - No Class
04. Tides of Technocracy (USA) - Damage Case
05. Ironthorn (Italy) - Ace of Spades
06. Soul Collector (Poland) - (We Are) The Road Crew
07. Hateful Agony (Germany) - The Hammer
08. Sunless Sky (USA) - Iron Fist
09. Tyranno (Brazil) - Heart of Stone
10. Perfect Nme (Norway) - Dancing on Your Grave
11. Beltane (New Zealand) - Killed by Death
12. Wargoatcult (Spain) - Wargasmatron (Orgasmatron)
13. Serial Vice (Italy) - Rock 'n' Roll
14. Suck This Punch (Brazil) - Going to Brazil
15.- The Medea Project (UK) - Nightmare - The Dreamtime
16. Shadecrown (Finland) - Love Me Forever
17. Buaiteoir (Brazil) - 1916
18. Hammathaz (Brazil) - Bad Religion
19. Warshipper (Brazil) - Hellraiser
20. Mudd Flux (USA) - Born to Raise Hell
21. Gunjack (Italy) - Sacrifice
22. Naitaka (Canada) - Terminal Show
23. Odeum Deus (Sweden) - In the Name of Tragedy
24. Arched Fire (Finland) - Trigger
25. Skeleton Pit (Germany) - Runaround Man
26. Blood of Angels (USA) - Teach You How to Sing the Blues
27. Empire of Disease (Spain) - Rock Out
28. Wail (Norway) - Brotherhood of Man
29. Spectral Darkwave (UK) - Choking on Your Screams
******************************
Total playing time: 1:50:16

[more=Technical info]
Input File: 05. Ironthorn - Ace of Spades.mp3
Channels : 2
Sample Rate : 44100
Precision : 16-bit
Duration : 00:02:59.93 = 7934781 samples = 13494.5 CDDA sectors
File Size : 4.32M
Bit Rate : 192k
Sample Encoding: MPEG audio (layer I, II or III)
Comments :
Title=Ace of Spades
Artist=Ironthorn
Album=Antichrist Magazine - A Tribute to Motorhead
Tracknumber=05/29
Year=2022
Genre=Metal

[/more]

Register
(6) Carcharoth, DMIYUR, ErickLeoni, thenecromancer, Vakhangya, xariton,
May 7 2024, 08:33:39 REQUEST: Neonscepter - Retrospectre 320 KBPS (1) simonalacacarisa,
May 6 2024, 23:45:45 Neonscepter - Retrospectre (2021)


*Artist: Neonscepter
*Album: Retrospectre
*Year: 2021
*Genre: Black Metal/Synthwave
*Country: Iran
*Format: mp3@CBR320kbps
*Size: 103MB

Tracklist:
1. Recalling 10:46
2. Neonlight Technology 10:49
3. Dehumanize 10:29
4. Retrospectre 12:53
******************************
Total playing time: 44:57

Preview 1

[more=Extended info]A prequel to the tangled tale of Neonscepter, a deserted neon-human from a far future, where great minds, those which can illustrate ineffable landscapes, are captured by the authoritative forces and then turned into metaphysical weapons of war and conquest.

This is an autobiography of a lonely neon-human, from the time he was merely a dreaming human being to the era of tyranny and terror. A nostalgic trip to the utmost depths of one's soul, who yearns the warm days and colourful nights.

Neonscepter is the Retrospectre.
credits
released July 1, 2021

Harpag "Neonscepter" Karnik - All instruments, vocals, lyrics, artwork

-The music on Retrospectre is an experimental blending of synthwave and black metal, in order to create a unique atmosphere of the conflict between light and darkness.


metal-archives[/more]

[more=Technical info]
Input File: 01 - Recalling.mp3
Channels : 2
Sample Rate : 44100
Precision : 16-bit
Duration : 00:00:29.78 = 1313342 samples = 2233.57 CDDA sectors
File Size : 1.19M
Bit Rate : 320k
Sample Encoding: MPEG audio (layer I, II or III)
Comments :
Title=Retrospectre
Artist=Neonscepter
Year=2021
Genre=Black Metal/Synthwave

[/more]

Register
(13) AlexSmith, artscald, Carcharoth, Corpuscul, csgmnk, Grev, gwar, kalmametallinen, kim666, kimkayoung, simonalacacarisa, wreak, ZambuL,
Apr 21 2024, 18:54:41 Новый Завет - Suum Cuique [ep] (2024)


*Artist: Новый Завет
*Album: Suum Cuique [ep]
*Year: 2024
*Genre: Christian Heavy/Doom Metal
*Country: Russian Federation
*Format: AAC@VBR267kbps
*Size: 40MB

Tracklist:
1. Suum Cuique 0:51
2. Мир иной 5:04
3. Охота на волков 4:37
4. Александр Невский 5:13
5. А что ещё осталось нам... 4:12
******************************
Total playing time: 19:57

[more=Technical info]
Input File: 04. Александр Невский (2).wav
Channels : 2
Sample Rate : 44100
Precision : 16-bit
Duration : 00:00:31.39 = 1384127 samples = 2353.96 CDDA sectors
File Size : 5.54M
Bit Rate : 1.41M
Sample Encoding: 16-bit Signed Integer PCM

[/more]

Register
(12) after21allD, Aresson, artscald, Brutal, DMIYUR, Reverend, Rhoads, stumpheavyrock, VALERY, Wail, warrior101, wreak,
Apr 11 2024, 09:15:34 Martyr Lucifer - Leda And The Swan [ep] (2018)


*Artist: Martyr Lucifer
*Album: Leda And The Swan [ep]
*Year: 2018
*Genre: Gothic Metal/Rock
*Country: Italy
*Format: AAC@VBR266kbps
*Size: 52MB

Tracklist:
1. Leda and the Swan (video edit) 04:21
2. Lady Bird (video version) 03:50
3. Changes (live at Domination Studio) 05:05
4. The Morning Star v2 (feat. Hypnos of Hortus Animae) 08:15
5. A Lesson in Murder (Martyr's take) 02:44
6. L'Albero ed Io (Leìt's take) 03:26
******************************
Total playing time: 27:41

Кавер на известную песню

[more=Extended info]Discogs[/more]

[more=Technical info]
Input File: 02. Lady Bird (video version).wav
Channels : 2
Sample Rate : 44100
Precision : 16-bit
Duration : 00:00:22.38 = 986750 samples = 1678.15 CDDA sectors
File Size : 3.95M
Bit Rate : 1.41M
Sample Encoding: 16-bit Signed Integer PCM

[/more]

Register
(8) aleon, artscald, Cartman223, csgmnk, Grev, Wail, wreak, yuratroll,
Apr 3 2024, 11:47:12 Strychnine - Manifestations Of Evil Made Divine (Re-issue 2013)(2009)
ЦИТАТА(kastrup @ Nov 2 2021, 17:19:48) *
Please re-up pray.gif pray.gif

Register


(1) Wail,
Apr 3 2024, 01:22:41 Magnox - Ensamble De Guerra [ep] (2013)
На ютуб-канале группы есть ссылка на архив с wma 128:
Register
(1) Genuine Thrashiac,
Apr 3 2024, 01:14:25 Magnox - Bajo Tierra (2014)
(1) Genuine Thrashiac,
Apr 1 2024, 11:43:44 Bezdan - Satanska Kurva [single] (2021)
1 Satanska Kurva 3:33
2 Metal i Pekel (KAT cover) 2:50
3 Necrophiliac (Slayer cover) 3:46
4 Crush, Kill, Destroy (Sarcófago cover) 5:25

https://www.discogs.com/release/17475772-Be...-Satanska-Kurva
(1) Wail,
Mar 23 2024, 13:20:09 Volcano - Godspeed (2020)


*Artist: Volcano
*Album: Godspeed
*Year: 2020
*Genre: Power/Thrash Metal
*Country: Japan
*Format: AAC@VBR288kbps
*Size: 94MB

Tracklist:
01. Wriggle / Eclosion 1:53
02. Salvage Sun 3:53
03. I Decide Who I Am 4:37
04. D.R. 4:24
05. Get Wild 5:18
06. Into The Flame 3:34
07. Angel Son 4:56
08. Lust In Peace 3:25
09. Breaking, Saving, Killing, 4:44
10. Raise Your Fist 4:12
11. Grief 5:17
******************************
Total playing time: 46:13

Preview 1

[more=Extended info]metal-archives[/more]

[more=Technical info]
Input File: 01. Wriggle - Eclosion.wav
Channels : 2
Sample Rate : 44100
Precision : 16-bit
Duration : 00:00:38.97 = 1718361 samples = 2922.38 CDDA sectors
File Size : 6.87M
Bit Rate : 1.41M
Sample Encoding: 16-bit Signed Integer PCM

[/more]

Register
(18) 747metaller, after21allD, amiroo, artscald, aviacademy, boby9052, Dalboy, Grev, gwar, lary_veel, Marek, metala, METALHUNTER, Mogozoz, sergsazan, stumpheavyrock, wreak, Xtohar,
Mar 22 2024, 11:20:27 Flaming Skull - The Bloody Tales Of The Skull - Chapter II [ep] (2021)


*Artist: Flaming Skull
*Album: The Bloody Tales Of The Skull - Chapter II [ep]
*Year: 2021
*Genre: Death Metal
*Country: Colombia
*Format: mp3@CBR320kbps
*Size: 74MB

Tracklist:
1. Domination (Pantera cover) (5:04)
2. Blinded by Fear (At the Gates cover) (2:31)
3. Behind Space '99 (In Flames cover) (3:36)
4. Desperate Cry (Sepultura cover) (6:42)
5. Desolation (5:02)
6. Macara de Guerra (live) (4:08)
7. A Sangre Fria (live) (5:37)
******************************
Total playing time: 32:40

Preview 1

[more=Extended info]metal-archives[/more]

[more=Technical info]
Input File: 02. Blinded by Fear (At the Gates cover).mp3
Channels : 2
Sample Rate : 44100
Precision : 16-bit
Duration : 00:02:30.61 = 6641769 samples = 11295.5 CDDA sectors
File Size : 6.02M
Bit Rate : 320k
Sample Encoding: MPEG audio (layer I, II or III)
Comments :
Title=Blinded by Fear (At the Gates cover)
Artist=Flaming Skull
Album=The Bloody Tales of the Skull - Chapter II
Tracknumber=02/07
Year=2021
Genre=Death Metal

[/more]

Register
(6) artscald, as71, chipsgott, GorAtheist, Wail, wanderer73,
Mar 6 2024, 13:51:45 Breaker - Coffee Breaker Concert [live] (2004)


*Artist: Breaker
*Album: Coffee Breaker Concert [live]
*Year: 2004
*Genre: Heavy Metal
*Country: United States
*Format: mp3@CBR320kbps
*Size: 124MB

Tracklist:
1. Intro 00:30
2. Blood Money 03:27
3. Silent Obsession 07:30
4. Sleepless Nights 05:11
5. 10 Seconds In 04:14
6. Walking the Wire 06:01
7. Razor's Edge 04:46
8. Entering Twilight 03:34
9. All or Nothing 04:20
10. Caught in Love 03:52
11. Feel the Fire 04:48
12. Afraid of the Dark 06:41
13. From the Heart 05:43
14. Danger Danger 00:59
******************************
Total playing time: 1:01:36

Preview 1

[more=Extended info]Recorded live at the Cleveland Agora Ballroom in 1983 for the WMMS radio station. It is
unedited, unmixed, unetc etc. It is as it was aired on that day. That is why all the talking are there.
And the last song ("Danger, Danger") is cut off at around 1 minute because the tape run out.

Metal-Archives

Discogs[/more]

[more=Technical info]
Input File: 01 - Intro.mp3
Channels : 2
Sample Rate : 44100
Precision : 16-bit
Duration : 00:00:29.78 = 1313386 samples = 2233.65 CDDA sectors
File Size : 1.19M
Bit Rate : 320k
Sample Encoding: MPEG audio (layer I, II or III)
Comments :
Title=Intro
Artist=Breaker
Album=Coffee Breaker Concert
Tracknumber=01/14
Year=2004
Genre=Heavy Metal

[/more]

Register
(8) artscald, canadaspaceman, Marek, Mogozoz, stumpheavyrock, Wail, wreak, Xtohar,
Mar 4 2024, 18:14:17 Neverdie - The Demo(n)s [demo] (1996)
ЦИТАТА
7. Super-Charger Heaven (Black Sabbath cover) 03:15

White Zombie cover
(1) Genuine Thrashiac,
Mar 2 2024, 15:17:08 Cortina De Ferro - Temple Of The Darkness (1993)


*Artist: Cortina De Ferro
*Album: Temple Of The Darkness
*Year: 1993
*Genre: Melodic Heavy Metal
*Country: Brazil
*Format: mp3@CBR256kbps
*Size: 62MB

Tracklist:
1. Into the Fire 04:33
2. Looking for Someone 03:42
3. Temple of the Darkness 04:13
4. Falling Angels 04:14
5. Past, Present and Future 03:06
6. Breaking the Law (Judas Priest cover) 02:33
7. Shadows 03:10
8. The Mirrors Never Lies 02:50
9. Mystic Dreams 04:19
******************************
Total playing time: 32:40

Preview 1

[more=Extended info]Metal-Archives

Discogs[/more]

[more=Technical info]
Input File: 02 - Looking for Someone.mp3
Channels : 2
Sample Rate : 44100
Precision : 16-bit
Duration : 00:03:39.04 = 9659664 samples = 16428 CDDA sectors
File Size : 7.01M
Bit Rate : 256k
Sample Encoding: MPEG audio (layer I, II or III)
Comments :
Title=Looking for Someone
Artist=Cortina de Ferro
Album=Temple of the Darkness
Tracknumber=02/09
Year=1993
Genre=Melodic Heavy Metal

[/more]

Register
(11) 747metaller, artscald, Carcharoth, ErickLeoni, Mogozoz, postal67, Reverend, Rover, Wail, wreak, Xtohar,
Feb 29 2024, 02:42:47 Fantom - Battle Cry- The Anthology [compilation] (2022)


*Artist: Fantom
*Album: Battle Cry- The Anthology [compilation]
*Year: 2022
*Genre: Heavy Metal
*Country: United States
*Format: mp3@CBR320kbps
*Size: 156MB

Tracklist:
1. Still in Love 02:34
2. Battlecry 04:01
3. 5 Star Lover 02:58
4. High Speed Attraction 04:54
5. Rock Me All Night 04:43
6. Take on the Action 05:24
7. Count Me Out 05:45
8. End of the Line 06:55
9. Fantasy 04:28
10. Still in Love (1989) 02:38
11. Need Your Love Tonight 03:55
12. Paranoid (Black Sabbath cover) 03:08
13. Big City Nights (Scorpions cover) 04:08
14. I Don't Know (Ozzy Osbourne cover) 05:38
15. When Heaven Comes Down (Dokken cover) 03:52
16. Hypnotized 03:31
******************************
Total playing time: 1:08:32

Preview 1

[more=Extended info]Fantom was a Heavy Metal band from Rochester, NY. They were formed in 1985 and disbanded in1987.

Metal-Archives

Discogs[/more]

[more=Technical info]
Input File: 09 - Fantasy.mp3
Channels : 2
Sample Rate : 44100
Precision : 16-bit
Duration : 00:04:28.16 = 11826032 samples = 20112.3 CDDA sectors
File Size : 10.7M
Bit Rate : 320k
Sample Encoding: MPEG audio (layer I, II or III)
Comments :
Title=Fantasy
Artist=Fantom
Album=Battle Cry: The Anthology
Tracknumber=09/16
Year=2022
Genre=Heavy Metal

[/more]

Register
(15) after21allD, artscald, Bloodline Christian, canadaspaceman, Grev, gwar, henknegatief, infozahist, Marek, rainbow83, Rover, stumpheavyrock, Wail, wreak, Xtohar,

2 Pages V   1 2 >
- Lo-Fi Version Support form
Copyrights and abuse reports form
Time is now: 25th May 2024 - 17:35:25