Welcome Guest ( Log In | Register )

История благодарностей участнику comradEnemy ::: Спасибо сказали: 530 раз(а)
Дата поста: В теме: За сообщение: Спасибо сказали:
Jun 3 2021, 23:09:36 Thee Maldoror Kollective - Need The Needle (2009)
Register
(3) Occultas, thenecromancer, varlam4,
May 30 2021, 00:05:30 Gary Numan - Intruder (2021)


*Artist: Gary Numan
*Album: Intruder
*Year: 2021
*Genre: Synthpop/Industrial Rock
*Country: United Kingdom
*Format: mp3@CBR320kbps
*Size: 150MB

Tracklist:
01 Betrayed 4:42
02 The Gift 6:07
03 I Am Screaming 3:53
04 Intruder 4:24
05 Is This World Not Enough 5:25
06 A Black Sun 5:40
07 The Chosen 4:44
08 And It Breaks Me Again 4:46
09 Saints And Liars 4:01
10 Now And Forever 5:57
11 The End Of Dragons 5:12
12 When You Fall 5:08
13 The End of Dragons (Alt) 4:58
******************************
Total playing time: 1:04:57

[more=Technical info]
Input File: 03-gary_numan-i_am_screaming-marr.mp3
Channels : 2
Sample Rate : 44100
Precision : 16-bit
Duration : 00:03:52.00 = 10231200 samples = 17400 CDDA sectors
File Size : 9.49M
Bit Rate : 327k
Sample Encoding: MPEG audio (layer I, II or III)
Comments :
Title=I Am Screaming
Artist=Gary Numan
Album=Intruder
Tracknumber=3/13
Year=2021-05-21
Genre=Synthpop

[/more]

Register
(10) dimmannius, ENDSMOUTH, gnosiis, grimmstone, gwar, infiltrator, Olethros, Sjelekval, tOmV, VALERY,
May 28 2021, 09:49:37 King Of Asgard - Svartrviðr (2021)
ЦИТАТА(isvili @ May 28 2021, 09:36:23) *
вокалист из Mithotyn

Если бы. Это здесь он основной вокалист, а в Митотин он (Карл Бекманн) играл на второй гитаре. Вокалистом в Митотин был Рикард Мартинссон, и такого уникального рыка я ни у кого больше не слышал. Как жаль, что он больше нигде не поет.

[youtube]7mtqj1DIaiA[/youtube]
(4) folker, RUDACHUR, S_tarot, thenecromancer,
May 6 2021, 13:38:15 Today Needed
ЦИТАТА(thenecromancer @ May 3 2021, 10:45:30) *
I already have this rip (it's on HMR); would be great - instead - to find a higher bitrate version of the real 1991 version of this bootleg (limited to 1000 copies): https://www.discogs.com/Morbid-Angel-Abomin...release/1736378
That VBR version seems to be a rip of a reissue edition; indeed this bootleg was re-released countless times, as everybody knows 21.gif

blacktrack's blog has a VBR version which seems to be a different rip than what was posted above, and he claims it's the original
https://blacktrack74.myblog.de/blacktrack74...ecords-Version-
Check if you haven't already, the password for his archives is "BlackTrack74"
(2) infiltrator, Occultas,
Apr 28 2021, 09:43:57 Ossein - Führer (2009)
Register
(2) Dargaud, kimkayoung,
Apr 23 2021, 14:07:00 Rudimentary Peni - Great War (2021)


*Artist: Rudimentary Peni
*Album: Great War
*Year: 2021
*Genre: Punk
*Country: United Kingdom
*Format: mp3@CBR320kbps
*Size: 44MB

Tracklist:
1. Anthem For Doomed Youth 01:57
2. Path Of Glory 01:36
3. Crimson Sun 01:35
4. Mental Cases 02:02
5. Asleep 02:53
6. Blood For Seed 01:22
7. Soldier's Dream 01:25
8. Strange Meeting 02:12
9. Witness 01:26
10. The Old Lie 02:58
******************************
Total playing time: 19:26



[more=Technical info]
Input File: 04 Mental Cases.mp3
Channels : 2
Sample Rate : 44100
Precision : 16-bit
Duration : 00:02:02.00 = 5380200 samples = 9150 CDDA sectors
File Size : 4.89M
Bit Rate : 320k
Sample Encoding: MPEG audio (layer I, II or III)
Comments :
Title=Mental Cases
Artist=Rudimentary Peni
Album=Great War
Tracknumber=4/10
Year=2021
Genre=Punk Rock

[/more]

Register
(10) beaujanks, EvgeniusLongus, FUDEDOR, gwar, infiltrator, oldvarg, Olethros, p4B10, Tyrone, Zhelezjaka,
Mar 27 2021, 16:15:02 Year Zero - Timedemo (promo 2006) [ep] (2006)
Register
(4) kimkayoung, quarantine, stumpheavyrock, thenecromancer,
Mar 19 2021, 20:07:15 Grandmother Is Dead - The Camp (2006)
Register
(2) kimkayoung, quarantine,
Mar 19 2021, 20:05:32 Grandmother Is Dead - Trust Christ Today (2009)
Register
(1) kimkayoung,
Feb 23 2021, 15:02:02 Lucifugum - Tri Nity Limb Ritual (2020)
ЦИТАТА(Chasm @ Feb 23 2021, 15:48:17) *
если бы не написали что они там местами поменялись

кто местами поменялся? Елена сверху теперь или что? headcrab.png
композитор хлыст как не умел ни на чем играть, так и не научился, а поет он уже на 4-м альбоме кряду
(4) Ainar, Chasm, DeadViper, infiltrator,
Jan 21 2021, 15:37:18 Therion - Leviathan (2021)
У ДеФейса хотя бы есть что послушать на его размазанных полотнах. У Йонссона на антихристе слушать было решительно нечего. Очень надеюсь, что здесь будет, потому что длинные альбомы сами по себе не признак отсуствия качества. Тот же Сируис-Лемурия был по сути сдвоенным альбомом, и что? Полно достойных вещей и в первой и во второй части. Беда наступает, когда ты в угаре "я сам себе продюсер" перестаешь понимать, что что-то надо оставить, а что-то выкинуть, и запихиваешь на альбом(ы) все, что записал/сочинил.
(3) infiltrator, Shadechaser, StabWound,
Jan 8 2021, 15:56:53 Judas Priest - British Steel (1980)
Житняков вместо law артикулированно поет breaking the low, как бы намекая нам, что они пробивают дно
(2) kostja, randyhermit,
Dec 24 2020, 15:24:35 Hate Forest - Battlefields (2003)
ЦИТАТА(biroutios @ Dec 24 2020, 14:41:51) *
Could somebody please translate me what is written on the cover?
https://f4.bcbits.com/img/a2484338816_10.jpg

In the year of our Lord 1680 May 4th died Servant of God Ioan Sirko Dmytrovich Kosh otaman of the Zaporozhian Host of his Imperial majesty Feodor Alekseyevich. Let the memory of the righteous be praised
(4) babanguida, biroutios, Occultas, tormoz,
Dec 19 2020, 00:56:25 Green Carnation - Leaves Of Yesteryear (2020)
[youtube]61RkcxRy__M[/youtube]
(1) Old Vyaine,
Dec 16 2020, 13:14:27 Kall - Brand (2020)
ЦИТАТА(Daale @ Dec 16 2020, 14:02:08) *
Да серьёзно? [...] твои чувства и анализ их служат как эталон? [...] тебя вроде не истина в последней инстанции зовут

Ой, ну реально, сходи попустись. Я думал мы музыку обсужаем и делимся впечатлениями, а ты сводишь весь разговор в "кто ИМХО после каждой фразы не поставил, тот проиграл". Услышать, что для кого-то альбом Discouraged Ones не убаюкивающий это было интересно. Все остальное неинтересно
(1) ent404,
Dec 16 2020, 12:32:33 Kall - Brand (2020)
ЦИТАТА(Daale @ Dec 16 2020, 12:56:53) *
Что там убаюкивающего? Это вообще как?

Если нужно больше слов, то пусть это будут слова "успокаивающая", "умиротворяющая". Вроде все плохо, но нет никакого волнения, одно смирение, этап принятия, "печаль моя светла" етц. Мне вообще странно, что с этим можно спорить в отношении этого альбома. Когда я слушаю этот альбом, я именно что расслабляюсь и засыпаю. Равномерный и предсказуемый гитарный чес, монотонно повторяющиеся фрагменты этому только способствуют.
В сабжевом альбоме не расслабишься, постоянно звучит что-то кривое, негармоничное и неожиданное. Сплошная агония.

ЦИТАТА(Daale @ Dec 16 2020, 12:56:53) *
чуть ли не на каждом шагу влияния. Или нужно точь-в-точь повторять паттерны и приемы

Теперь моя очередь удивленно спрашивать "влияния - это вообще что?". Если не паттерны, не приемы. И не атмосфера, про которую я уже описал, почему она другая. Я никаких влияний не ощущаю, при том, что очень люблю Discouraged Ones. Я же специально переслушал, уже сознательно пытаясь их найти. Единственное за что могу зацепиться, это акустические переборы, которые с натяжкой могут напоминать таковые в Discouraged Ones. Но как по мне, они слишком уж другие, и структурой и настроением.
(1) ent404,
Dec 15 2020, 01:27:48 Malveillance - Vaches Sacrées [demo] (2010)
Register
(5) thenecromancer, varlam4, vasiljev_sergej, Wail, wendigo,
Dec 10 2020, 22:54:45 Slift - Ummon (2020)


*Artist: Slift
*Album: Ummon
*Year: 2020
*Genre: Space Rock/Heavy Psych
*Country: France
*Format: mp3@CBR320kbps
*Size: 169MB

Tracklist:
1.Ummon 05:45
2.It's Coming... 08:29
3.Thousand Helmets of Gold 04:52
4.Citadel on a Satellite 10:07
5.Hyperion 04:27
6.Altitude Lake 06:04
7.Sonar 05:05
8.Dark was Space, Cold were the Stars 05:55
9.Aurore aux Confins 02:48
10.Sơn Đông's Cavern 05:15
11.Lions, Tigers and Bears 13:18
******************************
Total playing time: 1:12:05

[youtubep]https://www.youtube.com/watch?v=KJoLGNu5BFY[/youtubep]


[more=Extended info]For sulfur guitar lovers, Prog from beyond the grave and blip blup blop of old synthesizers. Blitzkrieg fuzz and geyser Free. Bass escaping from the Minas Morgül's dungeons, and Nostromo’s drums travelling at the speed of light. Vicious solos and assassins bends. Acid krautrock and cosmic-comics jazz. There are distant echoes and reveries, celestial choirs illuminating space. And r r e e p p e e t t i i t t i i o o n n. Ancestral voices and ancient extraterrestrial rites. Abyssal doom and apocalyptic noise. There's chaos. And there's silence.[/more]

[more=Technical info]
Input File: 01 - Ummon.mp3
Channels : 2
Sample Rate : 44100
Precision : 16-bit
Duration : 00:00:00.35 = 15215 samples = 25.8759 CDDA sectors
File Size : 14.8M
Bit Rate : 344M
Sample Encoding: MPEG audio (layer I, II or III)
Comments :
Title=Ummon
Artist=Slift
Album=Ummon
Tracknumber=1/11
Year=2020
Genre=Alternative

[/more]

Register
(7) Ash_1980, gena, grimmstone, infiltrator, marilin, Olethros, Козлотролль,
Dec 3 2020, 00:58:53 Drowning The Light - On Rotten Wings Towards Lunar Portals [demo] (2020)
ЦИТАТА(recber @ Dec 2 2020, 21:40:24) *
Мне не понятно, пот каким критериям музыка делиться у музыкантов на демо и полноформатники... И зачем делить ...

Записал демо, переслушал, что-то поменял, выдал как полноформат.
Потом снова послушал демо, подумал, а ведь неплохо было, решил тоже издать.
Как-то так
(2) infiltrator, Occultas,
Nov 18 2020, 10:34:15 Antichrisis - Foxfire (2020)


*Artist: Antichrisis
*Album: Foxfire
*Year: 2020
*Genre: Gothic Rock/Folk
*Country: Germany
*Format: flac
*Size: 488MB

Tracklist:
1. Starfish 02:10
2. Romeo 05:07
3. Gravity on Mars 05:15
4. Last Night 03:16
5. No Going Back 05:35
6. Is Anybody There? 03:04
7. After the War 05:15
8. She Lay Waiting 04:59
9. Close Hauled 08:00
10. St. Materiana 03:36
11. Forever and a Day 04:32
12. Et in Arcadia Ego 05:01
13. The Night is Still Young 04:07
14. Goodbye to Jane [iterum] 05:42
15. Jane's Redemption 06:00
******************************
Total playing time: 1:11:39



Register
(16) A.L.Rapsod, Andr, Bruce, Cartman223, gwar, infiltrator, kimkayoung, kostja, Maestrovs, Mplast, oldvarg, Olethros, popen13, smes, stone88, varlam4,
Oct 9 2020, 09:22:16 Одинаковые обложки (3) DarkHorde, infiltrator, Paatddal,
Oct 4 2020, 13:21:05 Various Artists - We Breed Ugly [compilation] (2015)


*Artist: Various Artists
*Album: We Breed Ugly [compilation]
*Year: 2015
*Genre: Punk/Oi/Hardcore
*Country: Many
*Format: flac
*Size: 219MB

Tracklist:
01. Hammer And The Nails - East Meets West
02. Hired Goons - Mania
03. The Repos - Feeling Fine
04. Rampage - Cyberian Overload
05. Lovely Lads - Mourning Soul (Absurd cover)
06. Fatal Shore - Forbidden Zone
07. The Revilers - Scapegoat
08. Burden - Path Of Stone
09. Violent End - No Better/Waste
10. MFP - Vanishing Point
11. Frost Fangs - In The Metal Zone
12. The Concrete Gods - Whatever Happened To The Angry Brigade
13. Poder Absoluto - Don Martillo Ejecutor
14. NS Mayhem - Pariah Nation
15. Peacebreakers - Madness
16. No Artist - Outro
******************************
Total playing time: 33:47

Register
(4) Bruce, canadaspaceman, gwar, infiltrator,
Oct 1 2020, 14:09:22 Isengard - Vårjevndøgn (2020)
ЦИТАТА(Vakhanal @ Oct 1 2020, 15:39:07) *
Блек Саббат

Вообще-то тут Mercyful Fate больше, что неожиданно. А что не неожиданно, после предыдущей эпихи, так это то что в "раскопанных" пленках ожидать чего-то иного не стоит. Не буду раздавать советов, мол, лучше бы выпустил это под именем Fenriz Red Planet, как хочет так пусть и выпускает. Но конечно больше бы хотелось, чтобы он третий альбом Neptune Towers "раскапывал" вместо этого.
(4) Alexis The Best, Daale, Ext, infiltrator,
Sep 25 2020, 00:03:32 Thurisaz - Re-Incentive (2020)
Ой, как хорошо-то. Что-то на стыке винтерсорга, "космического" бал-сагота и энслейвда. Но это просто неинклюзивный список ориентиров; не значит, что своего ничего нет.
Не знаю, что там раньше было, да и не хочу знать пока, но ЭТО - мне как лист пятипалый ложится
(1) folker,
Sep 2 2020, 15:27:24 Battle Of Mice & Made Out Of Babies & Red Sparowes - Triad [split] (2006)
Register
(3) repulssion, stumpheavyrock, varlam4,

7 Pages V   1 2 3 > » 
- Lo-Fi Version Support form
Copyrights and abuse reports form
Time is now: 28th July 2021 - 15:11:01