Welcome Guest ( Log In | Register )

История благодарностей участнику comradEnemy ::: Спасибо сказали: 384 раз(а)
Дата поста: В теме: За сообщение: Спасибо сказали:
Feb 14 2020, 15:27:21 Ihsahn - Telemark [ep] (2020)
ЦИТАТА(Skyggedans @ Feb 14 2020, 10:56:10) *
если бы мне в 97-м, когда я заслушивался "Anthems..." сказали, что автор этого шедевра будет лабать кавера на того

Судя по всему он именно тогда от кравица и фанател, когда Anthems писал 1488.gif
(2) BleedingSun, infiltrator,
Feb 14 2020, 08:49:36 Ihsahn - Telemark [ep] (2020)
Я что-то пропустил когда это стало модно хейтить исана
(5) BleedingSun, Deze, infiltrator, Nerevar, Нигилист,
Jan 28 2020, 08:52:01 Vomitor - Roar Of War [demo] (1999)
Register
(5) canadaspaceman, FUDEDOR, thenecromancer, varlam4, Wail,
Jan 20 2020, 22:42:31 All Dies - Slave Of Solitude [demo] (1999)
Register
(3) thenecromancer, Wail, zemlemer,
Jan 13 2020, 13:56:40 Rage - Wings Of Rage (2020)
ЦИТАТА(Shadowman @ Jan 13 2020, 14:37:13) *
Меня удивляет другое. Всего 4 донатера на БК. Четыре, Карл! Это при том, что всякие подвальные говнари нередко собирают по 30-50 донов, а то и больше. Альбом, конечно, ни о чем, но чтобы всего 4 дона...

Во-первых если донатить без регистрации, то твой донат не показывается, во-вторых бандкамп именно что для подвальных говнарей, а за рейдж солидные господа занесут на гугл-мьюзик, спотифай и пр., так что это не показатель ну ни разу.
(3) Foneg, Ghostb, infiltrator,
Jan 9 2020, 14:18:32 Rage - Wings Of Rage (2020)
HTTS 2.0 это не про протокол песня, а перезаписанная Higher Than The Sky если кому интересно
(3) Ghostb, infiltrator, Penetralia,
Dec 18 2019, 20:37:26 Atrax Morgue - Sickness Report (1996)
ЦИТАТА(thenecromancer @ Dec 18 2019, 19:39:12) *
No, that password doesn't work for this archive...

It does bye.gif
(1) thenecromancer,
Nov 28 2019, 19:59:10 Scald - Will Of Gods Is A Great Power (1996)
ЦИТАТА(Battaleon @ Nov 28 2019, 20:10:42) *
кто их издавал в 90-х?помню в старых зинах их очень хвалили.

MetalAgen
(1) Battaleon,
Nov 26 2019, 19:46:17 Have A Nice Life - Sea Of Worry (2019)
ЦИТАТА(Ghostb @ Nov 26 2019, 17:16:40) *
неожиданно зацепил (никогда особо не фанател по культовому в определенных кругах Deathconsciousness)

как ни странно, та же история
думал, что это просто так удачно наложилось на вечернее время суток и настроение, но на следующее утро переслушал - приятное чувство и не думало никуда деваться
(1) Ghostb,
Nov 16 2019, 21:39:33 Have A Nice Life - Sea Of Worry (2019)


*Artist: Have A Nice Life
*Album: Sea Of Worry
*Year: 2019
*Genre: Post-Punk/Shoegaze
*Country: United States
*Format: mp3@CBR320kbps
*Size: 107MB

Tracklist:
1. Sea of Worry 04:40
2. Dracula Bells 07:44
3. Science Beat 05:35
4. Trespassers W 04:49
5. Everything We Forget 04:12
6. Lords of Tresserhorn 06:07
7. Destinos 13:12
******************************
Total playing time: 46:19



[more=Technical info]
Input File: 01 Sea of Worry.mp3
Channels : 2
Sample Rate : 44100
Precision : 16-bit
Duration : 00:04:42.83 = 12472935 samples = 21212.5 CDDA sectors
File Size : 11.5M
Bit Rate : 324k
Sample Encoding: MPEG audio (layer I, II or III)
Comments :
Title=Sea of Worry
Artist=Have a Nice Life
Album=Sea of Worry
Tracknumber=1/7
Year=2019
Genre=Rock

[/more]

Register
(10) A.L.Rapsod, Angry_Chair, boby9052, craP_cillA, Ghostb, metaljosue, Olethros, sludge666, stone88, xska,
Oct 22 2019, 15:48:35 Логос - Что Наша Жизнь? (2019)
На песне "Капля в океане" я прослезился, пацаны, ладно не колхоз, беру свои слова обратно
(3) Foneg, infiltrator, Lux,
Oct 22 2019, 15:19:23 Логос - Что Наша Жизнь? (2019)
ЦИТАТА(plfan93 @ Oct 22 2019, 16:53:37) *
Melodic Metal [...] не особо проясняет, что группа играет.

пауэр советской школы, also known as
ЦИТАТА(Slam91 @ Oct 22 2019, 14:09:45) *
Какой-то колхоз.
(5) Deze, Ghostb, infiltrator, plfan93, randyhermit,
Oct 8 2019, 00:53:05 Чур - Four​-​faced (2019)
ЦИТАТА(Tular @ Oct 8 2019, 01:16:14) *
Они до четырех считать не умеют?

Ну так сзади симметрично еще одна голова, ее не видно
(2) infiltrator, stone88,
Sep 20 2019, 20:43:34 Audiopain & Thesyre - Horns Forward/The Enemy Abroad [split] (2007)
Register
(3) dermarsoran, infiltrator, METALHUNTER,
Aug 23 2019, 17:00:00 Alkonost - Memoris (2001)
Register
(1) Well_To_Hell,
Aug 19 2019, 16:54:19 Trist & Through The Pain - Black Veils [split] (2007)
Register
(3) Femto, kupiszcze, thenecromancer,
Aug 9 2019, 09:49:08 Various Artists - Satan's Revenge Part II [best of/compilation] (1987)
Register
(2) djurassic, Wail,
Jul 27 2019, 10:44:02 Les Joyaux De La Princesse - Aux Volontaires Croix De Sang (2007)
Register
(1) Amadeus,
Jul 22 2019, 23:54:46 Te Deum - Бездна (1999)
Register
(1) Nobodyspecial,
Jul 22 2019, 13:39:12 Obeisance - Musica Del Diablo (2018)


*Artist: Obeisance
*Album: Musica Del Diablo
*Year: 2018
*Genre: Thrash/Black Metal
*Country: United States
*Format: mp3@VBR211kbps
*Size: 50MB

Tracklist:
1. Elizabeth in Red
2. Night Stalker from Hell Paso
3. Nuklear Penetrator II
4. Pray to the Ensnarers
5. W.T.M.C.A (Johnny Cash cover)
6. Ferocious Savage Belief
7. Dying Is Gay Seth
8. Venomous Inundation of Demonic Realm
9. Ready for Fukky
10. Into the Crypt of Rays (Celtic Frost cover)
******************************
Total playing time: 32:03

[more=Technical info]
Input File: 01-obeisance-elizabeth_in_red.mp3
Channels : 2
Sample Rate : 44100
Precision : 16-bit
Duration : 00:03:40.64 = 9730224 samples = 16548 CDDA sectors
File Size : 4.09M
Bit Rate : 148k
Sample Encoding: MPEG audio (layer I, II or III)
Comments :
Title=Elizabeth In Red
Artist=Obeisance
Album=Musica Del Diablo
Tracknumber=01/10
Year=2018
Genre=Rock
Discnumber=1/1

[/more]

Register
(15) ahp, andreikun, artscald, boby9052, FUDEDOR, METALHUNTER, Olethros, Pinhead666, Rosen, SilentNidhogg, stumpheavyrock, vasiljev_sergej, wgs73, wreak, Луч,
Jul 11 2019, 17:27:58 Batushka - Hospodi (2019)
10/10, господи
(3) Ash_1980, Nattfodd, Rarog,
Jun 30 2019, 10:58:17 Book Of Sand - Sun Going Down (2018)


*Artist: Book Of Sand
*Album: Sun Going Down
*Year: 2018
*Genre: Occult Blues
*Country: United States
*Format: mp3@CBR320kbps
*Size: 84MB

Tracklist:
1. Sun Going Down 05:36
2. I've Been Gone a Thousand Times 05:46
3. Look Out the Window, Tell Me What You See 04:42
4. Flies in a Shot of Gin 07:08
5. I'll Be Reborn a Thousand Times 06:37
6. -interlude- 01:03
7. Sitting in the Moonlight 05:49
******************************
Total playing time: 36:41



[more=Technical info]
Input File: 01. Sun Going Down.mp3
Channels : 2
Sample Rate : 44100
Precision : 16-bit
Duration : 00:05:36.19 = 14826023 samples = 25214.3 CDDA sectors
File Size : 13.6M
Bit Rate : 324k
Sample Encoding: MPEG audio (layer I, II or III)
Comments :
Title=Sun Going Down
Artist=Book of Sand
Album=Sun Going Down
Tracknumber=01
Year=2018
Genre=Black Metal

[/more]

Register
(6) Angry_Chair, artscald, BritySpear, marilin, Olethros, stub888,
May 11 2019, 16:04:06 Игра: отгадай группу по картинке
Pissing Razors
(4) Anger, Faust_Vulkan_16, infiltrator, Tular,
Mar 25 2019, 19:39:21 Waylander - Ériú's Wheel (2019)
Не скажите, Филипп Филиппыч. Очень даже прилично. Второй Reawakening Pride Once Lost сделать не получится, это понятно, но из кризиса средних альбомов группа выкарабкалась и за ней снова интересно наблюдать.
(1) AHBAnep,
Mar 22 2019, 20:29:18 Manowar
Такой же пердящий бас был, как на последнем альбоме. Я думаю это не баг, а фича.
(1) Ghostb,

6 Pages V   1 2 3 > » 
- Lo-Fi Version Support form
Copyrights and abuse reports form
Time is now: 4th April 2020 - 16:26:30