Welcome Guest ( Log In | Register )

История благодарностей участнику snot ::: Спасибо сказали: 836 раз(а)
Дата поста: В теме: За сообщение: Спасибо сказали:
Dec 13 2019, 08:57:18 Solace - The Brink (2019)


*Artist: Solace
*Album: The Brink
*Year: 2019
*Genre: Stoner Metal
*Country: United States
*Format: mp3@CBR320kbps
*Size: 160MB

Tracklist:
01. Breaker of the Way (8:20)
02. Desert Coffin (6:18)
03. Dead Sailor's Dream (5:02)
04. Waste People (5:00)
05. The Light is a Lie (6:36)
06. Crushing Black (6:33)
07. Bird of Ill Omen (7:22)
08. Shallows Fade (1:54)
09. The Brink (9:24)
10. Until the Last Dog is Hung (4:40)
11. Dead Sailor's Reprise (6:05)
******************************
Total playing time: 1:07:14




[more=Technical info]
Input File: 04. Waste People.mp3
Channels : 2
Sample Rate : 44100
Precision : 16-bit
Duration : 00:05:00.66 = 13259238 samples = 22549.7 CDDA sectors
File Size : 12.1M
Bit Rate : 323k
Sample Encoding: MPEG audio (layer I, II or III)
Comments :
Title=Waste People
Artist=Solace
Album=The Brink
Tracknumber=04
Year=2019
Genre=Stoner Metal
Discnumber=1/1

[/more]

Register
(13) AHBAnep, garml2, kauyumari, Mogozoz, Olethros, orlov2006vn, Ostinato, rebornflms95, Rosen, stub888, terron, VALERY, wreak,
May 5 2019, 13:52:49 Idle Hands - Mana (2019)
Havayoth напомнили, да. dooo.gif
Но с тем, что "Havayoth - на голову выше сабжа" не соглашусь. 23.gif
Да и с вокалом у Idle Hands всё в порядке, ага. bye.gif
(1) Ghostb,
Dec 8 2018, 04:43:46 Las Ovejas De Érebo - El Comienzo De Un Fin (2017)
Ух как взбодрили с утра латиносы.
Щас педали на работу будут помогать крутить.
(1) Foneg,
Nov 13 2018, 15:49:04 Irrita - Sequences Of The Void (2018)
(1) Foneg,
Nov 2 2018, 09:48:31 A Flock Named Murder - An Appointed Time (2018)

Вроде как Toronto, Ontario, Canada.
(2) artscald, Hroedmar,
Oct 21 2018, 06:49:12 Dyscarnate - Enduring The Massacre (2010)
Register
(2) infiltrator, Ostinato,
Oct 15 2018, 15:15:58 Here On Earth - Thallium (2018)
Всё таки поляки в проге впереди планеты всей.
В том проге, который мне нравится.
(1) krotovich,
Oct 12 2018, 20:13:07 Deadbird - III: The Forest Within The Tree (2018)
Да и заточки у парней весьма здравые. Были. В начале пути.
(1) artscald,
Jul 1 2018, 09:57:35 Outsider - Унес (1993)
ЦИТАТА(Burzumen @ 1st July 2018 - 07:18:53) *
зачем заливать в 320 если их там и в помини нет


Burzumen, то есть ты считаешь что релизёр должен был сжать альбом в 192-ой битрейт? (если судить по спектрам)
(1) slack,
Jun 10 2018, 11:20:48 Astrosoniq - Big Ideas Dare Imagination (2018)


*Artist: Astrosoniq
*Album: Big Ideas Dare Imagination
*Year: 2018
*Genre: Stoner/Psychedelic/Hard Rock
*Country: Netherlands
*Format: mp3@CBR320kbps
*Size: 98MB

Tracklist:
01. King [07:38]
02. The Great Escape [07:37]
03. Mindless [04:04]
04. Keppra [04:39]
05. Vision Factor [07:14]
06. Freezen [09:37]
******************************
Total playing time: 40:49



[more=Extended info]Одна из любимых групп в жанре.
Девять лет молчали.[/more]

[more=Technical info]
Input File: 03. Mindless.mp3
Channels : 2
Sample Rate : 44100
Precision : 16-bit
Duration : 00:04:04.30 = 10773498 samples = 18322.3 CDDA sectors
File Size : 9.79M
Bit Rate : 321k
Sample Encoding: MPEG audio (layer I, II or III)
Comments :
Title=Mindless
Artist=Astrosoniq
Album=Big Ideas Dare Imagination
Tracknumber=03
Year=2018
Genre=Stoner

[/more]

Register
(3) avkruchinin, dk201x, infiltrator,
May 10 2018, 14:55:22 YOB - Our Raw Heart (2018)
Register
(7) boby9052, infiltrator, kauyumari, marilin, muskatnuss, Ostinato, pfk505,
May 10 2018, 12:37:39 YOB - Our Raw Heart (2018)


*Artist: YOB
*Album: Our Raw Heart
*Year: 2018
*Genre: Stoner/Sludge/Doom Metal
*Country: United States
*Format: mp3@CBR320kbps
*Size: 175MB

Tracklist:
01. Ablaze 10:13
02. The Screen 09:50
03. In Reverie 09:44
04. Lungs Reach 05:39
05. Beauty in Falling Leaves 16:27
06. Original Face 07:03
07. Our Raw Heart 14:23
******************************
Total playing time: 1:13:19

[more=Extended info]Релиз 8 июня, поэтому пока транскод.

[youtube]DgW1HtxqNHE[/youtube][/more]

[more=Technical info]
Input File: 04. Lungs Reach.mp3
Channels : 2
Sample Rate : 44100
Precision : 16-bit
Duration : 00:05:39.99 = 14993647 samples = 25499.4 CDDA sectors
File Size : 13.7M
Bit Rate : 322k
Sample Encoding: MPEG audio (layer I, II or III)
Comments :
Title=Lungs Reach
Artist=YOB
Album=Our Raw Heart
Tracknumber=04
Year=2018-06-08
Genre=Sludge / Stoner d00m
Discnumber=1/1

[/more]

Register
(19) abob, ASkyThatBurns, Black Cat, Boozer, gena, Ghostb, infiltrator, jpvalentim, lortz, marilin, mirotvorets, muskatnuss, olgiepolgie, Ostinato, Rosen, stub888, VALERY, yuratroll, Zaephar,
Apr 23 2018, 07:58:12 Cult Of Luna - Mariner Live at De Kreun - Belgium [live] (2018)
Не бутлег.
Релиз 4 мая.
(1) recber,
Apr 13 2018, 18:39:57 Horda - Tíz Élet (2008)
@ CBR-320 kbps
Register
(1) SyncestrA,
Mar 8 2018, 18:51:48 Jimi Hendrix - Both Sides Of The Sky (2018)
Походу Джими бессмертен. 28.gif
(1) Ghostb,
Mar 8 2018, 14:58:33 Black Royal - Lightbringer (2018)
Oskulum, done!

Register
(4) kolar666, Oskulum, Sabbathian, Spunkynut,
Feb 28 2018, 03:10:26 Sabel - Re-Generation (2018)
Стонер дум. Ретро-харда не обнаружено.
Один из лучших альбомов за два месяца текущего года. Как по мне.
Вне жанра.
(1) vosmidesijatye,
Jan 28 2018, 22:17:11 Misbehave - Ад на земле (2017)
ПОРТВЕЙН, поздравляю с первым сообщением. bye.gif
Не прошло и семи лет.
(1) Shadechaser,
Jan 26 2018, 16:41:02 Ocean Of Grief - Nightfall's Lament (2018)
ЦИТАТА(DeathCoveR @ 26th January 2018 - 00:43:26) *
От альбома к альбому, лучше не становится.

Вроде как дебютный альбом. Два года назад была отличная ипиха.
(4) Deze, Fess, Ghostb, krotovich,
Jan 22 2018, 19:43:46 Clamfight - Volume I (2010)
SatanicPanzer, bye.gif

Register

(4) DrStan, Ostinato, SatanicPanzer, varlam4,
Nov 9 2017, 05:48:33 Echoes - Cornerstone (2017)
Атмосферная музычка.

[youtube]https://www.youtube.com/watch?v=WHuGUonmMdI[/youtube]
(1) stone88,
Nov 8 2017, 17:18:17 Godless Angel - Year Five [ep] (2017)
one man death/thrash machine
(1) artscald,
Oct 3 2017, 05:24:25 Kadavar - Rough Times (2017)
Register
(4) Asle, boby9052, gena, kolar666,
Sep 10 2017, 20:41:20 Dyscarnate - With All Their Might (2017)
Ну-ну. dooo.gif

Альбом от ваших широких мыслей слабее не стал. look.gif
(1) aserius,
Sep 10 2017, 20:28:10 Dyscarnate - With All Their Might (2017)
ЦИТАТА(aesteticvice @ 10th September 2017 - 22:05:46) *
Вааще не олдскул же

Согласен.
Ньюскул на все сто. Но всё равно мощный альбом!!!
ЦИТАТА(aesteticvice @ 10th September 2017 - 22:05:46) *
грув и хардкор ощутимы

Про грув это ты в самую точку попал.


ЦИТАТА(aesteticvice @ 10th September 2017 - 22:05:46) *
назвать это олдовым дэтом смешно

Да и вообще дэтом сабж можно обозвать с большой натяжкой. Как впрочем и музацию Годжиры.
(1) aserius,

7 Pages V   1 2 3 > » 
- Lo-Fi Version Support form
Copyrights and abuse reports form
Time is now: 13th June 2021 - 18:57:46