Welcome Guest ( Log In | Register )

История благодарностей участнику Velkaarn ::: Спасибо сказали: 9637 раз(а)
Дата поста: В теме: За сообщение: Спасибо сказали:
Jan 16 2021, 03:42:44 Nargaroth - Orke [demo] (1991)
QUOTE(thenecromancer @ Sep 14 2016, 15:05:15) *
From the web, same bitrate:

true_black.gif



You do know this wasn't recorded even close to 1991, right? More like 1998 at the earliest, he was just trying to make his project seem "true" and valid back in the day and copied Burzum releasing an instrumental demo "recorded in 1991" and making a pathetic attempt of faking an "old" and crude cover for it and all. He's utterly hilarious in his almost-innocent delusion. 1488.gif

But thanks for providing the link, I had a sudden urge to try listening to it after seeing the "Orke/Fuck Off Nowadays Black Metal" on a distrolist. It must be at least 15 years since I last heard it, probably more!
(2) Amadeus, thenecromancer,
Apr 7 2019, 21:34:59 Azazel - The Night Of Satanachia [ep] (1995)
QUOTE(Seelenbrecher @ Sep 26 2018, 21:45:28) *
Anyone has this in 320kbps?


Here you go:

Register


It's ripped from the original '96 MCD so no bonus tracks. I should get a copy of that version, curious to hear if they're good quality.
(11) Borderline1991, ITNOR, Luminous, morbidangelo, Seelenbrecher, SilentNidhogg, Skog1349, Strid, stumpheavyrock, thenecromancer, vasiljev_sergej,
Apr 28 2018, 07:44:29 Lycanthropy - Sanctity Of The Black [demo] (1995)
Rip provided by Baalberith reuploaded, as requested by brother thenecromancer:

Register


It's 256 so higher rate than my old rip was.
(3) djurassic, Fenrirsson, thenecromancer,
Jun 19 2017, 06:36:23 Clayforge - Kult Release [demo] (1998)


*Artist: Clayforge
*Album: Kult Release [demo]
*Year: 1998
*Genre: Death'N'Roll
*Country: Finland
*Format: mp3@CBR320kbps
*Size: 34MB

Tracklist:
1. Le Acteur de la Mort 03:21
2. Nightblade 02:18
3. Hell Parade 03:21
4. Blood Opera 02:30
5. The Flesh I Eat 02:54
******************************
Total playing time: 14:24

[more=Extended info]Changed name to Murder In Art after this demo.[/more]

[more=Technical info]
Input File: 03 - Hell Parade.mp3
Channels : 2
Sample Rate : 44100
Precision : 16-bit
Duration : 00:03:21.08 = 8867760 samples = 15081.2 CDDA sectors
File Size : 8.05M
Bit Rate : 320k
Sample Encoding: MPEG audio (layer I, II or III)
Comments :
Title=Hell Parade
Artist=Clayforge
Album=Kult Release
Tracknumber=3
Year=1998
Genre=Death'n'roll

[/more]

Register
(9) Evilded, infiltrator, lawronchik, Orkkh, Ostinato, Rosen, SyncestrA, thenecromancer, wgs73,
Jun 13 2017, 08:00:22 Baalberith - Shadowdreams [demo] (1995)
HELL YES! Finally! pray.gif

Would be funny if it was terrible after all this time. 1488.gif
(1) zargonath,
Jun 13 2017, 07:10:40 Chaotic Impurity - Rehearsal Madness [demo] (1994)


*Artist: Chaotic Impurity
*Album: Rehearsal Madness [demo]
*Year: 1994
*Genre: Black/Death Metal
*Country: Australia
*Format: mp3@VBR243kbps
*Size: 45MB

Tracklist:
1. Dark Legion 02:33
2. Meteor Doom 01:45
3. Mount Dead 02:42
4. Infinite Black 02:16
5. 'Old Slow Punk Ending' 02:59
6. 'Old Old Song' 04:47
7. Rabid 02:51
8. If Only You Knew 03:05
9. Take A Stab 02:26
******************************
Total playing time: 25:24

[more=Extended info]Noisy and chaotic black/death metal, with Infinite Black members. Tracks 5 & 6 did not have proper titles, only descriptive names seen on the tracklisting.

Ripped from a burned CD-R The Unnamed sent me.[/more]

Register
(15) artscald, dermarsoran, Evilded, FUDEDOR, Hell_Is_Here, kim666, Nov16, Ostinato, rom666, Rosen, RunningWild_AT, RUSP73, thenecromancer, varlam4, wgs73,
Jun 10 2017, 05:45:51 Pazuzu - Rehearsal Tape '92 [demo] (1992)
QUOTE(thenecromancer @ Jun 9 2017, 21:02:20) *
Hey Velkaarn, you or Proteus or Borderline1991 could re-upload this "obscure" demo, PLEASE? 9.gif



Sure, here we go:

Register
(4) ExeThrash, FUDEDOR, RunningWild_AT, thenecromancer,
Jun 9 2017, 06:25:50 Grimm's Journey - Promo 1999 [demo] (1999)


*Artist: Grimm's Journey
*Album: Promo 1999 [demo]
*Year: 1999
*Genre: Melodic Death Metal
*Country: Finland
*Format: mp3@CBR320kbps
*Size: 36MB

Tracklist:
1. Intergalactic Cadillac 05:55
2. Epsilon A 05:58
3. Subcreator's World Spin 03:45
******************************
Total playing time: 15:38

[more=Extended info]Some of the band members later played in Sotajumala.[/more]

[more=Technical info]
Input File: 01 - Intergalactic Cadillac.mp3
Channels : 2
Sample Rate : 44100
Precision : 16-bit
Duration : 00:05:55.12 = 15660572 samples = 26633.6 CDDA sectors
File Size : 14.2M
Bit Rate : 320k
Sample Encoding: MPEG audio (layer I, II or III)
Comments :
Title=Intergalactic Cadillac
Artist=Grimm's Journey
Album=Promo 1999
Tracknumber=1
Year=1999
Genre=Melodic Death Metal

[/more]

Register
(11) Evilded, Ostinato, Proteus_666, Rosen, RunningWild_AT, satanist666, Svafrlami, SymbyoticEntity, thenecromancer, Xaradonth, Yamanov,
Jun 6 2017, 19:59:54 Infinite Black - Promo 2013 [demo] (2013)


*Artist: Infinite Black
*Album: Promo 2013 [demo]
*Year: 2013
*Genre: Black Metal
*Country: Australia
*Format: mp3@CBR320kbps
*Size: 38MB

Tracklist:
1. Trance Like Void 05:06
2. Before The Gates 06:14
3. Insidious 02:37
4. Cloak And Sword 04:23
5. Outro 01:23
******************************
Total playing time: 19:43

[more=Extended info]Released in two versions, one titled "Promo 2013" and second (this) "Promo MMXIV" - the title on the cover being the only difference.[/more]

[more=Technical info]
Input File: 03 Insidious.mp3
Channels : 2
Sample Rate : 44100
Precision : 16-bit
Duration : 00:02:38.05 = 6970137 samples = 11854 CDDA sectors
File Size : 6.32M
Bit Rate : 320k
Sample Encoding: MPEG audio (layer I, II or III)
Comments :
Title=Insidious
Artist=Infinite Black
Album=Promo 2013
Tracknumber=3
Year=2013
Genre=Black Metal

[/more]

Register
(14) 1968_janeart, artscald, Borderline1991, dermarsoran, kim666, rom666, Rosen, RUSP73, satanist666, stub888, thenecromancer, varlam4, vasiljev_sergej, Абигор,
Jun 4 2017, 10:38:33 Svantevith - The Return Of The Ancient Slav [demo] (1996)


*Artist: Svantevith
*Album: The Return Of The Ancient Slav [demo]
*Year: 1996
*Genre: Slavonic Ambient/Pagan Black Metal
*Country: Poland
*Format: mp3@CBR320kbps
*Size: 76MB

Tracklist:
1. Intro 04:06
2. Te Svantevith Laudeamus 10:43
3. Te Svantevith... /Reprise/ 02:19
4. 966 06:50
5. Smutek i rozpacz 04:11
6. Outro 04:52
******************************
Total playing time: 33:01

[more=Extended info]Synth with very slight touches of pagan black metal, by Lord Smrtan of Nirnaeth, Themgoroth and Eblis, assisted by Astaroth and Vassago.[/more]

[more=Technical info]
Input File: 03 - Te Svantevith (Reprise).mp3
Channels : 2
Sample Rate : 44100
Precision : 16-bit
Duration : 00:02:19.09 = 6133781 samples = 10431.6 CDDA sectors
File Size : 5.57M
Bit Rate : 320k
Sample Encoding: MPEG audio (layer I, II or III)
Comments :
Title=Te Svantevith... /Reprise/
Artist=Svantevith
Album=The Return of the Ancient Slav
Tracknumber=3
Year=1996
Genre=Slavonic Synth

[/more]

Register
(12) Borderline1991, Ildjarn, kim666, rom666, Rosen, RunningWild_AT, RUSP73, templ, thenecromancer, varlam4, vasiljev_sergej, Witchlord,
May 31 2017, 03:31:20 Waldschrat - Reh'I 1998 [demo] (1998)


*Artist: Waldschrat
*Album: Reh'I 1998 [demo]
*Year: 1998
*Genre: Black Metal
*Country: Germany
*Format: mp3@VBR291kbps
*Size: 19MB

Tracklist:
1. Werwolf 02:25
2. Pesttanz 03:01
3. The Gates Of Heaven 03:31
4. Deathcrush 03:43
******************************
Total playing time: 12:40

[more=Extended info]Rehearsal tape I, tracks 1-3 Absurd covers, track 4 Mayhem.

Changed name later to Irmingot.[/more]

Register
(16) 1968_janeart, Asle, Blut aus Nord, dermarsoran, Ildjarn, MortSathynr, NachtWulf, Ostinato, rom666, Rosen, RunningWild_AT, RUSP73, satanist666, stub888, varlam4, vasiljev_sergej,
May 16 2017, 01:18:27 Orion Nightfall - Eye Of The Snowstorm [demo] (2007)


*Artist: Orion Nightfall
*Album: Eye Of The Snowstorm [demo]
*Year: 2007
*Genre: Black Metal
*Country: Finland
*Format: mp3@CBR320kbps
*Size: 35MB

Tracklist:
1. Mankindslayer 03:05
2. Hail The Old Hate 02:52
3. Wolf Of The Wrathmoon 04:08
4. Spiritual War 02:49
5. Eye Of The Snowstorm 04:10
******************************
Total playing time: 17:04

[more=Extended info]Demo V, released as CD-R. Cover scan included.[/more]

[more=Technical info]
Input File: 04 Spiritual War.mp3
Channels : 2
Sample Rate : 44100
Precision : 16-bit
Duration : 00:02:50.07 = 7499911 samples = 12755 CDDA sectors
File Size : 6.80M
Bit Rate : 320k
Sample Encoding: MPEG audio (layer I, II or III)
Comments :
Title=Spiritual War
Artist=Orion Nightfall
Album=Eye of the Snowstorm
Tracknumber=4
Year=2007
Genre=Black Metal

[/more]

Register
(18) 1968_janeart, artscald, Borderline1991, ddarkthrone, Ildjarn, kim666, lawronchik, maochen, NachtWulf, Ostinato, rom666, Rosen, RUSP73, satanist666, stub888, thenecromancer, varlam4, vasiljev_sergej,
May 11 2017, 02:35:29 Perkele - Saatanalliset Himot (Rehearsal/Demo I) [demo] (1994)
I've made a better rip of this, @320:

Register
(1) thenecromancer,
May 6 2017, 08:44:23 The Shadow Dance - Stormy Visions [demo] (1995)


*Artist: The Shadow Dance
*Album: Stormy Visions [demo]
*Year: 1995
*Genre: Gothic
*Country: Finland
*Format: mp3@CBR320kbps
*Size: 30MB

Tracklist:
1. Temple 05:06
2. Sea-Horse 04:05
3. Hologram Song 03:48
******************************
Total playing time: 12:59

[more=Extended info]Demo I.[/more]

[more=Technical info]
Input File: 03 - Hologram Song.mp3
Channels : 2
Sample Rate : 44100
Precision : 16-bit
Duration : 00:03:48.10 = 10059034 samples = 17107.2 CDDA sectors
File Size : 9.13M
Bit Rate : 320k
Sample Encoding: MPEG audio (layer I, II or III)
Comments :
Title=Hologram Song
Artist=The Shadow Dance
Album=Stormy Visions
Tracknumber=3
Year=1995
Genre=Gothic

[/more]

Register
(3) Borderline1991, Cartman223, thenecromancer,
Apr 25 2017, 09:12:38 Bathagor - Die Spuren Des Krieges [demo] (2002)


*Artist: Bathagor
*Album: Die Spuren Des Krieges [demo]
*Year: 2002
*Genre: Raw Black Metal
*Country: Germany
*Format: mp3@VBR286kbps
*Size: 95MB

Tracklist:
Seite A - Die Spuren Des Krieges
1. Leidenträger 05:26
2. Schattenzorn 03:36
3. Blutsturm 05:59
4. Die Spuren Des Krieges 05:02
Seite B - Bathagor (Kaltes Licht)
5. Nachtgedanken 06:45
6. Wege Die Misanthropie 04:15
7. Rosetränen 05:39
8. Bathagor (Kaltes Licht) 08:52
******************************
Total playing time: 45:34

[more=Extended info]Black metal with just guitar and vocals.[/more]

Register
(17) 1968_janeart, Blut aus Nord, Borderline1991, kim666, NachtWulf, Ostinato, rom666, Rosen, RUSP73, satanist666, serg1349, stub888, varg-38ru, vasiljev_sergej, wreak, Абигор, Спектр,
Apr 21 2017, 18:36:48 In My Veins - Rehearsal 1995 [demo] (1995)
I've made a new rip of this and the demo, also includes a rehearsal track from '95 and fixed tracklisting (first demo track was mistitled originally):

In My Veins - The Red Sky at Dawn demo 1995
1) Shrouded in Darkness and Despair
2) Black Vault of Heaven
3) The Red Sky at Dawn
4) Snow in My Hand

In My Veins - Rehearsal Track 1995
1) Black Vault of Heaven

In My Veins - Rehearsal 1995
1) Flaring Ground
2) Enwrapped in Thought

All in the same folder:

Register
(2) Borderline1991, thenecromancer,
Apr 21 2017, 18:36:15 In My Veins - The Red Sky At Dawn [demo] (1995)
I've made a new rip of this and the rehearsal, also includes a rehearsal track from '95 and fixed tracklisting (first track was mistitled originally):

In My Veins - The Red Sky at Dawn demo 1995
1) Shrouded in Darkness and Despair
2) Black Vault of Heaven
3) The Red Sky at Dawn
4) Snow in My Hand

In My Veins - Rehearsal Track 1995
1) Black Vault of Heaven

In My Veins - Rehearsal 1995
1) Flaring Ground
2) Enwrapped in Thought

All in the same folder:

Register
(1) thenecromancer,
Apr 20 2017, 07:56:39 Blood Chalice - Journey Through Shadowlands [demo] (2000)


*Artist: Blood Chalice
*Album: Journey Through Shadowlands [demo]
*Year: 2000
*Genre: Black Metal
*Country: Singapore
*Format: mp3@VBR280kbps
*Size: 52MB

Tracklist:
1. I Am... The Adversarial One 06:31
2. In Hunt For The Blood Of Jesus (Christ Hunting) 09:18
3. Mesmerizing Zephyr, Tantalising Death 03:43
4. The Dagger And The Chalice Of Blood 05:55
******************************
Total playing time: 25:27

[more=Extended info]Horrible, horrible sound, but very obscure. Rip sent by a comrade and is probably not really 320, I don't understand this crap enough to say so I put it as vbr.

Cover scan included.[/more]

Register
(16) 1968_janeart, artscald, Borderline1991, dermarsoran, GodDethroned, kim666, Ostinato, rom666, Rosen, RunningWild_AT, RUSP73, satanist666, thenecromancer, varlam4, vasiljev_sergej, Спектр,
Apr 12 2017, 22:05:21 Arcturus - Rehearsal Track [bootleg] (1993)
Well, I got it as 16/06/94 back in the day and haven't seen other year offered for it so I believe '94 is valid. I did get the same thing dubbed as rehearsal 16/04/1994 once though, that must've been just a mistake. I might be wrong but I don't think they were really active in '93?
(1) thenecromancer,
Apr 12 2017, 05:51:33 Throes Of Dawn - With The Northern Wind [demo] (1994)
I have made another rip of this (CBR@320)

Register
(3) Borderline1991, Cartman223, thenecromancer,
Apr 11 2017, 09:13:33 Curse - Rehearsal 14/05/94 [demo] (1994)


*Artist: Curse
*Album: Rehearsal 14/05/94 [demo]
*Year: 1994
*Genre: Black/Death Metal
*Country: Finland
*Format: mp3@CBR192kbps
*Size: 22MB

Tracklist:
1. Infant Jesus Dead 02:24
2. Blasphemous Incantation 02:47
3. Demons Appear 05:02
4. Blasphemy 03:43
5. Ferocia Animi 02:21
******************************
Total playing time: 16:17

[more=Extended info]Rehearsal tape recorded between the first demo and the split tape.
No proper cover for this either, I just made a placeholder image.[/more]

Register
(17) artscald, Borderline1991, Darkthronefoad, ddarkthrone, Evilded, marilin, Ostinato, Reverend, rom666, Rosen, RunningWild_AT, RUSP73, thenecromancer, the_cleanser, tireheb, varlam4, wreak,
Apr 11 2017, 09:07:49 Curse - Rehearsal 09/08/93 [demo] (1993)


*Artist: Curse
*Album: Rehearsal 09/08/93 [demo]
*Year: 1993
*Genre: Black/Death Metal
*Country: Finland
*Format: mp3@CBR192kbps
*Size: 13MB

Tracklist:
1. Infant Jesus Dead 02:26
2. Satanic Dominion 03:47
3. Disciples Of Mockery 03:37
******************************
Total playing time: 9:50

[more=Extended info]Rehearsal tape made two months before the debut demo was recorded. No proper cover existed.[/more]

Register
(16) artscald, Borderline1991, Darkthronefoad, ddarkthrone, Evilded, marilin, Ostinato, Reverend, rom666, Rosen, RunningWild_AT, RUSP73, thenecromancer, the_cleanser, varlam4, wreak,
Apr 4 2017, 06:32:10 Nocturnal Feast - Hymn To Darkness [demo] (1992)


*Artist: Nocturnal Feast
*Album: Hymn To Darkness [demo]
*Year: 1992
*Genre: Black/Death Metal
*Country: Finland
*Format: mp3@CBR320kbps
*Size: 32MB

Tracklist:
1. Intro: Live Eva 01:21
2. Ave Satanas 02:55
3. Enter The Eternal Night 01:35
4. Ancient Gods 02:14
5. Gates Of Wisdom 02:20
6. The Gathering 02:19
7. Outro: Waves Of Acheron 00:53
******************************
Total playing time: 13:37

[more=Extended info]Demo I, cover scan included. Changed name to Black Dawn which then became The True Black Dawn.[/more]

[more=Technical info]
Input File: 03 - Enter the Eternal Night.mp3
Channels : 2
Sample Rate : 44100
Precision : 16-bit
Duration : 00:01:35.07 = 4192499 samples = 7130.1 CDDA sectors
File Size : 3.81M
Bit Rate : 320k
Sample Encoding: MPEG audio (layer I, II or III)
Comments :
Title=Enter the Eternal Night
Artist=Nocturnal Feast
Album=Hymn to Darkness
Tracknumber=3
Year=1992
Genre=Satanic Death Metal

[/more]

Register
(19) artscald, Borderline1991, ddarkthrone, dermarsoran, Evilded, Oath19, Ostinato, Proteus_666, rom666, Rosen, RunningWild_AT, RUSP73, satanist666, smysl, thenecromancer, varlam4, warrr, wgs73, Xexanoth82,
Mar 28 2017, 18:25:28 Kraina Wiecznego Mrozu - Ziemia Ojców [demo] (1998)


*Artist: Kraina Wiecznego Mrozu
*Album: Ziemia Ojców [demo]
*Year: 1998
*Genre: Pagan Black Metal
*Country: Poland
*Format: mp3@VBR269kbps
*Size: 30MB

Tracklist:
1. Pruskie leśne królestwo 04:35
2. Nigdy mu się nie poddam 03:12
3. Wojna 04:27
4. Ziemia ojców 02:59
******************************
Total playing time: 15:13

[more=Extended info]Demo I 1998 - different from the 1999 version of the same name released by Reakcjonista Magazine.[/more]

Register
(18) 1968_janeart, artscald, Borderline1991, fabriziomagno, Ildjarn, Moonshtook, NachtWulf, Ostinato, Ratibor366, Raw1488, rom666, Rosen, RUSP73, satanist666, Skog1349, varlam4, vasiljev_sergej, Спектр,
Mar 27 2017, 11:23:40 Ceremony - Ceremony Of The Goat 1992 - 1994 [best of/compilation] (2016)


*Artist: Ceremony
*Album: Ceremony Of The Goat 1992 - 1994 [best of/compilation]
*Year: 2016
*Genre: Black Metal
*Country: United States
*Format: mp3@CBR320kbps
*Size: 100MB

Tracklist:
S/T Demo (Halloween 1993)
1. Black Spells In A Dark Forest 05:07
2. Raping The Heavens 03:07
3. Ceremony Of The Oath 03:02
4. Invocation To Satan 03:01
5. Morbid Rites Of Vorphalac 04:02
6. Outro 01:19
"92 Promo"
7. Ceremony Of The Oath 03:14
8. War (Under Satan's Wings) 04:37
Unreleased
9. Invocation To Satan 02:55
10. Nokturnal Predator (Menstrual Bloodthirst) 03:32
11. Morbid Rites Of (Shub Niggurath) 04:09
12. Epic Tales Of Bloodlust 03:35
13. Oath To The Goat 02:38
14. Darkness Of The Underworld 02:51
******************************
Total playing time: 47:09

[more=Extended info]For Borderline1991.

Cover scans enclosed.[/more]

[more=Technical info]
Input File: 13 Oath to the Goat.mp3
Channels : 2
Sample Rate : 44100
Precision : 16-bit
Duration : 00:02:38.84 = 7004844 samples = 11913 CDDA sectors
File Size : 6.35M
Bit Rate : 320k
Sample Encoding: MPEG audio (layer I, II or III)
Comments :
Title=Oath to the Goat
Artist=Ceremony
Album=Ceremony of the Goat 1992 - 1994
Tracknumber=13
Year=2016
Genre=Black Metal

[/more]

Register
(19) Boozer, Borderline1991, Darkthronefoad, ddarkthrone, kim666, marilin, Ostinato, rom666, Rosen, RUSP73, satanist666, Storky, stub888, thenecromancer, varlam4, vasiljev_sergej, Velmi, wendigo, Абигор,

33 Pages V   1 2 3 > » 
- Lo-Fi Version Support form
Copyrights and abuse reports form
Time is now: 17th May 2021 - 01:20:40