Welcome Guest ( Log In | Register )

История благодарностей участнику cesar ::: Спасибо сказали: 10414 раз(а)
Дата поста: В теме: За сообщение: Спасибо сказали:
Nov 25 2021, 19:17:41 Hypocrisy - Worship (2021)
ЦИТАТА(TDM @ Nov 25 2021, 20:51:18) *
Тгтгрн до сих пор не умер от наркотиков?

В Швеции качество!
(1) Samaritianin,
Nov 22 2021, 18:36:21 Degragore - Rest Off (2021)


*Artist: Degragore
*Album: Rest Off
*Year: 2021
*Genre: Brutal Death Metal
*Country: Hungary
*Format: mp3@CBR320kbps
*Size: 100MB

Tracklist:
01. Despair
02. Internus Ignis
03. Cannibal Priest
04. Eaten By Pigs
05. Unrecognizable Distortion
06. Funeral In The Blood
07. Babajaga
08. The Twelve
09. Cadaverous
******************************
Total playing time: 43:01



[more=Technical info]
Input File: 06 Funeral in the Blood.mp3
Channels : 2
Sample Rate : 44100
Precision : 16-bit
Duration : 00:04:23.04 = 11600240 samples = 19728.3 CDDA sectors
File Size : 10.7M
Bit Rate : 325k
Sample Encoding: MPEG audio (layer I, II or III)
Comments :
Title=Funeral in the Blood
Artist=Degragore
Album=Rest off
Tracknumber=6
Year=2021

[/more]

Register
(14) andreikun, caro, cryptal, Hell_Is_Here, infozahist, jollo, julianotidre, KNessJM, maochen, metala, noel666, supremo, vyacheslav, wreak,
Nov 10 2021, 20:20:04 Odium - Architectural Invention [ep] (2021)
Это не те, это ванмэнбэнд новый...
(1) AHBAnep,
Oct 28 2021, 16:34:27 Archspire - Bleed The Future (2021)
3 или 4 альбомчика у них уже есть в багаже
и свежий видос

[youtube]MlnGYcMpxgU[/youtube]
(4) BleedingSun, StabWound, Zhelezjaka, Zyklon88,
Oct 28 2021, 15:41:23 Archspire - Bleed The Future (2021)
Хороший дpоч!
(2) BleedingSun, Phlebotomized,
Oct 22 2021, 07:28:36 Sexmag - Sex Metal [ep] (2021)
Хм, вокал даже по старошкольным канонам чересчур хрипловато-криклив crazy.gif
Музыка и звучание 9.gif
(1) Winterdark,
Oct 21 2021, 19:32:10 Slammer - Slammer (2021)
Ну ничо так, но не англичане crazy.gif
(1) SaintVitus,
Oct 21 2021, 19:25:52 Draconicon - Dark Side Of Magic (2021)
ЦИТАТА(Сатаник @ Oct 21 2021, 14:25:49) *
Тю блин, прочитал Draconian 1488.gif

99% так прочитали, и я тоже crazy.gif
(4) BleedingSun, Dreamtale, plfan93, SaintVitus,
Oct 7 2021, 19:06:52 Кипелов - Часы Судного Дня [ep] (2021)
ЦИТАТА(viktor06082 @ Oct 7 2021, 18:33:09) *
наверху одни остроумные малолетки, хотя бы из уважения к Валерию Александровичу не писали подобное. Но вы похоже никого не уважаете...

Не довод ни разу. Кипелыч был очень хорош, он лучший и "настоящий" голос Арии и им останется. Но сейчас у него голос просел, это факт. И музыку он делает скучную, хотя возможно в этом виноваты его аккомпаниаторы, но тогда их надо гнать и брать других! Ибо выглядит и слушается это сейчас уныло. Ну, упертые или маньячные фанаты Валерь Саныча со мной не согласятся, конечно crazy.gif
(4) AHBAnep, atavist, Emm Human, Rhoads,
Sep 25 2021, 12:24:36 Rivers Of Nihil - The Work (2021)
Рваный и неоднородный. Причём это не в плюс, а в минус. Выше уже сказали всё по делу.
Для меня неудобоваримый релиз, хотя ожидания были совсем иные..
(2) BleedingSun, Dirt_ORFEY,
Sep 24 2021, 19:18:00 Skepticism - Companion (2021)
Торжественно и эпично, не совсем "тот самый" Скептицизм, но всё же узнаваемый.
Альбом слушается свежо и интересно, и это главное
(1) Molotov,
Sep 16 2021, 18:51:37 Rage - Resurrection Day (2021)
Первая прослушка залетела на отлично! Послезавтра командировка с долгой дорогой - надо обязательно закинуть в плей-лист 20.gif
(1) Samaritianin,
Sep 8 2021, 15:22:38 Пламя В Нас - Жаворонок (2021)
Так это же Рви Меха! С какого они сменили имя и играют старые песни под видом новых? Вот это номер!!
(2) judaz, Phlebotomized,
Sep 6 2021, 08:17:01 Habeas Corpus - Coated With Lies (1995)
mirror

Register
(2) Wail, Xtohar,
Aug 22 2021, 16:58:24 12 Gauge Rampage - Unleash The Rage (2021)
Да не, брутал/грайнд, он и есть.
Просто гитару и вокал задвинули совсем далеко, больше бас ухает. Бывает.
Но значит так слышали создатели, или человек, что им запись сводил.
(1) StabWound,
Jul 28 2021, 19:25:58 Багира - И Грянет Гром (2021)
Ожидаемая ху*та
(1) AHBAnep,
Jul 17 2021, 21:09:32 Amalekim - Hvhi (2021)
Melodic.
Хороший Melodic Black
(2) Andrew, infiltrator,
Jul 15 2021, 09:24:48 Vomit The Soul - Apostles Of Inexpression (2009)
О*уительный альбом! О*уительнейший!!

Register
(1) wreak,
Jun 17 2021, 17:45:25 Astyanax - Extreme Antinatalist Design (2021)
Ведь лютый альбом, да?
(1) troll_swamp,
Jun 15 2021, 17:56:26 Astyanax - Extreme Antinatalist Design (2021)


*Artist: Astyanax
*Album: Extreme Antinatalist Design
*Year: 2021
*Genre: Death Metal
*Country: United States
*Format: mp3@CBR320kbps
*Size: 83MB

Tracklist:
01. Extreme Antinatalist Design
02. Crucifysterectomy
03. Pedosadism
04. Stillborn Goddess
05. Auto-Erotic Exsanguination
06. Cyst Licker
07. Ejaculating Feces
08. Gruesome Spontaneous Conflagration
09. Suicide Contagion
10. Sanguine Baptism
******************************
Total playing time: 36:04



[more=Technical info]
Input File: 04. Stillborn Goddess.mp3
Channels : 2
Sample Rate : 44100
Precision : 16-bit
Duration : 00:03:26.09 = 9088393 samples = 15456.5 CDDA sectors
File Size : 8.25M
Bit Rate : 320k
Sample Encoding: MPEG audio (layer I, II or III)
Comments :
Title=Stillborn Goddess
Artist=Astyanax
Album=Extreme Antinatalist Design
Tracknumber=04
Year=2021

[/more]

Register
(31) alikkon, andreikun, bOOLty, Brutal, BugEyes, caro, chipsgott, DeathDragon, GorAtheist, Hell_Is_Here, infiltrator, judaz, Marek, martintrue, METALHUNTER, Olethros, sabr, samokot, smysl, StabWound, supremo, tim47, Tino, troll_swamp, VALERY, varlam4, vyacheslav, Wail, wanderer73, wreak, WX419,
Jun 13 2021, 21:53:50 Abysskvlt - Phur G.Yang (2021)
Отлично! Сейчас один в доме, за окном ночь, нет фонового шума города, людей, дневной жизни. Освещения вокруг тоже нет. Если вслушиваться, то слышно лишь как шелестит листва на ветру, иногда падают капли недавнего прошедшего дождя, да всякие скрипы; то ли деревья, то ли дом (старый он уже) это. Короче - атмосфера для этого релиза оказалась шикарной. Слушаю - местами просто мурашки натурально ползут по коже. Жутковато(( Но сильное впечатление, конечно!
(3) Chasm, Occultas, Winterdark,
May 26 2021, 18:14:41 Альбом 2007 года в жанре technical / progressive death metal. Итоги.
Да они все трое на втором месте, коллективный подиум))
(1) Foneg,
May 18 2021, 16:56:22 Альбом 2007 года в жанре technical / progressive death. Финал
ЦИТАТА(hammer @ May 18 2021, 08:06:17) *
Я определился, мой фаворит в этой гонке
Cephalic Carnage - Xenosapien

Я вот чуть было не сбился похвалами сплошными Садиста, но прослушав их очень хороший альбом, который не зашёл мне тогда (сейчас я его оценил много выше), я все таки убедился, что в сравнении с их же Сезоном этот не столь шикарен. Потому фаворит остался прежним - Цефалики!
(2) infiltrator, xax,
May 17 2021, 12:03:40 Альбом 2007 года в жанре technical / progressive death. Финал




Всё таки Cephalic Carnage
(2) infiltrator, xax,
May 12 2021, 19:40:34 Альбом 2007 года в жанре technical / progressive death. Финал
Sadist прямо в фаворе, а я вот помню, что альбом мне этот не зашёл в то время hmm.gif
Вот его точно надо внимательно расслушать
(2) Emm Human, infiltrator,

158 Pages V   1 2 3 > » 
- Lo-Fi Version Support form
Copyrights and abuse reports form
Time is now: 29th November 2021 - 22:20:16