Welcome Guest ( Log In | Register )

История благодарностей участнику cesar ::: Спасибо сказали: 10294 раз(а)
Дата поста: В теме: За сообщение: Спасибо сказали:
Jul 28 2021, 19:25:58 Багира - И Грянет Гром (2021)
Ожидаемая ху*та
(1) AHBAnep,
Jul 17 2021, 21:09:32 Amalekim - Hvhi (2021)
Melodic.
Хороший Melodic Black
(2) Andrew, infiltrator,
Jul 15 2021, 09:24:48 Vomit The Soul - Apostles Of Inexpression (2009)
О*уительный альбом! О*уительнейший!!

Register
(1) wreak,
Jun 15 2021, 17:56:26 Astyanax - Extreme Antinatalist Design (2021)


*Artist: Astyanax
*Album: Extreme Antinatalist Design
*Year: 2021
*Genre: Death Metal
*Country: United States
*Format: mp3@CBR320kbps
*Size: 83MB

Tracklist:
01. Extreme Antinatalist Design
02. Crucifysterectomy
03. Pedosadism
04. Stillborn Goddess
05. Auto-Erotic Exsanguination
06. Cyst Licker
07. Ejaculating Feces
08. Gruesome Spontaneous Conflagration
09. Suicide Contagion
10. Sanguine Baptism
******************************
Total playing time: 36:04



[more=Technical info]
Input File: 04. Stillborn Goddess.mp3
Channels : 2
Sample Rate : 44100
Precision : 16-bit
Duration : 00:03:26.09 = 9088393 samples = 15456.5 CDDA sectors
File Size : 8.25M
Bit Rate : 320k
Sample Encoding: MPEG audio (layer I, II or III)
Comments :
Title=Stillborn Goddess
Artist=Astyanax
Album=Extreme Antinatalist Design
Tracknumber=04
Year=2021

[/more]

Register
(26) alikkon, andreikun, bOOLty, BugEyes, caro, chipsgott, DeathDragon, GorAtheist, Hell_Is_Here, infiltrator, judaz, Marek, martintrue, Olethros, samokot, smysl, StabWound, supremo, tim47, Tino, VALERY, varlam4, vyacheslav, Wail, wreak, WX419,
Jun 13 2021, 21:53:50 Abysskvlt - Phur G.Yang (2021)
Отлично! Сейчас один в доме, за окном ночь, нет фонового шума города, людей, дневной жизни. Освещения вокруг тоже нет. Если вслушиваться, то слышно лишь как шелестит листва на ветру, иногда падают капли недавнего прошедшего дождя, да всякие скрипы; то ли деревья, то ли дом (старый он уже) это. Короче - атмосфера для этого релиза оказалась шикарной. Слушаю - местами просто мурашки натурально ползут по коже. Жутковато(( Но сильное впечатление, конечно!
(1) Occultas,
May 26 2021, 18:14:41 Альбом 2007 года в жанре technical / progressive death metal. Итоги.
Да они все трое на втором месте, коллективный подиум))
(1) Foneg,
May 18 2021, 16:56:22 Альбом 2007 года в жанре technical / progressive death. Финал
ЦИТАТА(hammer @ May 18 2021, 08:06:17) *
Я определился, мой фаворит в этой гонке
Cephalic Carnage - Xenosapien

Я вот чуть было не сбился похвалами сплошными Садиста, но прослушав их очень хороший альбом, который не зашёл мне тогда (сейчас я его оценил много выше), я все таки убедился, что в сравнении с их же Сезоном этот не столь шикарен. Потому фаворит остался прежним - Цефалики!
(2) infiltrator, xax,
May 17 2021, 12:03:40 Альбом 2007 года в жанре technical / progressive death. Финал




Всё таки Cephalic Carnage
(2) infiltrator, xax,
May 12 2021, 19:40:34 Альбом 2007 года в жанре technical / progressive death. Финал
Sadist прямо в фаворе, а я вот помню, что альбом мне этот не зашёл в то время hmm.gif
Вот его точно надо внимательно расслушать
(2) Emm Human, infiltrator,
Apr 27 2021, 18:42:39 Fleshtorture - Grotesca Doctrina De La Perversidad (2021)
Отличная вещица!
(1) Samaritianin,
Apr 27 2021, 17:47:29 Scaffold - Years Of Decadence (2019)
metaler.gif

Register
(1) wanderer73,
Apr 26 2021, 15:24:25 Frog Mallet - Dissection By Amphibian (2021)
В целом всё типично, есть вязкие места и разрывы темпа, ну и вообще всё не на высоких скоростях, хотя трещотка бочек случается. Можно пройти мимо этих "жаболюбов", потери не будет.
(1) AHBAnep,
Apr 23 2021, 07:48:23 Hideous Divinity - Lv-426 [ep] (2021)


*Artist: Hideous Divinity
*Album: Lv-426 [ep]
*Year: 2021
*Genre: Technical Brutal Death Metal
*Country: Italy
*Format: mp3@CBR320kbps
*Size: 38MB

Tracklist:
1. Acheron, Stream of Woe
2. Chestburst
3. Delirium Trigger (Coheed and Cambria cover)
******************************
Total playing time: 16:14



[more=Technical info]
Input File: 02 - Chestburst.mp3
Channels : 2
Sample Rate : 44100
Precision : 16-bit
Duration : 00:04:01.00 = 10628100 samples = 18075 CDDA sectors
File Size : 9.81M
Bit Rate : 326k
Sample Encoding: MPEG audio (layer I, II or III)
Comments :
Title=Chestburst
Artist=Hideous Divinity
Album=LV-426
Tracknumber=2
Year=2021-23-04

[/more]

Register
(26) ALEXSATHANAS, BERZERK, chipsgott, dcatagua, EvilSpirit, garml2, Golfzilla, Hell_Is_Here, infiltrator, kimkayoung, Lux, Marek, martintrue, Metalass, METALHUNTER, Olethros, Razorbladeswaltz, ripper33, Skyggedans, smes, Spork, Swastika, tschunioronbeer, vyacheslav, wreak, yuratroll,
Apr 22 2021, 20:23:24 Hideous Divinity - Lv-426 [ep] (2021)


*Artist: Hideous Divinity
*Album: Lv-426 [ep]
*Year: 2021
*Genre: Technical Brutal Death Metal
*Country: Italy
*Format: mp3@CBR320kbps
*Size: 38MB

Tracklist:
1. Acheron, Stream of Woe
2. Chestburst
3. Delirium Trigger (Coheed and Cambria cover)
******************************
Total playing time: 16:14



[more=Extended info]Release date: 23/04/2021[/more]

[more=Technical info]
Input File: 02 - Chestburst.mp3
Channels : 2
Sample Rate : 44100
Precision : 16-bit
Duration : 00:04:01.00 = 10628100 samples = 18075 CDDA sectors
File Size : 9.81M
Bit Rate : 326k
Sample Encoding: MPEG audio (layer I, II or III)
Comments :
Title=Chestburst
Artist=Hideous Divinity
Album=LV-426
Tracknumber=2
Year=2021-23-04

[/more]

Register
(2) kimkayoung, KJ111,
Apr 22 2021, 19:31:02 Fates Warning - Long Day Good Night (2020)
С каждым разом залипал в альбом всё больше и больше.
А с первой прослушки особенно не впечатлился.
Хороший.
(1) Exorcist,
Apr 14 2021, 16:53:37 The Offspring - Let The Bad Times Roll (2021)
Пост-ковидные страхи...

[youtube]J6vpedfGPwY[/youtube]
(2) infiltrator, Victim of fate,
Apr 5 2021, 19:01:38 Withering Reign - Under The Bleeding Sun (2021)
ЦИТАТА(Old Vyaine @ Mar 29 2021, 20:56:42) *
Более чем средне. Как там говорится... а! Третьесорт!™

Старик, да он везде! Везде, где ходит DenisKov crazy.gif
(1) Old Vyaine,
Mar 26 2021, 19:02:36 Pissdeads - Весна [single] (2021)
Абстрактный минимализм crazy.gif
И трек и картинка crazy.gif crazy.gif
(2) infiltrator, Vitald,
Mar 1 2021, 10:10:30 Dawn Of Azazel - Sedition (2006)
320

Register
(3) BuckSatanII, Corpuscul, sacramentary,
Mar 1 2021, 07:17:08 Homizide - Impalement Fest (2020)


*Artist: Homizide
*Album: Impalement Fest
*Year: 2020
*Genre: Death Metal
*Country: Spain
*Format: mp3@CBR320kbps
*Size: 79MB

Tracklist:
Intro
100000 cadáveres
White Death
The Awakening
Nadando en hormigón
Impalement Fest
In a Cavern Throne
Cannibal Drug
Por un puñado de huesos
******************************
Total playing time: 34:07



[more=Technical info]
Input File: 2.100000 cadáveres.mp3
Channels : 2
Sample Rate : 44100
Precision : 16-bit
Duration : 00:04:36.57 = 12196869 samples = 20743 CDDA sectors
File Size : 11.2M
Bit Rate : 324k
Sample Encoding: MPEG audio (layer I, II or III)
Comments :
Title=100000 Cadáveres
Artist=Homizide
Album=Impalement Fest
Tracknumber=2/9
Year=2020-00-00
Genre=Death Metal

[/more]

Register
(11) atavist, infiltrator, Olethros, scorpionmk, Taakeferd, VALERY, Vladimir, vyacheslav, wanderer73, wreak, Yngwarr,
Feb 27 2021, 15:59:28 Upon The Altar - Absid Ab Ordine Luminis (2021)
Сумбурно и хаотично, крупно-рубленными кусками!
(1) Occultas,
Feb 26 2021, 11:48:51 Last Days Of Humanity - Horrific Compositions Of Decomposition (2021)


*Artist: Last Days Of Humanity
*Album: Horrific Compositions Of Decomposition
*Year: 2021
*Genre: Grindcore/Goregrind
*Country: Netherlands
*Format: mp3@CBR320kbps
*Size: 61MB

Tracklist:
01. Hematopoietic System Tissue And Lymphoid Fail
02. Molecular Shutdown Of The Hematopoietic Cells
03. Within The Putrefying Realms Of Clinical Pathology
04. Structural Alterations Of Morphological Cell Changes From Within
05. Roots Of Pathos 00:51
06. Sickening Analysis Of Reeking Body Fluids And Tissues
07. Malignant Melanoma Disorder By Excisional Biopsy
08. Diagnostic Statistical Mental Disorders
09. Visual Representations Of General Pathology
10. Coagulative Necrosis
11. Mass Chromatography
12. Molecular Pathological Epidemiology Of Colorectal Neoplasia
13. Distinguishing Between Validuty And Utility Of Psychiatric Diagoses
14. Nonculture Molecular Techniques For Diagnosis Of Bacterial Infections
15. Brachio Proctic Defloration In Septic Atrophy
16. Tumorous Parenchyma Of Red Corpuscles
17. Running Through The Blood (Fear Of God)
18. Dark Pathways Of Specific Pathogens And Mental Disorders
19. Cellular Destruction Under The Eyes Of The Cytopatholgist
20. Partial Remains Under Post-Mortem Examination
21. Putrid Emphysema In Hypodermic Tissue
22. Fusing Symblepharon
23. A Dive In The Primordical Swamp Of Human Putrefaction
24. Cringe In Repulsion
25. Examination Of Reeking Putrifying Organs, Tissues, Body Fluids
26. Principles Of Pathology
27. Six Distinctive Morphological Patterns Of Necrosis
28. Ciotus Analis And Defloration
29. Coagulative Myocytolysis Degeneration Of The Myocardium
30. A Specific Pattern Of Irreversible Fibrinoid Necrosis
31. In Myocardial Infarction
32. Disruption Of Partial Adipocerous Derma
33. Analyzing The Clinical Adnormalities Of Rigor Mortis
******************************
Total playing time: 21:50



[more=Technical info]
Input File: 01. Hematopoietic System Tissue And Lymphoid Fail.mp3
Channels : 2
Sample Rate : 44100
Precision : 16-bit
Duration : 00:02:07.23 = 5610667 samples = 9541.95 CDDA sectors
File Size : 5.44M
Bit Rate : 342k
Sample Encoding: MPEG audio (layer I, II or III)
Comments :
Title=Hematopoietic System Tissue And Lymphoid Fail
Artist=Last Days of Humanity
Album=Horrific Compositions of Decomposition
Tracknumber=01
Year=2021
Genre=Gore Fucking Grind

[/more]

Register

Register
(45) aa144aa, abob, alikkon, andreikun, as71, atavist, BERZERK, biroutios, Boozer, bowelled, chipsgott, DarkHorde, deadterror, gav-gafi, grimoir, heinz88, Hell_Is_Here, infiltrator, Jackyl, jollo, K-61082, kimkayoung, lordbathor, lucifix, Metalass, mondlicht, nikolay81, Olethros, Pinhead666, randumbum, Reverend, ripper33, SadistikSlayer, sludge666, smes, spazm, sperminator, stabilizator, trabantfan, Tular, vyacheslav, wgs73, wreak, WX419, Zhelezjaka,
Feb 2 2021, 20:15:39 Visions From Beyond - Eternally Bound, Whipped By Time [ep] (2021)
Криво и уныло
(1) AHBAnep,
Jan 30 2021, 13:24:13 Mpora - Mask Selection (2021)
Безыдейная и бесталанная серость
(1) Metalass,
Jan 27 2021, 17:12:55 Throne Ov Blood - Corrupted By Darkness (2017)
Register
(1) varlam4,

157 Pages V   1 2 3 > » 
- Lo-Fi Version Support form
Copyrights and abuse reports form
Time is now: 6th August 2021 - 04:24:20