Welcome Guest ( Log In | Register )

История благодарностей участнику cesar ::: Спасибо сказали: 10198 раз(а)
Дата поста: В теме: За сообщение: Спасибо сказали:
Yesterday, 19:40:34 Альбом 2007 года в жанре technical / progressive death. Финал
Sadist прямо в фаворе, а я вот помню, что альбом мне этот не зашёл в то время hmm.gif
Вот его точно надо внимательно расслушать
(1) Emm Human,
Apr 27 2021, 18:42:39 Fleshtorture - Grotesca Doctrina De La Perversidad (2021)
Отличная вещица!
(1) Samaritianin,
Apr 27 2021, 17:47:29 Scaffold - Years Of Decadence (2019)
metaler.gif

Register
(1) wanderer73,
Apr 26 2021, 15:24:25 Frog Mallet - Dissection By Amphibian (2021)
В целом всё типично, есть вязкие места и разрывы темпа, ну и вообще всё не на высоких скоростях, хотя трещотка бочек случается. Можно пройти мимо этих "жаболюбов", потери не будет.
(1) AHBAnep,
Apr 23 2021, 07:48:23 Hideous Divinity - Lv-426 [ep] (2021)


*Artist: Hideous Divinity
*Album: Lv-426 [ep]
*Year: 2021
*Genre: Technical Brutal Death Metal
*Country: Italy
*Format: mp3@CBR320kbps
*Size: 38MB

Tracklist:
1. Acheron, Stream of Woe
2. Chestburst
3. Delirium Trigger (Coheed and Cambria cover)
******************************
Total playing time: 16:14



[more=Technical info]
Input File: 02 - Chestburst.mp3
Channels : 2
Sample Rate : 44100
Precision : 16-bit
Duration : 00:04:01.00 = 10628100 samples = 18075 CDDA sectors
File Size : 9.81M
Bit Rate : 326k
Sample Encoding: MPEG audio (layer I, II or III)
Comments :
Title=Chestburst
Artist=Hideous Divinity
Album=LV-426
Tracknumber=2
Year=2021-23-04

[/more]

Register
(20) ALEXSATHANAS, BERZERK, chipsgott, EvilSpirit, garml2, Golfzilla, infiltrator, kimkayoung, Lux, Marek, martintrue, Metalass, Olethros, ripper33, Skyggedans, smes, Spork, tschunioronbeer, vyacheslav, yuratroll,
Apr 22 2021, 20:23:24 Hideous Divinity - Lv-426 [ep] (2021)


*Artist: Hideous Divinity
*Album: Lv-426 [ep]
*Year: 2021
*Genre: Technical Brutal Death Metal
*Country: Italy
*Format: mp3@CBR320kbps
*Size: 38MB

Tracklist:
1. Acheron, Stream of Woe
2. Chestburst
3. Delirium Trigger (Coheed and Cambria cover)
******************************
Total playing time: 16:14



[more=Extended info]Release date: 23/04/2021[/more]

[more=Technical info]
Input File: 02 - Chestburst.mp3
Channels : 2
Sample Rate : 44100
Precision : 16-bit
Duration : 00:04:01.00 = 10628100 samples = 18075 CDDA sectors
File Size : 9.81M
Bit Rate : 326k
Sample Encoding: MPEG audio (layer I, II or III)
Comments :
Title=Chestburst
Artist=Hideous Divinity
Album=LV-426
Tracknumber=2
Year=2021-23-04

[/more]

Register
(2) kimkayoung, KJ111,
Apr 22 2021, 19:31:02 Fates Warning - Long Day Good Night (2020)
С каждым разом залипал в альбом всё больше и больше.
А с первой прослушки особенно не впечатлился.
Хороший.
(1) Exorcist,
Apr 14 2021, 16:53:37 The Offspring - Let The Bad Times Roll (2021)
Пост-ковидные страхи...

[youtube]J6vpedfGPwY[/youtube]
(2) infiltrator, Victim of fate,
Apr 5 2021, 19:01:38 Withering Reign - Under The Bleeding Sun (2021)
ЦИТАТА(Old Vyaine @ Mar 29 2021, 20:56:42) *
Более чем средне. Как там говорится... а! Третьесорт!™

Старик, да он везде! Везде, где ходит DenisKov crazy.gif
(1) Old Vyaine,
Mar 26 2021, 19:02:36 Pissdeads - Весна [single] (2021)
Абстрактный минимализм crazy.gif
И трек и картинка crazy.gif crazy.gif
(2) infiltrator, Vitald,
Mar 1 2021, 10:10:30 Dawn Of Azazel - Sedition (2006)
320

Register
(3) BuckSatanII, Corpuscul, sacramentary,
Mar 1 2021, 07:17:08 Homizide - Impalement Fest (2020)


*Artist: Homizide
*Album: Impalement Fest
*Year: 2020
*Genre: Death Metal
*Country: Spain
*Format: mp3@CBR320kbps
*Size: 79MB

Tracklist:
Intro
100000 cadáveres
White Death
The Awakening
Nadando en hormigón
Impalement Fest
In a Cavern Throne
Cannibal Drug
Por un puñado de huesos
******************************
Total playing time: 34:07



[more=Technical info]
Input File: 2.100000 cadáveres.mp3
Channels : 2
Sample Rate : 44100
Precision : 16-bit
Duration : 00:04:36.57 = 12196869 samples = 20743 CDDA sectors
File Size : 11.2M
Bit Rate : 324k
Sample Encoding: MPEG audio (layer I, II or III)
Comments :
Title=100000 Cadáveres
Artist=Homizide
Album=Impalement Fest
Tracknumber=2/9
Year=2020-00-00
Genre=Death Metal

[/more]

Register
(11) atavist, infiltrator, Olethros, scorpionmk, Taakeferd, VALERY, Vladimir, vyacheslav, wanderer73, wreak, Yngwarr,
Feb 27 2021, 15:59:28 Upon The Altar - Absid Ab Ordine Luminis (2021)
Сумбурно и хаотично, крупно-рубленными кусками!
(1) Occultas,
Feb 26 2021, 11:48:51 Last Days Of Humanity - Horrific Compositions Of Decomposition (2021)


*Artist: Last Days Of Humanity
*Album: Horrific Compositions Of Decomposition
*Year: 2021
*Genre: Grindcore/Goregrind
*Country: Netherlands
*Format: mp3@CBR320kbps
*Size: 61MB

Tracklist:
01. Hematopoietic System Tissue And Lymphoid Fail
02. Molecular Shutdown Of The Hematopoietic Cells
03. Within The Putrefying Realms Of Clinical Pathology
04. Structural Alterations Of Morphological Cell Changes From Within
05. Roots Of Pathos 00:51
06. Sickening Analysis Of Reeking Body Fluids And Tissues
07. Malignant Melanoma Disorder By Excisional Biopsy
08. Diagnostic Statistical Mental Disorders
09. Visual Representations Of General Pathology
10. Coagulative Necrosis
11. Mass Chromatography
12. Molecular Pathological Epidemiology Of Colorectal Neoplasia
13. Distinguishing Between Validuty And Utility Of Psychiatric Diagoses
14. Nonculture Molecular Techniques For Diagnosis Of Bacterial Infections
15. Brachio Proctic Defloration In Septic Atrophy
16. Tumorous Parenchyma Of Red Corpuscles
17. Running Through The Blood (Fear Of God)
18. Dark Pathways Of Specific Pathogens And Mental Disorders
19. Cellular Destruction Under The Eyes Of The Cytopatholgist
20. Partial Remains Under Post-Mortem Examination
21. Putrid Emphysema In Hypodermic Tissue
22. Fusing Symblepharon
23. A Dive In The Primordical Swamp Of Human Putrefaction
24. Cringe In Repulsion
25. Examination Of Reeking Putrifying Organs, Tissues, Body Fluids
26. Principles Of Pathology
27. Six Distinctive Morphological Patterns Of Necrosis
28. Ciotus Analis And Defloration
29. Coagulative Myocytolysis Degeneration Of The Myocardium
30. A Specific Pattern Of Irreversible Fibrinoid Necrosis
31. In Myocardial Infarction
32. Disruption Of Partial Adipocerous Derma
33. Analyzing The Clinical Adnormalities Of Rigor Mortis
******************************
Total playing time: 21:50



[more=Technical info]
Input File: 01. Hematopoietic System Tissue And Lymphoid Fail.mp3
Channels : 2
Sample Rate : 44100
Precision : 16-bit
Duration : 00:02:07.23 = 5610667 samples = 9541.95 CDDA sectors
File Size : 5.44M
Bit Rate : 342k
Sample Encoding: MPEG audio (layer I, II or III)
Comments :
Title=Hematopoietic System Tissue And Lymphoid Fail
Artist=Last Days of Humanity
Album=Horrific Compositions of Decomposition
Tracknumber=01
Year=2021
Genre=Gore Fucking Grind

[/more]

Register

Register
(45) aa144aa, abob, alikkon, andreikun, as71, atavist, BERZERK, biroutios, Boozer, bowelled, chipsgott, DarkHorde, deadterror, gav-gafi, grimoir, heinz88, Hell_Is_Here, infiltrator, Jackyl, jollo, K-61082, kimkayoung, lordbathor, lucifix, Metalass, mondlicht, nikolay81, Olethros, Pinhead666, randumbum, Reverend, ripper33, SadistikSlayer, sludge666, smes, spazm, sperminator, stabilizator, trabantfan, Tular, vyacheslav, wgs73, wreak, WX419, Zhelezjaka,
Feb 2 2021, 20:15:39 Visions From Beyond - Eternally Bound, Whipped By Time [ep] (2021)
Криво и уныло
(1) AHBAnep,
Jan 30 2021, 13:24:13 Mpora - Mask Selection (2021)
Безыдейная и бесталанная серость
(1) Metalass,
Jan 27 2021, 17:12:55 Throne Ov Blood - Corrupted By Darkness (2017)
Register
(1) varlam4,
Jan 25 2021, 18:57:40 Anal Stabwound - The Visceral Sovereign (2021)
В рамках жанра совсем неплохо, хотя кто-то привычно скажет, что всё это уже было и прочую тоску...
(2) infiltrator, StabWound,
Jan 25 2021, 18:42:39 Manifesting Obscenity - Mahapralaya (2021)
Слушал утром по дороге на работу.
На обратном пути были одножанровые пиндосы Anal Stabwound
Мощно наваливают. Без каких-либо изысков, но хорошо!
Наши более хаотично звучат, больше слэма. Американцы чище. Но понравились обе банды
(3) infiltrator, Occultas, StabWound,
Jan 23 2021, 19:52:51 Evil Dream - Arctic (2021)
Да, это гр[мат->бан]ый стыд и ужас!
(1) Metalass,
Jan 20 2021, 19:16:25 Д.и.в. - Ретроспектива [compilation] (2021)
Ленивый Лысый! Надёргал треков со всех альбомов (не всех самых жирных причём), хоть бы перезаписал наново, а так бесполезный сборник получается. Ну совсем!

ЦИТАТА(Slam91 @ Jan 20 2021, 20:51:46) *
Что понравится по обложке. 25.gif

Да не, пусть попырит интро 1 трека и два куска по 10 сек из 3 и 4. Это же самый чёткий метод 80-го по проникновению в альбом и вообще в банду! По обложке он огульно ток определяет, а тут уж точность нужна. Ибо если он произносит на своём жаргоне "фашики", значит про какую-то обложку их он уже знает))
(1) Old Vyaine,
Jan 20 2021, 17:50:45 Asphyx - Necroceros (2021)
Мой самый любимый God Cries, где также нет никого из нынешних музыкантов. Однако ДНК банды всё таки прежнее. После "оживления" они жгут не хуже прошлых лет. Дело ли в харизме и глотке несгибаемого Мартина, или ещё в чём, не знаю. И на их концерте в Вольте в октябре 2014 было более чем жарко! Отцы живы, в любом случае!
(6) hammer, infiltrator, smes, spazm, STN, Strangler,
Jan 20 2021, 17:22:15 Alkonost - Ведомые Ветром (2021)
Хорошая банда.
И альбомы приятные, и живьём звучат и смотрятся отлично!
(4) Evilded, infiltrator, smes, Сварог Барг,
Jan 20 2021, 17:08:26 Asphyx - Necroceros (2021)
Долгожданный... banana.gif
(4) hammer, infiltrator, spazm, Typhoid,
Jan 16 2021, 20:01:47 Gatecreeper - An Unexpected Reality [ep] (2021)
Шикарно!!

(1) Samaritianin,

156 Pages V   1 2 3 > » 
- Lo-Fi Version Support form
Copyrights and abuse reports form
Time is now: 13th May 2021 - 10:18:25