Welcome Guest ( Log In | Register )

История благодарностей участнику Proteus_666 ::: Спасибо сказали: 104836 раз(а)
Дата поста: В теме: За сообщение: Спасибо сказали:
Jul 23 2021, 10:22:55 Maleficarum - Unblessed Vol. 2 [compilation] (2020)


*Artist: Maleficarum
*Album: Unblessed Vol. 2 [compilation]
*Year: 2020
*Genre: Death Metal
*Country: Italy
*Format: mp3@CBR320kbps
*Size: 140MB

Tracklist:
1. Maleficio - Realm Of Blasphemy 06:04
2. Mean Symbolic Holiness 04:13
3. Anthropophagous 03:45
4. Unblessed 04:19
5. Into The Labyrinth 01:38
6. Circle Of The Afflicted 05:05
7. Slough Of Despair 04:30
8. Outro 01:13
9. Maleficarum 05:06
10. Unblessed 05:14
11. Always Suffering 06:18
12. De Vermis Mysteriis 03:43
13. The Calling 05:03
14. Anthropophagous 03:33
15. Into The Labyrinth 01:33
16. Circle Of The Afflicted 04:55
17. Under The Cross 05:08
******************************
Total playing time: 1:11:20



[more=Extended info]Vol. 2 features their "Maleficarum" Demo 1997, and "Under the Cross" Full Length 2002.
Cover art by Ironworx.
Thanx uaforever_ua for this album.
[/more]

[more=Technical info]
Input File: 09-Maleficarum.mp3
Channels : 2
Sample Rate : 44100
Precision : 16-bit
Duration : 00:05:06.29 = 13507565 samples = 22972 CDDA sectors
File Size : 12.3M
Bit Rate : 320k
Sample Encoding: MPEG audio (layer I, II or III)
Comments :
Title=Maleficarum
Artist=Maleficarum
Album=Unblessed Vol. 2
Tracknumber=09
Year=2020
Genre=Death Metal

[/more]

Register
(10) AHBAnep, andreikun, infiltrator, infozahist, Olethros, smysl, stumpheavyrock, supremo, Taakeferd, VALERY,
Jul 23 2021, 10:09:44 Critical Damage - Critical Damage (2000)


*Artist: Critical Damage
*Album: Critical Damage
*Year: 2000
*Genre: Thrash Metal
*Country: Italy
*Format: mp3@CBR192kbps
*Size: 50MB

Tracklist:
1. The Words You Want To Hear 04:25
2. Getting Stronger 05:18
3. Power Over 04:09
4. Clear 07:02
5. Liar For Hire 04:46
6. Hollow Swallowed 04:31
7. Critical Damage 03:17
8. The End Of The Story 03:12
******************************
Total playing time: 36:40

[more=Technical info]
Input File: 01-The Words You Want To Hear.mp3
Channels : 2
Sample Rate : 44100
Precision : 16-bit
Duration : 00:04:25.65 = 11715253 samples = 19923.9 CDDA sectors
File Size : 6.38M
Bit Rate : 192k
Sample Encoding: MPEG audio (layer I, II or III)
Comments :
Title=The Words You Want To Hear
Artist=Critical Damage (Ita)
Album=Critical Damage
Tracknumber=01
Year=2000
Genre=Thrash Metal

[/more]

Register
(8) boby9052, gwar, infiltrator, Olethros, Reverend, stumpheavyrock, Svafrlami, thenecromancer,
Jul 23 2021, 09:43:01 Silent - Silent [demo] (1994)


*Artist: Silent
*Album: Silent [demo]
*Year: 1994
*Genre: Thrash Metal/Hardcore
*Country: Norway
*Format: mp3@CBR128kbps
*Size: 31MB

Tracklist:
1. Mr. Winter 06:48
2. Knowledge About Nothing 07:35
3. Could 04:09
4. The Clear Ice 06:48
5. How Much Further 05:19
6. Prevent 05:04
******************************
Total playing time: 35:43

[more=Extended info]Recorded Jinglefabrikken, July 1994.[/more]

[more=Technical info]
Input File: 01-Mr. Winter.mp3
Channels : 2
Sample Rate : 44100
Precision : 16-bit
Duration : 00:06:20.18 = 16765806 samples = 28513.3 CDDA sectors
File Size : 6.08M
Bit Rate : 128k
Sample Encoding: MPEG audio (layer I, II or III)
Comments :
Title=Mr. Winter
Artist=Silent (Nor)
Album=Silent (Demo)
Tracknumber=01
Year=1994
Genre=Thrash Metal

[/more]

Register
(5) infiltrator, Olethros, Reverend, stumpheavyrock, Svafrlami,
Jul 23 2021, 09:28:49 Maleficarum - Unblessed Vol. 1 [compilation] (2016)
flac:
Register
(1) thenecromancer,
Jul 22 2021, 23:05:25 Phobia - Slaughterhouse Tapes [compilation] (2021)


*Artist: Phobia
*Album: Slaughterhouse Tapes [compilation]
*Year: 2021
*Genre: Death Metal
*Country: Norway
*Format: mp3@CBR320kbps
*Size: 78MB

Tracklist:
1. Intro 00:45
2. Fog Of Uncertainty 03:44
3. The Last Settlement Of Ragnarok 05:44
4. Feverish Convulsions 05:13
5. Frame Of Mind (studio) 03:22
6. Thy Rottening Flesh (rehearsal) 02:46
7. The Last Settlement Of Ragnarok (rehearsal) 04:24
8. When The Jews Return To Zion (rehearsal) 03:36
9. Frame Of Mind (rehearsal) 03:17
10. Feverish Convulsions (Rehearsal) 04:42
******************************
Total playing time: 37:33



[more=Extended info]Tracks 1-4: Feverish Convusions Demo (June1991)
Tracks 5-7: The Last Settlement Of Ragnarok Demo/ Rehearsal (March 1991)
Track 8: Rehearsal (December 1990)
Track 9: Rehearsal (January 1991)
Track 10: Rehearsal (May 1991)
Tracks 8-10 are previously unreleased

Thanx uaforever_ua for this stuff!
[/more]

[more=Technical info]
Input File: 02-Fog Of Uncertainty.mp3
Channels : 2
Sample Rate : 44100
Precision : 16-bit
Duration : 00:03:45.97 = 9965101 samples = 16947.5 CDDA sectors
File Size : 9.04M
Bit Rate : 320k
Sample Encoding: MPEG audio (layer I, II or III)
Comments :
Title=Fog Of Uncertainty
Artist=Phobia
Album=Slaughterhouse Tapes
Tracknumber=02
Year=2021
Genre=Death Metal

[/more]

Register
(4) infiltrator, infozahist, Olethros, stumpheavyrock,
Jul 22 2021, 22:55:49 Morbus - Live In Space [live] (2000)


*Artist: Morbus
*Album: Live In Space [live]
*Year: 2000
*Genre: Death Metal
*Country: Italy
*Format: mp3@CBR192kbps
*Size: 49MB

Tracklist:
1. From The Sky... 02:48
2. Afterglows 05:43
3. L.M.D. 04:49
4. Hope Of Life 03:19
5. Abduction 04:12
6. Infinitesimality 03:45
7. Under Two Suns 03:29
8. Devoid Of Soul 02:40
9. Sin Alma 02:40
10. § 02:18
******************************
Total playing time: 35:43

[more=Extended info]Tracks 1 to 5 recorded live in September; Tuesday 8th 1998 at the 3 days festival called "Energia Rock" in Maarmirolo (Mantua, Italy) with the old line-up.
Tracks 6 to 8 recorded live in July, Saturday 24th 1999 at the 2 days Metal Festival called "Emilian Revenge" in San Martino (Reggio Emilia, Italy) with the new members.
Tracks 9 & 10 are Bonus Tracks.
[/more]

[more=Technical info]
Input File: 01-From the Sky....mp3
Channels : 2
Sample Rate : 44100
Precision : 16-bit
Duration : 00:02:47.19 = 7373255 samples = 12539.5 CDDA sectors
File Size : 4.01M
Bit Rate : 192k
Sample Encoding: MPEG audio (layer I, II or III)
Comments :
Title=From the Sky...
Artist=Morbus (Ita)
Album=Live In Space
Tracknumber=01
Year=2000
Genre=Death Metal

[/more]

Register
(5) infiltrator, Olethros, Reverend, stumpheavyrock, Svafrlami,
Jul 18 2021, 14:08:08 Damnasty - Recorded Live Demo (Practice Studio) [demo] (1993)


*Artist: Damnasty
*Album: Recorded Live Demo (Practice Studio) [demo]
*Year: 1993
*Genre: Thrash Metal
*Country: United States
*Format: mp3@CBR192kbps
*Size: 37MB

Tracklist:
1. S E X X 04:38
2. Breakfast In Hell 04:07
3. Prossesor 05:26
4. Your Other Face 04:44
5. Shotgun Wedding 04:56
6. Get Out Of My Face 03:47
******************************
Total playing time: 27:38



[more=Extended info]Band from San Jose, California. Recorded in 1993. Formally released in 2013.[/more]

[more=Technical info]
Input File: 02-Breakfast In Hell.mp3
Channels : 2
Sample Rate : 44100
Precision : 16-bit
Duration : 00:04:07.71 = 10923791 samples = 18577.9 CDDA sectors
File Size : 5.95M
Bit Rate : 192k
Sample Encoding: MPEG audio (layer I, II or III)
Comments :
Title=Breakfast In Hell
Artist=Damnasty (US, CA)
Album=Recorded Live Demo (Practice Studio)
Tracknumber=02
Year=1993-18-07
Genre=Thrash Metal

[/more]

Register
(9) after21allD, gwar, infiltrator, metala, Olethros, Reverend, stumpheavyrock, Svafrlami, wgs73,
Jul 18 2021, 13:56:40 Damnasty - Demo 1992 [demo] (1992)


*Artist: Damnasty
*Album: Demo 1992 [demo]
*Year: 1992
*Genre: Thrash/Heavy Metal
*Country: United States
*Format: mp3@CBR192kbps
*Size: 38MB

Tracklist:
1. Mission Possible 03:50
2. Victim Of Jack 04:38
3. Excruciant 09:50
4. Echoes 02:43
5. Don't Get Too Close 02:20
6. Three Sided Metal 04:22
******************************
Total playing time: 27:43



[more=Extended info]Band from San Jose, California.[/more]

[more=Technical info]
Input File: 01-Mission Possible.mp3
Channels : 2
Sample Rate : 44100
Precision : 16-bit
Duration : 00:03:50.67 = 10172679 samples = 17300.5 CDDA sectors
File Size : 5.54M
Bit Rate : 192k
Sample Encoding: MPEG audio (layer I, II or III)
Comments :
Title=Mission Possible
Artist=Damnasty (US, CA)
Album=Demo 1992
Tracknumber=01
Year=1992-18-07
Genre=Thrash Metal

[/more]

Register
(11) after21allD, gwar, infiltrator, metala, Olethros, Reverend, stumpheavyrock, Svafrlami, traitor666, wgs73, Z28517,
Jul 18 2021, 13:39:33 Damnasty - Demo 1989 [demo] (1989)


*Artist: Damnasty
*Album: Demo 1989 [demo]
*Year: 1989
*Genre: Thrash/Heavy Metal
*Country: United States
*Format: mp3@CBR192kbps
*Size: 16MB

Tracklist:
1. Rapscallion 04:37
2. Don't Get Too Close 02:18
3. When Darkness Falls 04:49
******************************
Total playing time: 11:44



[more=Extended info]Band from San Jose, California.[/more]

[more=Technical info]
Input File: 01-Rapscallion.mp3
Channels : 2
Sample Rate : 44100
Precision : 16-bit
Duration : 00:04:36.89 = 12210629 samples = 20766.4 CDDA sectors
File Size : 6.65M
Bit Rate : 192k
Sample Encoding: MPEG audio (layer I, II or III)
Comments :
Title=Rapscallion
Artist=Damnasty (US, CA)
Album=Demo 1989
Tracknumber=01
Year=1989-18-07
Genre=Thrash Metal

[/more]

Register
(11) after21allD, gwar, infiltrator, metala, Olethros, Reverend, stumpheavyrock, Svafrlami, traitor666, wgs73, Z28517,
Jul 18 2021, 13:28:34 Sinister Sam - Catfish Gumbo [demo] (1991)


*Artist: Sinister Sam
*Album: Catfish Gumbo [demo]
*Year: 1991
*Genre: Crossover/Thrash Metal/Funk
*Country: United States
*Format: mp3@CBR128kbps
*Size: 17MB

Tracklist:
1. Work 03:32
2. Fresno 04:26
3. Lecter 05:16
4. Doctor McCoy 04:16
5. Nice To Meet You 01:04
******************************
Total playing time: 18:34



[more=Extended info]Band from San Jose, California.
Someone says "it sounds like mix of Frank Zappa & Pantera".
[/more]

[more=Technical info]
Input File: 01-Work.mp3
Channels : 2
Sample Rate : 44100
Precision : 16-bit
Duration : 00:03:32.19 = 9357755 samples = 15914.5 CDDA sectors
File Size : 3.40M
Bit Rate : 128k
Sample Encoding: MPEG audio (layer I, II or III)
Comments :
Title=Work
Artist=Sinister Sam (US, CA)
Album=Catfish Gumbo (Demo)
Tracknumber=01
Year=1991
Genre=Metal

[/more]

Register
(10) chipsgott, gwar, infiltrator, metala, Olethros, Reverend, stumpheavyrock, Svafrlami, wgs73, Z28517,
Jul 15 2021, 14:18:17 Sabotage - Fatal Disperation [demo] (1993)


*Artist: Sabotage
*Album: Fatal Disperation [demo]
*Year: 1993
*Genre: Thrash Metal
*Country: Russian Federation
*Format: mp3@CBR320kbps
*Size: 22MB

Tracklist:
1. Life 03:34
2. Fatacy 03:51
3. Extreme 03:12
******************************
Total playing time: 10:37

[more=Extended info]Band from Angarsk (the land that is famous of Popkov & schizo band Ptitsy).
Thanks AIK445 for info!
[/more]

[more=Technical info]
Input File: 01-Life.mp3
Channels : 2
Sample Rate : 44100
Precision : 16-bit
Duration : 00:03:34.13 = 9443221 samples = 16059.9 CDDA sectors
File Size : 8.57M
Bit Rate : 320k
Sample Encoding: MPEG audio (layer I, II or III)
Comments :
Title=Life
Artist=Sabotage (Rus, Ангарск)
Album=Fatal Disperation (Demo)
Tracknumber=01
Year=1993
Genre=Thrash Metal

[/more]

Register
(10) after21allD, caro, gwar, infiltrator, metala, Olethros, stumpheavyrock, Svafrlami, thenecromancer, wgs73,
Jul 15 2021, 14:08:27 Nosferatu - Re-Animator [demo] (1994)


*Artist: Nosferatu
*Album: Re-Animator [demo]
*Year: 1994
*Genre: Death/Thrash Metal
*Country: Russian Federation
*Format: mp3@CBR320kbps
*Size: 62MB

Tracklist:
1. The Other Gods 04:21
2. Avatar 05:16
3. Assault From The Past 05:21
4. Re-Animator 06:36
5. Thirsty Roots Of Fear 05:10
******************************
Total playing time: 26:44

[more=Extended info]Band from Krasnodar.
Thanx AIK445 for info!
[/more]

[more=Technical info]
Input File: 01-The Other Gods.mp3
Channels : 2
Sample Rate : 44100
Precision : 16-bit
Duration : 00:04:21.56 = 11534576 samples = 19616.6 CDDA sectors
File Size : 10.5M
Bit Rate : 320k
Sample Encoding: MPEG audio (layer I, II or III)
Comments :
Title=The Other Gods
Artist=Nosferatu
Album=Re-Animator (Demo)
Tracknumber=01
Year=1994
Genre=Metal

[/more]

Register
(15) after21allD, caro, chipsgott, infiltrator, metala, METALHUNTER, Olethros, smysl, Spork, stumpheavyrock, Svafrlami, Taakeferd, thenecromancer, wgs73, Z28517,
Jul 14 2021, 14:34:01 Xantossa - Godforsaken [demo] (1996)
new link:
Register
(1) wreak,
Jul 14 2021, 14:16:35 Ghostroom - Depths (2020)


*Artist: Ghostroom
*Album: Depths
*Year: 2020
*Genre: Gothic/Death Metal
*Country: United States
*Format: mp3@CBR320kbps
*Size: 82MB

Tracklist:
1. Depths 02:43
2. The Dreamers Below The Sea 06:10
3. The Underwater Garden (Septicflesh cover) 07:07
4. Rain Of Solitude 06:11
5. And The Raven Gazed With Hunger 07:19
6. Moonless 06:13
7. Tragedy At The Lighthouse 04:37
8. From The Flesh To The Bones 06:00
******************************
Total playing time: 46:20




[more=Extended info]One man band originally from Cuba, now from Kentucky, USA (thanx uaforever_ua for this band).[/more]

[more=Technical info]
Input File: 02-The Dreamers Below the Sea.mp3
Channels : 2
Sample Rate : 44100
Precision : 16-bit
Duration : 00:06:10.81 = 16352501 samples = 27810.4 CDDA sectors
File Size : 14.9M
Bit Rate : 321k
Sample Encoding: MPEG audio (layer I, II or III)
Comments :
Title=The Dreamers Below the Sea
Artist=Ghostroom
Album=Depths
Tracknumber=02
Year=2020
Genre=Metal

[/more]

Register
(4) Cartman223, infiltrator, infozahist, Olethros,
Jul 14 2021, 13:55:28 Castle Well - Full Overdrive (2017)


*Artist: Castle Well
*Album: Full Overdrive
*Year: 2017
*Genre: Heavy Metal
*Country: Germany
*Format: mp3@CBR320kbps
*Size: 148MB

Tracklist:
1. Free Metal Nation 03:56
2. Full Overdrive 04:12
3. Light Of The Moon 05:04
4. The Last Shot 05:10
5. Land Of Shame 04:11
6. Big Lady 05:20
7. By My Side 03:30
8. Bloody Halloween 03:44
9. At The Club 03:40
10. All Night 04:15
11. Into The No One's Land 05:00
12. Internal Light 06:40
13. Deliverer 06:24
14. Dirty Girls 03:08
******************************
Total playing time: 1:04:14

[more=Extended info]Thanx quarantine for this post (if I correctly remembered your nick, sorry anyway bro, respect you).[/more]

[more=Technical info]
Input File: 01-Free Metal Nation.mp3
Channels : 2
Sample Rate : 44100
Precision : 16-bit
Duration : 00:03:56.50 = 10429738 samples = 17737.6 CDDA sectors
File Size : 9.91M
Bit Rate : 335k
Sample Encoding: MPEG audio (layer I, II or III)
Comments :
Title=Free Metal Nation
Artist=Castle Well
Album=Full Overdrive
Tracknumber=1/14
Year=2017
Genre=Heavy Metal

[/more]

Register
(12) andreikun, aviacademy, caro, chipsgott, infiltrator, Marek, metala, Olethros, postal67, Rover, sergsazan, stumpheavyrock,
Jul 14 2021, 13:35:36 Xantossa - A Brutal Reunion [live] (2003)


*Artist: Xantossa
*Album: A Brutal Reunion [live]
*Year: 2003
*Genre: Death Metal
*Country: Netherlands
*Format: mp3@CBR192kbps
*Size: 83MB

Tracklist:
1. Blind Me 03:33
2. Deny 04:23
3. Godforsaken 03:42
4. Imbedded Mind 05:29
5. Masses To Ashes 05:08
6. Angels Hands 04:36
7. Serenity 03:27
8. Five Minutes Drive 04:08
9. Lemon Tea 04:43
10. The Hunters Trophy 04:06
11. Gutted With Bare Teeth 03:41
12. Cosmic Cemetery 03:19
13. Speech Rob / Lost Sight 03:49
14. Feces Fed Through The Mouth 02:27
15. God Of Emptiness (Morbid Angel cover) 04:09
******************************
Total playing time: 1:00:40

[more=Technical info]
Input File: 02-Deny.mp3
Channels : 2
Sample Rate : 44100
Precision : 16-bit
Duration : 00:04:23.43 = 11617351 samples = 19757.4 CDDA sectors
File Size : 6.32M
Bit Rate : 192k
Sample Encoding: MPEG audio (layer I, II or III)
Comments :
Title=Deny
Artist=Xantossa (Hol)
Album=A Brutal Reunion
Tracknumber=02
Year=2003
Genre=Death Metal

[/more]

Register
(4) infiltrator, Olethros, stumpheavyrock, Svafrlami,
Jul 14 2021, 13:26:53 Xantossa - Cosmic Cemetery [ep] (2002)


*Artist: Xantossa
*Album: Cosmic Cemetery [ep]
*Year: 2002
*Genre: Death Metal
*Country: Netherlands
*Format: mp3@CBR192kbps
*Size: 14MB

Tracklist:
1. The Hunters Trophy 03:52
2. Gutted With Bare Teeths 03:31
3. Cosmic Cemetery 02:59
******************************
Total playing time: 10:22

[more=Technical info]
Input File: 01-The Hunters Trophy.mp3
Channels : 2
Sample Rate : 44100
Precision : 16-bit
Duration : 00:03:52.89 = 10270581 samples = 17467 CDDA sectors
File Size : 5.59M
Bit Rate : 192k
Sample Encoding: MPEG audio (layer I, II or III)
Comments :
Title=The Hunters Trophy
Artist=Xantossa (Hol)
Album=Cosmic Cemetery (EP)
Tracknumber=01
Year=2002
Genre=Death Metal

[/more]

Register
(5) infiltrator, Olethros, stumpheavyrock, Svafrlami, vyacheslav,
Jul 14 2021, 13:19:40 Imperator - Ceremonies From Beyond Time [compilation] (2019)


*Artist: Imperator
*Album: Ceremonies From Beyond Time [compilation]
*Year: 2019
*Genre: Death Metal
*Country: Poland
*Format: mp3@CBR320kbps
*Size: 79MB

Tracklist:
1. Abhorrence (live) 04:09
2. Necronomicon - Intro (live) 01:08
3. Necronomicon (live) 05:17
4. Defunct Dimension (live) 04:26
5. External Extinction (live) 04:41
6. Ancient Race (live) 06:44
7. Bariel Solo Demo 1987 01:13
8. Bariel Solo Demo 1987 02:58
9. Bariel Solo Demo 1987 13:13
******************************
Total playing time: 43:49



[more=Extended info]Tracks 1- 6 "Live in Tarnów 6th December 1991.
Tracks 7-9 are from solo demo by Bariel (solo project of their guitar/vox-man).
Released by Thrashing Madness Productions.
Many thanx uaforever_ua for this stuff!
[/more]

[more=Technical info]
Input File: 01-Abhorrence.mp3
Channels : 2
Sample Rate : 44100
Precision : 16-bit
Duration : 00:04:09.61 = 11007669 samples = 18720.5 CDDA sectors
File Size : 9.99M
Bit Rate : 320k
Sample Encoding: MPEG audio (layer I, II or III)
Comments :
Title=Abhorrence
Artist=Imperator
Album=Ceremonies From Beyond Time
Tracknumber=01
Year=2019
Genre=Death Metal

[/more]

Register
(20) AHBAnep, Antichrist, cancer1974, caro, chipsgott, heinz88, infiltrator, Kaotik, NathanSS, Olethros, Reverend, spazm, stumpheavyrock, supremo, Taakeferd, VALERY, vyacheslav, Wail, wanderer73, wtk.412,
Jul 14 2021, 12:57:41 Tomb Of Disease - Silent Fields [ep] (1996)


*Artist: Tomb Of Disease
*Album: Silent Fields [ep]
*Year: 1996
*Genre: Death Metal
*Country: Germany
*Format: mp3@CBR192kbps
*Size: 29MB

Tracklist:
1. Seasons Of Hate 05:09
2. No Respect 04:32
3. My Fear 05:08
4. Eternal Night 04:51
5. Stench Of Death 01:59
******************************
Total playing time: 21:39

[more=Technical info]
Input File: 01-Seasons of Hate.mp3
Channels : 2
Sample Rate : 44100
Precision : 16-bit
Duration : 00:05:09.28 = 13639160 samples = 23195.9 CDDA sectors
File Size : 7.42M
Bit Rate : 192k
Sample Encoding: MPEG audio (layer I, II or III)
Comments :
Title=Seasons of Hate
Artist=Tomb of Disease (Ger)
Album=Silent Fields (EP)
Tracknumber=01
Year=1996
Genre=Death Metal

[/more]

Register
(10) craP_cillA, infiltrator, nord6666, Olethros, Reverend, stumpheavyrock, Svafrlami, vyacheslav, wanderer73, Xutun,
Jul 14 2021, 12:48:41 Reincarnated - Grenadier [ep] (2003)


*Artist: Reincarnated
*Album: Grenadier [ep]
*Year: 2003
*Genre: Death Metal
*Country: Germany
*Format: mp3@CBR192kbps
*Size: 24MB

Tracklist:
1. Mindkiller 05:12
2. Against Human Creatures 04:13
3. Grenadier 03:29
4. One Step Closer 05:13
******************************
Total playing time: 18:07

[more=Technical info]
Input File: 01-Mindkiller.mp3
Channels : 2
Sample Rate : 44100
Precision : 16-bit
Duration : 00:05:09.23 = 13636867 samples = 23192 CDDA sectors
File Size : 7.42M
Bit Rate : 192k
Sample Encoding: MPEG audio (layer I, II or III)
Comments :
Title=Mindkiller
Artist=Reincarnated (Ger)
Album=Grenadier (EP)
Tracknumber=01
Year=2003
Genre=Death Metal

[/more]

Register
(8) infiltrator, nord6666, Olethros, Reverend, spazm, Svafrlami, vyacheslav, wanderer73,
Jul 2 2021, 20:04:17 S.I.D.E. - ВоронВикинг [demo] (2000)
new link (74 mb):
Register
(5) gtmercyless, stumpheavyrock, Svafrlami, wreak, Xtohar,
Jul 2 2021, 14:03:55 Xyster - Religion Of Nuclearism [demo] (1987)
new link:
Register
(3) thenecromancer, Xtohar, Z28517,
Jul 2 2021, 14:01:46 Xyster - Overture Of Death [demo] (1987)
new link:
Register
(3) thenecromancer, Xtohar, Z28517,
Jun 30 2021, 13:27:18 Stale Corpse - Sounds Of Prison (2000)
320 kbps (from uaforever_ua):
Register
(1) wreak,
Jun 30 2021, 13:19:10 Capharnaum - Reality Only Fantasized (1997)
320 kbps (from uaforever_ua):
Register
(5) kimkayoung, stumpheavyrock, thenecromancer, troll_swamp, wreak,

552 Pages V   1 2 3 > » 
- Lo-Fi Version Support form
Copyrights and abuse reports form
Time is now: 26th July 2021 - 05:46:17

Состав ювентус 2014 незаменимый игрок в составе ювентуса.