Welcome Guest ( Log In | Register )

История благодарностей участнику Proteus_666 ::: Спасибо сказали: 120456 раз(а)
Дата поста: В теме: За сообщение: Спасибо сказали:
Yesterday, 16:06:09 Perseverance - ...God Giveth [demo] (1991)
1992 demo:
Register
(2) hell_armageddon, stumpheavyrock,
Yesterday, 04:37:12 Necrotomy - Meals In The Morgue [demo] (1991)
new link:
Register
(3) hell_armageddon, thenecromancer, Wail,
Yesterday, 04:34:24 Legion - Blissful Misery [demo] (1994)
new link:
Register
(2) hell_armageddon, thenecromancer,
Yesterday, 04:32:00 Deacon - Death To Posers [demo] (1985)
new link:
Register
(3) Bloodline Christian, thenecromancer, Wail,
Yesterday, 04:13:29 Kilhwch - Kilhwch [demo] (1989)


*Artist: Kilhwch
*Album: Kilhwch [demo]
*Year: 1989
*Genre: Death Metal
*Country: United States
*Format: mp3@CBR192kbps
*Size: 8MB

Tracklist:
1. No Sense 01:56
2. Shit Stains 02:18
3. We Can't Wait 01:43
******************************
Total playing time: 5:57

[more=Extended info]Band from Panama City, Florida.[/more]

[more=Technical info]
Input File: 01-No Sense.mp3
Channels : 2
Sample Rate : 44100
Precision : 16-bit
Duration : 00:01:56.99 = 5159039 samples = 8773.88 CDDA sectors
File Size : 2.81M
Bit Rate : 192k
Sample Encoding: MPEG audio (layer I, II or III)
Comments :
Title=No Sense
Artist=Kilhwch (US, FL)
Album=Kilhwch (Demo)
Tracknumber=01
Year=1989
Genre=Death Metal

[/more]

Register
(6) Grev, hell_armageddon, stumpheavyrock, thenecromancer, Wail, wanderer73,
Yesterday, 04:06:19 Legion - Of One [demo] (2003)


*Artist: Legion
*Album: Of One [demo]
*Year: 2003
*Genre: Death Metal
*Country: United States
*Format: mp3@CBR128kbps
*Size: 28MB

Tracklist:
1. I See 02:50
2. The Change 02:58
3. Blindgods 03:39
4. Rage Of Ages 04:09
5. Forever Bleed 04:45
6. Ruse 03:07
7. By The Furies 03:41
8. Of One 06:07
******************************
Total playing time: 31:16



[more=Extended info]Band from Muncie, Indiana.[/more]

[more=Technical info]
Input File: 01-I See.mp3
Channels : 2
Sample Rate : 44100
Precision : 16-bit
Duration : 00:02:44.73 = 7264373 samples = 12354.4 CDDA sectors
File Size : 2.64M
Bit Rate : 128k
Sample Encoding: MPEG audio (layer I, II or III)
Comments :
Title=I See
Artist=Legion (US, IN)
Album=Of One (Demo)
Tracknumber=01
Year=2003
Genre=Death Metal

[/more]

Register
(4) hell_armageddon, stumpheavyrock, Wail, wanderer73,
Yesterday, 03:34:57 Legion - Lost Dreams [ep] (2005)


*Artist: Legion
*Album: Lost Dreams [ep]
*Year: 2005
*Genre: Death Metal
*Country: Italy
*Format: mp3@CBR192kbps
*Size: 27MB

Tracklist:
1. Only Pain 05:59
2. My Lost Dreams 04:57
3. Memories And Agony 02:57
4. Escape 05:53
******************************
Total playing time: 19:46

[more=Extended info]Mixed at Marbona Studio, Italy.[/more]

[more=Technical info]
Input File: 01-Only Pain.mp3
Channels : 2
Sample Rate : 44100
Precision : 16-bit
Duration : 00:05:59.93 = 15872957 samples = 26994.8 CDDA sectors
File Size : 8.64M
Bit Rate : 192k
Sample Encoding: MPEG audio (layer I, II or III)
Comments :
Title=Only Pain
Artist=Legion (Ita)
Album=Lost Dreams EP
Tracknumber=01
Year=2005
Genre=Death Metal

[/more]

Register
(1) wanderer73,
Yesterday, 03:22:28 Post-Mortem - Mankind Autopsy [ep] (2001)


*Artist: Post-Mortem
*Album: Mankind Autopsy [ep]
*Year: 2001
*Genre: Death Metal
*Country: France
*Format: mp3@CBR192kbps
*Size: 17MB

Tracklist:
1. Umbilical Strangulation 04:19
2. Bacterio Punishment 02:36
3. Horizon Zero 03:42
4. Collective Hanging 01:38
5. Nutritive Sani Broyor 00:07
******************************
Total playing time: 12:22

[more=Technical info]
Input File: 01-Umbilical Strangulation.mp3
Channels : 2
Sample Rate : 44100
Precision : 16-bit
Duration : 00:04:19.80 = 11457180 samples = 19485 CDDA sectors
File Size : 6.24M
Bit Rate : 192k
Sample Encoding: MPEG audio (layer I, II or III)
Comments :
Title=Umbilical Strangulation
Artist=Post-Mortem (Fra)
Album=Mankind Autopsy EP
Tracknumber=01
Year=2001
Genre=Death Metal

[/more]

Register
(4) spazm, stumpheavyrock, Wail, wanderer73,
Yesterday, 02:49:39 Discoresis Temporal - Metallenium Cannibalism [demo] (2001)


*Artist: Discoresis Temporal
*Album: Metallenium Cannibalism [demo]
*Year: 2001
*Genre: Death Metal
*Country: Indonesia
*Format: mp3@CBR192kbps
*Size: 4MB

Tracklist:
1. Metallenium Cannibalism 01:50
2. The Past 01:38
******************************
Total playing time: 3:28

[more=Extended info]Recorded at Natural Studio, 2001.[/more]

[more=Technical info]
Input File: 01-Metallenium Cannibalism.mp3
Channels : 2
Sample Rate : 44100
Precision : 16-bit
Duration : 00:01:49.38 = 4823790 samples = 8203.72 CDDA sectors
File Size : 2.63M
Bit Rate : 192k
Sample Encoding: MPEG audio (layer I, II or III)
Comments :
Title=Metallenium Cannibalism
Artist=Discoresis Temporal (Ind)
Album=Metallenium Cannibalism (Demo)
Tracknumber=01
Year=2001
Genre=Death Metal

[/more]

Register
(2) Wail, wanderer73,
Yesterday, 02:42:21 Tanke - Advertencia [demo] (1996)


*Artist: Tanke
*Album: Advertencia [demo]
*Year: 1996
*Genre: Thrash Metal
*Country: Argentina
*Format: mp3@CBR192kbps
*Size: 34MB

Tracklist:
1. Advertencia 03:13
2. Intrusos 02:37
3. Primer Mundo 04:26
4. Guerrero del Fin 04:01
5. Sin Palabras 03:01
6. Juventud Cansada 01:56
7. Brigadas Metálicas (V8 cover) 02:31
8. Dura Noche 03:42
******************************
Total playing time: 25:27

[more=Extended info]Recorded and mastered on 30 hours between July & August 1996 at Matadero Records, Buenos Aires, Argentina.[/more]

[more=Technical info]
Input File: 01-Advertencia.mp3
Channels : 2
Sample Rate : 44100
Precision : 16-bit
Duration : 00:03:13.60 = 8537936 samples = 14520.3 CDDA sectors
File Size : 4.65M
Bit Rate : 192k
Sample Encoding: MPEG audio (layer I, II or III)
Comments :
Title=Advertencia
Artist=Tanke (Arg)
Album=Advertencia (Demo)
Tracknumber=01
Year=1996
Genre=Thrash Metal

[/more]

Register
(4) hell_armageddon, metala, stumpheavyrock, Wail,
Dec 2 2022, 15:16:19 Antimon - Promo Tape 1 [demo] (1994)
new link:
Register
(3) dimcho0, hell_armageddon, thenecromancer,
Dec 2 2022, 15:13:16 Antimon - Victory Of Pain [demo] (1988)
new link:
Register
(2) after21allD, hell_armageddon,
Dec 2 2022, 15:02:56 Helizer - Tales From A Damaged Mind (1998)


*Artist: Helizer
*Album: Tales From A Damaged Mind
*Year: 1998
*Genre: Heavy/Progressive Metal
*Country: Argentina
*Format: mp3@CBR192kbps
*Size: 40MB

Tracklist:
1. Resplandor 04:48
2. Take My Soul 05:32
3. Quizas 04:58
4. Shine 03:37
5. Mirar Atrás 03:39
6. We Still Believe 07:16
******************************
Total playing time: 29:50

[more=Extended info]Recorded at Sin Tierra Records (vocals and drums) and Helizer Records (guitars, bass and keyboards) between December 1997 and March 1998.[/more]

[more=Technical info]
Input File: 01-Resplandor.mp3
Channels : 2
Sample Rate : 44100
Precision : 16-bit
Duration : 00:04:43.94 = 12521666 samples = 21295.4 CDDA sectors
File Size : 6.82M
Bit Rate : 192k
Sample Encoding: MPEG audio (layer I, II or III)
Comments :
Title=Resplandor
Artist=Helizer (Arg)
Album=Tales From A Damaged Mind
Tracknumber=01
Year=1998
Genre=Heavy Metal

[/more]

Register
(3) Bloodline Christian, metala, Rover,
Dec 1 2022, 14:12:48 Natividad - Natividad [demo] (1996)


*Artist: Natividad
*Album: Natividad [demo]
*Year: 1996
*Genre: Thrash/Death Metal
*Country: Argentina
*Format: mp3@CBR192kbps
*Size: 20MB

Tracklist:
1. Infierno Mental 05:32
2. Depresiva Existencia 05:45
3. ¿Crees En Dios? 03:44
******************************
Total playing time: 15:01

[more=Technical info]
Input File: 01-Infierno Mental.mp3
Channels : 2
Sample Rate : 44100
Precision : 16-bit
Duration : 00:05:34.23 = 14739323 samples = 25066.9 CDDA sectors
File Size : 8.02M
Bit Rate : 192k
Sample Encoding: MPEG audio (layer I, II or III)
Comments :
Title=Infierno Mental
Artist=Natividad (Arg)
Album=Natividad (Demo)
Tracknumber=01
Year=1996
Genre=Metal

[/more]

Register
(2) metala, stumpheavyrock,
Dec 1 2022, 14:09:18 Scythe - Two Sides Facing [demo] (1993)


*Artist: Scythe
*Album: Two Sides Facing [demo]
*Year: 1993
*Genre: Thrash Metal
*Country: United States
*Format: mp3@CBR320kbps
*Size: 69MB

Tracklist:
1. Service For Two 04:50
2. A.D. 05:45
3. Two Sides Facing 04:39
4. Less Is More 03:42
5. Voluntary Incineration 05:00
6. Floating Walls 06:10
******************************
Total playing time: 30:06

[more=Extended info]Band from Cibolo, Texas.
Recorded at Century Music, San Antonio, Texas.
Co-produced by Scythe.
Mastered at Emerald Studio.
Thanks mr. tigerhead for posting this demo!
[/more]

[more=Technical info]
Input File: 01-Service For Two.mp3
Channels : 2
Sample Rate : 44100
Precision : 16-bit
Duration : 00:04:50.08 = 12792616 samples = 21756.1 CDDA sectors
File Size : 11.6M
Bit Rate : 320k
Sample Encoding: MPEG audio (layer I, II or III)
Comments :
Title=Service For Two
Artist=Scythe (US, TX)
Album=Two Sides Facing (Demo)
Tracknumber=01
Year=1993
Genre=Thrash Metal

[/more]

Register
(1) metala,
Dec 1 2022, 13:56:10 Scythe - Scythe [demo] (1992)


*Artist: Scythe
*Album: Scythe [demo]
*Year: 1992
*Genre: Thrash Metal
*Country: United States
*Format: mp3@CBR320kbps
*Size: 55MB

Tracklist:
1. The Family 03:24
2. Thee Of No Regret 09:24
3. Life Sentence 05:31
4. A.D. 05:48
******************************
Total playing time: 24:07

[more=Extended info]Band from Cibolo, Texas. Recorded at Century Music, San Antonio, Texas.
Thanks mr. tygerhead for this demo uploaded!
[/more]

[more=Technical info]
Input File: 01-The Family.mp3
Channels : 2
Sample Rate : 44100
Precision : 16-bit
Duration : 00:03:24.11 = 9001207 samples = 15308.2 CDDA sectors
File Size : 8.17M
Bit Rate : 320k
Sample Encoding: MPEG audio (layer I, II or III)
Comments :
Title=The Family
Artist=Scythe (US, TX)
Album=Scythe (Demo)
Tracknumber=01
Year=1992
Genre=Thrash Metal

[/more]

Register
(1) metala,
Dec 1 2022, 13:42:53 Satanica - Hijo Del Demonio [demo] (1989)


*Artist: Satanica
*Album: Hijo Del Demonio [demo]
*Year: 1989
*Genre: Thrash/Heavy Metal
*Country: Argentina
*Format: mp3@CBR192kbps
*Size: 16MB

Tracklist:
1. Hijo Del Demonio 05:13
2. En Mi Hora Final 07:10
******************************
Total playing time: 12:23

[more=Technical info]
Input File: 01-Hijo del Demonio.mp3
Channels : 2
Sample Rate : 44100
Precision : 16-bit
Duration : 00:05:16.25 = 13946757 samples = 23719 CDDA sectors
File Size : 7.59M
Bit Rate : 192k
Sample Encoding: MPEG audio (layer I, II or III)
Comments :
Title=Hijo del Demonio
Artist=Satanica (Arg)
Album=Hijo del Demonio (Demo)
Tracknumber=01
Year=1989
Genre=Thrash Metal

[/more]

Register
(2) metala, stumpheavyrock,
Nov 30 2022, 15:02:18 Sleeping Flowers - Sunland [demo] (1998)
1st demo "Find the Dream" 1996 (192 kbps):
Register
(1) Carcharoth,
Nov 30 2022, 14:43:01 Blastfame - Shadow [ep] (1999)


*Artist: Blastfame
*Album: Shadow [ep]
*Year: 1999
*Genre: Death Metal
*Country: Canada
*Format: mp3@CBR192kbps
*Size: 44MB

Tracklist:
1. Alone With My Shadow (Part 1) 05:33
2. Keep On Trying 09:12
3. Revenge 04:13
4. Time Of War 05:25
5. I'm My Own Shadow (Alone With My Shadow Part 2) 06:01
6. La Berceuse Des Demons 02:02
******************************
Total playing time: 32:26

[more=Technical info]
Input File: 03-Revenge.mp3
Channels : 2
Sample Rate : 44100
Precision : 16-bit
Duration : 00:04:13.82 = 11193374 samples = 19036.4 CDDA sectors
File Size : 6.09M
Bit Rate : 192k
Sample Encoding: MPEG audio (layer I, II or III)
Comments :
Title=Revenge
Artist=BlastFame (Can)
Album=Shadow (EP)
Tracknumber=03
Year=1999
Genre=Death Metal

[/more]

Register
(2) Reverend, stumpheavyrock,
Nov 30 2022, 14:34:14 Inner Bleeding - Voyage Into The Uncertainty [demo] (1999)


*Artist: Inner Bleeding
*Album: Voyage Into The Uncertainty [demo]
*Year: 1999
*Genre: Death Metal
*Country: Germany
*Format: mp3@CBR192kbps
*Size: 40MB

Tracklist:
1. Escape From... / Malevolence 04:53
2. The Alive Will Envy The Dead 05:40
3. Voyage Into The Uncertainty 05:57
4. Trip Into The Void 06:47
5. Cries For Retribution 05:19
******************************
Total playing time: 28:36

[more=Extended info]Recorded and mixed at Silver Sound Studio, Wolfsburg.[/more]

[more=Technical info]
Input File: 02-The Alive Will Envy the Dead.mp3
Channels : 2
Sample Rate : 44100
Precision : 16-bit
Duration : 00:05:40.99 = 15037703 samples = 25574.3 CDDA sectors
File Size : 8.18M
Bit Rate : 192k
Sample Encoding: MPEG audio (layer I, II or III)
Comments :
Title=The Alive Will Envy the Dead
Artist=Inner Bleeding (Ger)
Album=Voyage Into The Uncertainty (Demo)
Tracknumber=02
Year=1999
Genre=Death Metal

[/more]

Register
(5) metala, Reverend, stumpheavyrock, SyncestrA, thenecromancer,
Nov 30 2022, 14:11:48 Anesthesy - Chaos Path (1999)


*Artist: Anesthesy
*Album: Chaos Path
*Year: 1999
*Genre: Death/Thrash Metal
*Country: Belgium
*Format: mp3@CBR192kbps
*Size: 51MB

Tracklist:
1. Introduction / The Pain I Hide 06:14
2. Darknight Slaughter 04:56
3. The Chaos Path 05:55
4. The Final Sleep 04:32
5. Forever Silent 04:42
6. A Walk Through Infinity 06:22
7. The Last Straw 04:26
******************************
Total playing time: 37:07



[more=Extended info]Their last studio recording what also known as "Let the Mayhem Begin" promotional demo.
Recorded & mixed at Midas Studios, Lokeren, Belgium.
[/more]

[more=Technical info]
Input File: 02-Darknight Slaughter.mp3
Channels : 2
Sample Rate : 44100
Precision : 16-bit
Duration : 00:04:56.35 = 13068903 samples = 22226 CDDA sectors
File Size : 7.11M
Bit Rate : 192k
Sample Encoding: MPEG audio (layer I, II or III)
Comments :
Title=Darknight Slaughter
Artist=Anesthesy (Belg)
Album=Chaos Path
Tracknumber=02
Year=1999
Genre=Death Metal

[/more]

Register
(14) after21allD, boby9052, Deada, jollo, metala, METALHUNTER, Mist13Signifier, Reverend, sergsazan, stumpheavyrock, traitor666, troll_swamp, xariton, Z28517,
Nov 30 2022, 13:58:35 Fugitivos - Fugitivos [demo] (1997)


*Artist: Fugitivos
*Album: Fugitivos [demo]
*Year: 1997
*Genre: Heavy Metal
*Country: Argentina
*Format: mp3@CBR192kbps
*Size: 29MB

Tracklist:
1. Democracia Perdida 05:00
2. XX 04:51
3. Creer O Morir 06:17
4. Rosario De Ilusiones 05:15
******************************
Total playing time: 21:23

[more=Technical info]
Input File: 01-Democracia Perdida.mp3
Channels : 2
Sample Rate : 44100
Precision : 16-bit
Duration : 00:05:00.61 = 13256681 samples = 22545.4 CDDA sectors
File Size : 7.22M
Bit Rate : 192k
Sample Encoding: MPEG audio (layer I, II or III)
Comments :
Title=Democracia Perdida
Artist=Fugitivos (Arg)
Album=Fugitivos (Demo)
Tracknumber=01
Year=1997
Genre=Heavy Metal

[/more]

Register
(5) after21allD, Bloodline Christian, dimcho0, Reverend, stumpheavyrock,
Nov 30 2022, 13:15:16 Totus Toss - Proyecto Eliminación [demo] (1996)


*Artist: Totus Toss
*Album: Proyecto Eliminación [demo]
*Year: 1996
*Genre: Groove/Thrash Metal
*Country: Argentina
*Format: mp3@CBR192kbps
*Size: 31MB

Tracklist:
1. Proyecto De Eliminación 04:05
2. Carrera Mortal 03:58
3. Mentis 03:32
4. Sin Perder La Identidad 04:19
5. Libre 02:23
6. Bajen Sus Armas 04:52
******************************
Total playing time: 23:09

[more=Extended info]Recorded at "La Sala" Studios between June and July 1996.[/more]

[more=Technical info]
Input File: 01-Proyecto de Eliminación.mp3
Channels : 2
Sample Rate : 44100
Precision : 16-bit
Duration : 00:04:05.04 = 10806308 samples = 18378.1 CDDA sectors
File Size : 5.88M
Bit Rate : 192k
Sample Encoding: MPEG audio (layer I, II or III)
Comments :
Title=Proyecto de Eliminación
Artist=Totus Toss (Arg)
Album=Proyecto Eliminación (Demo)
Tracknumber=01
Year=1996
Genre=Thrash Metal

[/more]

Register
(5) analbleeding, metala, Reverend, stumpheavyrock, Z28517,
Nov 30 2022, 13:01:19 Coffinman - Coffinman [ep] (1995)


*Artist: Coffinman
*Album: Coffinman [ep]
*Year: 1995
*Genre: Death Metal
*Country: Sweden
*Format: mp3@CBR192kbps
*Size: 27MB

Tracklist:
1. The Pain Within 04:52
2. The Needleway 03:36
3. Deep Red 03:16
4. Several Means 05:31
5. Epidemic (Slayer cover) 02:29
******************************
Total playing time: 19:44

[more=Extended info]ex-Enslavement.[/more]

[more=Technical info]
Input File: 01-The Pain Within.mp3
Channels : 2
Sample Rate : 44100
Precision : 16-bit
Duration : 00:04:52.53 = 12900705 samples = 21940 CDDA sectors
File Size : 7.02M
Bit Rate : 192k
Sample Encoding: MPEG audio (layer I, II or III)
Comments :
Title=The Pain Within
Artist=Coffinman (Swe)
Album=Coffinman (EP)
Tracknumber=01
Year=1995
Genre=Death Metal

[/more]

Register
(2) Reverend, stumpheavyrock,
Nov 30 2022, 12:42:04 Enslavement - Enslavement [demo] (1993)


*Artist: Enslavement
*Album: Enslavement [demo]
*Year: 1993
*Genre: Death Metal
*Country: Sweden
*Format: mp3@CBR192kbps
*Size: 18MB

Tracklist:
1. Aceldama 05:01
2. Insane 04:40
3. Suffering 03:44
******************************
Total playing time: 13:25

[more=Extended info]pre-Coffinman.[/more]

[more=Technical info]
Input File: 01-Aceldama.mp3
Channels : 2
Sample Rate : 44100
Precision : 16-bit
Duration : 00:05:01.42 = 13292402 samples = 22606.1 CDDA sectors
File Size : 7.23M
Bit Rate : 192k
Sample Encoding: MPEG audio (layer I, II or III)
Comments :
Title=Aceldama
Artist=Enslavement (Swe)
Album=Enslavement (Demo)
Tracknumber=01
Year=1993
Genre=Death Metal

[/more]

Register
(3) Reverend, stumpheavyrock, thenecromancer,

627 Pages V   1 2 3 > » 
- Lo-Fi Version Support form
Copyrights and abuse reports form
Time is now: 4th December 2022 - 06:07:33