Welcome Guest ( Log In | Register )

История благодарностей участнику Proteus_666 ::: Спасибо сказали: 80842 раз(а)
Дата поста: В теме: За сообщение: Спасибо сказали:
Yesterday, 22:40:34 Legiah - The Haze [demo] (1990)
new link:
Register
(3) morbidangelo, thenecromancer, wgs73,
Yesterday, 22:37:45 Metroz - Brain Explosion [demo] (1989)
new link:
Register
(3) METALHUNTER, morbidangelo, thenecromancer,
Mar 28 2020, 13:48:32 Buster'd - Cocaine [demo] (1997)


*Artist: Buster'd
*Album: Cocaine [demo]
*Year: 1997
*Genre: Thrash Metal
*Country: Russian Federation
*Format: mp3@CBR128kbps
*Size: 56MB

Tracklist:
1. Intro 01:58
2. I Hate The Law 04:47
3. Катастрофа 03:08
4. Сocaine 05:41
5. Maniac Dream 05:58
6. Когда Я Умру 05:46
7. C.S. 06:54
8. Young Flash 02:42
9. Душа Портнова 01:15
10. Black Dates 03:08
11. As I Die 05:46
12. Мама, Все О,Кей 04:51
13. Мутаций 03:30
14. Нервный Шок 04:46
15. Памяти Дудаева 02:52
16. Мама,Все О,Кей (remix) 03:47
******************************
Total playing time: 1:06:49

[more=Extended info]Band from Konakovo, Tver Oblast.
Thanx mr. AIK445 for sharing this demo.
[/more]

[more=Technical info]
Input File: 02-I Hate The Law.mp3
Channels : 2
Sample Rate : 44100
Precision : 16-bit
Duration : 00:04:47.64 = 12684968 samples = 21573.1 CDDA sectors
File Size : 4.61M
Bit Rate : 128k
Sample Encoding: MPEG audio (layer I, II or III)
Comments :
Title=I Hate The Law
Artist=Buster'D
Album=Cocaine (Demo)
Tracknumber=02
Year=1997
Genre=Thrash Metal

[/more]

Register
(6) grrsss, infiltrator, morbidangelo, Olethros, stumpheavyrock, wgs73,
Mar 28 2020, 13:24:21 Hypnosis - No Escape To Death [demo] (1991)
new link:
Register
(5) boba, METALHUNTER, morbidangelo, thenecromancer, Z28517,
Mar 28 2020, 04:16:44 Power Assault - Pain And Misery [ep] (1991)


*Artist: Power Assault
*Album: Pain And Misery [ep]
*Year: 1991
*Genre: Thrash Metal/Crossover
*Country: United States
*Format: mp3@CBR192kbps
*Size: 13MB

Tracklist:
1. Put Through The Grinder 02:30
2. Leaving Us 02:04
3. Sight To See 02:46
4. Pain And Misery 02:30
******************************
Total playing time: 9:50



[more=Extended info]Band from Capistrano Beach, California.[/more]

[more=Technical info]
Input File: 01-Put Through The Grinder.mp3
Channels : 2
Sample Rate : 44100
Precision : 16-bit
Duration : 00:02:30.79 = 6649751 samples = 11309.1 CDDA sectors
File Size : 3.62M
Bit Rate : 192k
Sample Encoding: MPEG audio (layer I, II or III)
Comments :
Title=Put Through The Grinder
Artist=Power Assault (US, CA)
Album=Pain And Misery (EP)
Tracknumber=01
Year=1991
Genre=Thrash Metal

[/more]

Register
(11) infiltrator, kimkayoung, metala, METALHUNTER, morbidangelo, Olethros, RunningWild_AT, stumpheavyrock, Wail, wgs73, Z28517,
Mar 28 2020, 03:57:48 Power Assault - Power Assault [demo] (1989)


*Artist: Power Assault
*Album: Power Assault [demo]
*Year: 1989
*Genre: Crossover/Thrash Metal
*Country: United States
*Format: mp3@CBR192kbps
*Size: 25MB

Tracklist:
1. Hijacked To Hell 01:48
2. Back To Back 02:39
3. Deathrow 03:24
4. Slammin' Glams 02:10
5. Pyromaniac 02:30
6. Eyes Of Blood 02:52
7. Behind The Gun 02:36
******************************
Total playing time: 17:59



[more=Extended info]Band from Capistrano Beach, California.[/more]

[more=Technical info]
Input File: 03-Deathrow.mp3
Channels : 2
Sample Rate : 44100
Precision : 16-bit
Duration : 00:03:24.64 = 9024668 samples = 15348.1 CDDA sectors
File Size : 5.19M
Bit Rate : 203k
Sample Encoding: MPEG audio (layer I, II or III)
Comments :
Title=Deathrow
Artist=Power Assault
Album=Power Assault demo
Tracknumber=3/7
Year=1989
Genre=Thrash Metal

[/more]

Register
(8) infiltrator, kimkayoung, METALHUNTER, morbidangelo, Olethros, RunningWild_AT, stumpheavyrock, Z28517,
Mar 27 2020, 11:54:35 Massacre - Rehearsal 12-02-91 [demo] (1991)
Register
(3) morbidangelo, thenecromancer, Wail,
Mar 27 2020, 11:46:50 Eternal Mourning - My Soul's Grief [demo] (1995)


*Artist: Eternal Mourning
*Album: My Soul's Grief [demo]
*Year: 1995
*Genre: Gothic/Doom/Death Metal
*Country: Portugal
*Format: mp3@CBR128kbps
*Size: 26MB

Tracklist:
1. Intro (The River Of Princess) 02:28
2. Real Nightmares 05:31
3. Sombras Do Desconhecido 05:34
4. Instincts 06:29
5. No Painkillers 07:10
6. Outro (Cry Of The Damned) 01:51
******************************
Total playing time: 29:03



[more=Extended info]Recorded at rec´n´roll studios in September of 1995.
All music by Eternal Mourning. All lyrics by Guida except "Sombras do Desconhecido" by Mário Pereira. Produced by Luis Barros & Eternal Mourning.
[/more]

[more=Technical info]
Input File: 02-Real Nightmares.mp3
Channels : 2
Sample Rate : 44100
Precision : 16-bit
Duration : 00:05:32.67 = 14670923 samples = 24950.5 CDDA sectors
File Size : 5.32M
Bit Rate : 128k
Sample Encoding: MPEG audio (layer I, II or III)
Comments :
Title=Real Nightmares
Artist=Eternal Mourning
Album=My Soul's Grief (Demo)
Tracknumber=02
Year=1995
Genre=Doom/Death Metal

[/more]

Register
(8) Cartman223, infiltrator, morbidangelo, Olethros, Sanctus, thenecromancer, VALERY, Wail,
Mar 27 2020, 11:34:23 Инцест - Инцест [demo] (1992)


*Artist: Инцест
*Album: Инцест [demo]
*Year: 1992
*Genre: Thrash Metal
*Country: Russian Federation
*Format: mp3@CBR320kbps
*Size: 64MB

Tracklist:
1. Intro 00:51
2. Destruction 02:26
3. Мёртвый Свет 02:16
4. Яд 01:58
5. Грязные Твари 03:13
6. Посланник Ада 03:02
7. Сатана 03:17
8. Безумие 03:32
9. Болезнь 00:59
10. Фабрика Смерти 03:12
11. Горчичный Газ 03:05
******************************
Total playing time: 27:51

[more=Extended info]Band from Ulan-Ude, Republic of Buryatia.
Thanx AIK445 for sharing this rarity.
[/more]

[more=Technical info]
Input File: 02-Destruction.mp3
Channels : 2
Sample Rate : 44100
Precision : 16-bit
Duration : 00:02:26.69 = 6468941 samples = 11001.6 CDDA sectors
File Size : 5.87M
Bit Rate : 320k
Sample Encoding: MPEG audio (layer I, II or III)
Comments :
Title=Destruction
Artist=Incest
Album=Incest (Demo)
Tracknumber=02
Year=1992
Genre=Metal

[/more]

Register
(13) alikkon, Corpuscul, Diflock, gwar, infiltrator, METALHUNTER, morbidangelo, Olethros, RunningWild_AT, stumpheavyrock, varlam4, Wail, wgs73,
Mar 27 2020, 11:03:30 FUML - Galskaben Ta'r Overhånd [demo] (1998)
new link:
Register
(4) METALHUNTER, morbidangelo, thenecromancer, Z28517,
Mar 27 2020, 10:56:43 Fulltrap - Worst Life [single] (2000)


*Artist: Fulltrap
*Album: Worst Life [single]
*Year: 2000
*Genre: Thrash Metal
*Country: Japan
*Format: mp3@CBR320kbps
*Size: 23MB

Tracklist:
1. Worst Life 04:22
2. ID-49 03:34
3. True End 03:18
******************************
Total playing time: 11:14

[more=Extended info]Produced by Shige and Fulltrap.
Recorded and mixed at Bazooka Japan Institute.
Mastered at Heart Beat Recording Studio.
[/more]

[more=Technical info]
Input File: 01-Worst Life.mp3
Channels : 2
Sample Rate : 44100
Precision : 16-bit
Duration : 00:04:22.32 = 11568268 samples = 19673.9 CDDA sectors
File Size : 10.5M
Bit Rate : 320k
Sample Encoding: MPEG audio (layer I, II or III)
Comments :
Title=Worst Life
Artist=FULL TRAP
Album=Worst Life (Single)
Tracknumber=1/3
Year=2000
Genre=9
Discnumber=1/1

[/more]

Register
(8) boby9052, Corpuscul, Dark Sage, infiltrator, marilin, morbidangelo, Olethros, wgs73,
Mar 27 2020, 10:17:37 Bones In Traction - Our Fuckin Nice Demo [demo] (1994)
new link:
Register


sounds like death/thrash (not grindcore)
(1) morbidangelo,
Mar 27 2020, 09:33:47 34-D - 34-D [demo] (1994)


*Artist: 34-D
*Album: 34-D [demo]
*Year: 1994
*Genre: Thrash/Groove Metal
*Country: Mexico
*Format: mp3@CBR128kbps
*Size: 19MB

Tracklist:
1. Las Sagradas Escrituras 03:21
2. Te Apesta El Hocico 01:53
3. Nomas Pregunto 03:08
4. Depravadas De Provida 02:29
5. Sed De Poder 01:34
6. Indigesto Pero Contento 01:39
7. Coprofago 01:39
8. Error 01:50
9. Un Hombre llora 01:59
10. Bajo El Sol 01:58
******************************
Total playing time: 21:30




[more=Technical info]
Input File: 01-Las Sagradas Escrituras.mp3
Channels : 2
Sample Rate : 44100
Precision : 16-bit
Duration : 00:03:21.15 = 8870715 samples = 15086.2 CDDA sectors
File Size : 3.26M
Bit Rate : 130k
Sample Encoding: MPEG audio (layer I, II or III)
Comments :
Title=Las Sagradas Escrituras
Artist=34-D
Album=34-D (Demo)
Tracknumber=01
Year=1994
Genre=Metal

[/more]

Register
(4) infiltrator, morbidangelo, Olethros, Z28517,
Mar 27 2020, 09:13:38 Instinct - Instinctive Terror [ep] (1997)


*Artist: Instinct
*Album: Instinctive Terror [ep]
*Year: 1997
*Genre: Thrash Metal
*Country: Netherlands
*Format: mp3@CBR320kbps
*Size: 44MB

Tracklist:
1. Bring Me Down 04:34
2. God Of The Lone World 03:59
3. Sleepless 03:42
4. Insane 05:23
******************************
Total playing time: 17:38

[more=Technical info]
Input File: 01-Bring Me Down.mp3
Channels : 2
Sample Rate : 44100
Precision : 16-bit
Duration : 00:04:34.38 = 12100246 samples = 20578.6 CDDA sectors
File Size : 11.0M
Bit Rate : 320k
Sample Encoding: MPEG audio (layer I, II or III)
Comments :
Title=Bring Me Down
Artist=Instinct
Album=Instinctive Terror (EP)
Tracknumber=01
Year=1997
Genre=Thrash Metal

[/more]

Register
(9) Corpuscul, gwar, infiltrator, metala, morbidangelo, Olethros, sergsazan, thenecromancer, Z28517,
Mar 27 2020, 09:02:12 Retribution - C.H.A.O.S (2009)


*Artist: Retribution
*Album: C.H.A.O.S
*Year: 2009
*Genre: Death/Thrash Metal
*Country: Netherlands
*Format: mp3@CBR320kbps
*Size: 133MB

Tracklist:
1. City In Ruins 06:45
2. Retribution 04:50
3. Child Of The System 03:55
4. The Glass Tower 03:11
5. The Original Syn 04:45
6. Rebel 04:43
7. Resist The Oppressor 03:32
8. Selective Perception 03:53
9. Violation Of Trust 06:35
10. Despair 08:08
11. The Final Hour 08:23
******************************
Total playing time: 58:40

[more=Extended info]Recorded at "The Hole" studio between July-December 2008.
Mixed and Mastered by T. Bronneberg at Unicron media between December 2008-March 2009.
Thanx T-Mag Crew for sharing.
[/more]

[more=Technical info]
Input File: 02-Retribution.mp3
Channels : 2
Sample Rate : 44100
Precision : 16-bit
Duration : 00:04:49.25 = 12755749 samples = 21693.5 CDDA sectors
File Size : 11.6M
Bit Rate : 320k
Sample Encoding: MPEG audio (layer I, II or III)
Comments :
Title=Retribution
Artist=Retribution
Album=C.H.A.O.S.
Tracknumber=02
Year=2009
Genre=Death/Thrash

[/more]

Register
(6) boby9052, infiltrator, jollo, METALHUNTER, morbidangelo, Olethros,
Mar 27 2020, 08:49:19 Gethsemane - Gethsemane [demo] (1992)
320 kbps:
Register
(3) METALHUNTER, morbidangelo, Z28517,
Mar 26 2020, 13:01:57 Pettypew - Back Where We Belong! [ep] (2002)


*Artist: Pettypew
*Album: Back Where We Belong! [ep]
*Year: 2002
*Genre: Heavy Metal
*Country: Germany
*Format: mp3@CBR320kbps
*Size: 59MB

Tracklist:
1. Blue Sky 05:44
2. Castle 07:29
3. H.I.V. 08:08
4. Goodbye 06:44
5. The Moment 04:32
6. Secret Track 04:00
******************************
Total playing time: 36:37



[more=Technical info]
Input File: 01-Blue Sky.mp3
Channels : 2
Sample Rate : 44100
Precision : 16-bit
Duration : 00:05:44.79 = 15205063 samples = 25859 CDDA sectors
File Size : 13.8M
Bit Rate : 320k
Sample Encoding: MPEG audio (layer I, II or III)
Comments :
Title=Blue Sky
Artist=Pettypew
Album=Back Where We Belong! (EP)
Tracknumber=01
Year=2002
Genre=Heavy Metal

[/more]

Register
(10) Corpuscul, Dark Sage, dimcho0, HMHamster, infiltrator, morbidangelo, Olethros, senecazm, sergsazan, Wail,
Mar 26 2020, 12:04:45 Disaster Area - Eat This You Bastard! [demo] (1988)


*Artist: Disaster Area
*Album: Eat This You Bastard! [demo]
*Year: 1988
*Genre: Thrash/Heavy Metal
*Country: United States
*Format: mp3@CBR128kbps
*Size: 15MB

Tracklist:
1. Eat Your Face 03:29
2. B.F.D. 02:28
3. The Unspeakable Horror 03:32
4. The Final Solution 07:20
******************************
Total playing time: 16:49

[more=Extended info]Band from Rowland Heights, California.
Recorded and mixed at Taj Mahal Studio.
[/more]

[more=Technical info]
Input File: 01-Eat Your Face.mp3
Channels : 2
Sample Rate : 44100
Precision : 16-bit
Duration : 00:03:29.43 = 9235643 samples = 15706.9 CDDA sectors
File Size : 3.35M
Bit Rate : 128k
Sample Encoding: MPEG audio (layer I, II or III)
Comments :
Title=Eat Your Face
Artist=Disaster Area (US, CA)
Album=Eat This You Bastard! (Demo)
Tracknumber=01
Year=1988
Genre=Thrash Metal

[/more]

Register
(10) Corpuscul, gwar, infiltrator, metala, METALHUNTER, morbidangelo, Olethros, Wail, wgs73, Z28517,
Mar 26 2020, 11:34:26 Godhead - Demo [demo] (1992)


*Artist: Godhead
*Album: Demo [demo]
*Year: 1992
*Genre: Death Metal
*Country: United States
*Format: mp3@VBR230kbps
*Size: 17MB

Tracklist:
1. Consummation Of The Age 05:41
2. Wicked Soul 04:32
******************************
Total playing time: 10:13

[more=Extended info]Band from Toledo, Ohio.
Thanx mr.RunningWild_AT for sharing.
[/more]

[more=Technical info]
Input File: 01-Consummation of the Age.mp3
Channels : 2
Sample Rate : 44100
Precision : 16-bit
Duration : 00:05:41.82 = 15074086 samples = 25636.2 CDDA sectors
File Size : 9.57M
Bit Rate : 224k
Sample Encoding: MPEG audio (layer I, II or III)
Comments :
Title=Consummation of the Age
Artist=Godhead (USA)
Album=Demo 1992
Tracknumber=01
Year=1992
Genre=Death Metal

[/more]

Register
(7) Corpuscul, Evilded, infiltrator, morbidangelo, Olethros, Wail, wgs73,
Mar 26 2020, 11:11:23 Effigy - The Unreachable (2015)
Register
(1) morbidangelo,
Mar 25 2020, 13:37:58 Degrade - Bloody Shit [demo] (1995)


*Artist: Degrade
*Album: Bloody Shit [demo]
*Year: 1995
*Genre: Death Metal/Grindcore
*Country: Russian Federation
*Format: mp3@CBR192kbps
*Size: 37MB

Tracklist:
1. Necroecstase 02:49
2. Perversions Propagande 03:00
3. Cocks Introdaction In Lanch Of Extremente 01:28
4. Steb Rasul 01:36
5. About The War (including S.O.D. tunes) 04:55
6. Fuck Till Death!!! 03:22
7. Propagande 03:19
8. Sex Terror 03:49
9. Eiphory 02:57
******************************
Total playing time: 27:15

[more=Extended info]Band from Kotovo, Volgograd Oblast.
Rehearsal mostly humor recording.
[/more]

[more=Technical info]
Input File: 01-Necroecstase.mp3
Channels : 2
Sample Rate : 44100
Precision : 16-bit
Duration : 00:02:49.78 = 7487298 samples = 12733.5 CDDA sectors
File Size : 4.08M
Bit Rate : 192k
Sample Encoding: MPEG audio (layer I, II or III)
Comments :
Title=Necroecstas
Artist=Degrade
Album=Bloody Shit (Demo)
Tracknumber=01
Year=1995
Genre=Death Metal

[/more]

Register
(5) infiltrator, morbidangelo, Olethros, RunningWild_AT, stumpheavyrock,
Mar 25 2020, 13:18:43 Scheissegal - Freunde Der Nacht (1997)


*Artist: Scheissegal
*Album: Freunde Der Nacht
*Year: 1997
*Genre: Thrash Metal
*Country: Germany
*Format: mp3@CBR192kbps
*Size: 93MB

Tracklist:
1. Du 04:59
2. Dammbruch '91 04:06
3. Come With Me 05:10
4. The Killing Has Begun 06:18
5. Meine Axt Und Ich 05:22
6. Freunde Der Nacht 06:58
7. Max Anders 07:43
8. Terror 04:43
9. Scheißegal 02:29
10. Söldner Des Todes 06:22
11. Fünf Nach Zwölf 10:03
12. Blau 01:21
13. Mehr Bier!!! 03:07
14. Dreck 00:05
15. Dreck 00:03
******************************
Total playing time: 1:08:49

[more=Extended info]The band name is a German adjective that can be translated as "doesn't fucking matter".[/more]

[more=Technical info]
Input File: 01-Du.mp3
Channels : 2
Sample Rate : 44100
Precision : 16-bit
Duration : 00:04:57.99 = 13141491 samples = 22349.5 CDDA sectors
File Size : 7.15M
Bit Rate : 192k
Sample Encoding: MPEG audio (layer I, II or III)
Comments :
Title=Du
Artist=Scheissegal (Ger)
Album=Freunde der Nacht
Tracknumber=01
Year=1997
Genre=Thrash Metal

[/more]

Register
(14) andreikun, boby9052, chipsgott, Corpuscul, craP_cillA, Evilded, gwar, HMHamster, infiltrator, morbidangelo, Olethros, sergsazan, stumpheavyrock, Z28517,
Mar 25 2020, 11:06:13 Oppression - Demo 1990 [demo] (1990)
new link:
Register
(3) morbidangelo, thenecromancer, Z28517,
Mar 21 2020, 07:23:07 Gomorrha - Beyond Believe [demo] (1992)
new link:
Register
(6) boby9052, morbidangelo, sacramentary, thenecromancer, traitor666, varlam4,
Mar 21 2020, 07:20:25 Gomorrha - Still Insane [demo] (1989)
new link:
Register
(7) boby9052, METALHUNTER, morbidangelo, sacramentary, thenecromancer, traitor666, varlam4,

478 Pages V   1 2 3 > » 
- Lo-Fi Version Support form
Copyrights and abuse reports form
Time is now: 30th March 2020 - 05:39:05

Состав ювентус 2014 незаменимый игрок в составе ювентуса.