Welcome Guest ( Log In | Register )

История благодарностей участнику Proteus_666 ::: Спасибо сказали: 115453 раз(а)
Дата поста: В теме: За сообщение: Спасибо сказали:
Jul 3 2022, 18:35:25 Black Widow - Demo 1983 [demo] (1983)


*Artist: Black Widow
*Album: Demo 1983 [demo]
*Year: 1983
*Genre: Heavy Metal
*Country: Belgium
*Format: mp3@CBR192kbps
*Size: 24MB

Tracklist:
1. Don't Let It Get You Down 04:01
2. Baby Play It Hard & Heavy 03:56
3. Streetfighter 03:11
4. Heaven Is Yours, Hell Is Mine 06:07
******************************
Total playing time: 17:15

[more=Technical info]
Input File: 01-Don\'t Let It Get You Down.mp3
Channels : 2
Sample Rate : 44100
Precision : 16-bit
Duration : 00:04:01.85 = 10665761 samples = 18139 CDDA sectors
File Size : 5.81M
Bit Rate : 192k
Sample Encoding: MPEG audio (layer I, II or III)
Comments :
Title=Don't Let It Get You Down
Artist=Black Widow (Belg)
Album=Demo 1983
Tracknumber=01
Year=1983
Genre=Heavy Metal

[/more]

Register
(7) after21allD, Bloodline Christian, dimcho0, LVXXVL, stumpheavyrock, vaalkoth, wgs73,
Jul 3 2022, 18:11:39 Elise - Elise Live [demo] (1983)


*Artist: Elise
*Album: Elise Live [demo]
*Year: 1983
*Genre: Heavy Metal
*Country: Netherlands
*Format: mp3@CBR320kbps
*Size: 93MB

Tracklist:
1. Chase The Rainbow 06:12
2. Listen 04:12
3. What's All About 08:18
4. Dreamer 08:04
5. Alcohol 04:47
6. Lady Killer 04:48
7. Don't Say Goodbye 04:53
******************************
Total playing time: 41:14

[more=Extended info]Thanks HMR Forum for this demo![/more]

[more=Technical info]
Input File: 01-Chase the Rainbow.mp3
Channels : 2
Sample Rate : 48000
Precision : 16-bit
Duration : 00:06:12.56 = 17882640 samples ~ 27941.6 CDDA sectors
File Size : 14.9M
Bit Rate : 320k
Sample Encoding: MPEG audio (layer I, II or III)
Comments :
Title=Chase the Rainbow
Artist=Elise
Album=Live (Demo)
Tracknumber=01
Year=1983
Genre=Heavy Metal

[/more]

Register
(3) Bloodline Christian, dimcho0, wgs73,
Jul 3 2022, 18:03:06 Elise - Fighters [demo] (1985)


*Artist: Elise
*Album: Fighters [demo]
*Year: 1985
*Genre: Heavy Metal
*Country: Netherlands
*Format: mp3@CBR192kbps
*Size: 38MB

Tracklist:
1. Never Say Never 05:26
2. All Night 04:18
3. You And Me 04:03
4. Fighters 06:47
5. Last Forever 04:31
6. Burnin' 02:45
******************************
Total playing time: 27:50

[more=Extended info]Recorded at Franky's Recording Kitchen, in Nieuwleusen, Netherlands.[/more]

[more=Technical info]
Input File: 01-Never Say Never.mp3
Channels : 2
Sample Rate : 44100
Precision : 16-bit
Duration : 00:05:26.68 = 14406412 samples = 24500.7 CDDA sectors
File Size : 7.84M
Bit Rate : 192k
Sample Encoding: MPEG audio (layer I, II or III)
Comments :
Title=Never Say Never
Artist=Elise (Hol)
Album=Fighters (Demo)
Tracknumber=01
Year=1985
Genre=Heavy Metal

[/more]

Register
(2) Bloodline Christian, wgs73,
Jul 3 2022, 17:57:18 Elise - Seven Witches [demo] (1986)


*Artist: Elise
*Album: Seven Witches [demo]
*Year: 1986
*Genre: Heavy Metal
*Country: Netherlands
*Format: mp3@CBR192kbps
*Size: 35MB

Tracklist:
1. Rottenness 04:03
2. Looser 04:44
3. You're Gone 03:51
4. Seven Witches 04:49
5. Trouble 04:19
6. Bury Alive 03:57
******************************
Total playing time: 25:43

[more=Extended info]Recorded at Franky's Recording Kitchen, in Nieuwleusen, Netherlands.[/more]

[more=Technical info]
Input File: 01-Rottenness.mp3
Channels : 2
Sample Rate : 44100
Precision : 16-bit
Duration : 00:04:03.42 = 10734866 samples = 18256.6 CDDA sectors
File Size : 5.84M
Bit Rate : 192k
Sample Encoding: MPEG audio (layer I, II or III)
Comments :
Title=Rottenness
Artist=Elise (Hol)
Album=Seven Witches (Demo)
Tracknumber=01
Year=1986
Genre=Heavy Metal

[/more]

Register
(2) Bloodline Christian, wgs73,
Jul 3 2022, 17:50:48 Elise - Elise [demo] (1988)


*Artist: Elise
*Album: Elise [demo]
*Year: 1988
*Genre: Heavy Metal
*Country: Netherlands
*Format: mp3@CBR320kbps
*Size: 41MB

Tracklist:
1. Lights 04:44
2. Over 03:28
3. Witchfinder 04:40
4. Come Back 05:08
******************************
Total playing time: 18:00

[more=Extended info]Recorded at Franky's Recording Kitchen, in Nieuwleusen, Netherlands.[/more]

[more=Technical info]
Input File: 01-Lights.mp3
Channels : 2
Sample Rate : 44100
Precision : 16-bit
Duration : 00:04:44.10 = 12528986 samples = 21307.8 CDDA sectors
File Size : 11.4M
Bit Rate : 320k
Sample Encoding: MPEG audio (layer I, II or III)
Comments :
Title=Lights
Artist=Elise
Album=Elise (Demo)
Tracknumber=01
Year=1988
Genre=Heavy Metal

[/more]

Register
(2) Bloodline Christian, wgs73,
Jul 3 2022, 02:46:19 Skeletal Remains - Legions Of The Undead [demo] (1994)


*Artist: Skeletal Remains
*Album: Legions Of The Undead [demo]
*Year: 1994
*Genre: Death/Thrash Metal
*Country: United States
*Format: mp3@CBR192kbps
*Size: 33MB

Tracklist:
1. Crying Of Your Soul 03:01
2. Reap What You Slay 04:24
3. Process Of My Possession 03:27
4. Legions Of The Undead 06:49
5. Laughing In Hell 06:26
******************************
Total playing time: 24:07

[more=Extended info]Band from Deep River/Old Saybrook, Connecticut.[/more]

[more=Technical info]
Input File: 02-Reap What You Slay.mp3
Channels : 2
Sample Rate : 44100
Precision : 16-bit
Duration : 00:04:24.77 = 11676489 samples = 19858 CDDA sectors
File Size : 6.36M
Bit Rate : 192k
Sample Encoding: MPEG audio (layer I, II or III)
Comments :
Title=Reap What You Slay
Artist=Skeletal Remains (US, CT)
Album=Legions Of The Undead (Demo)
Tracknumber=02
Year=1994
Genre=Metal

[/more]

Register
(14) after21allD, andreikun, anonenone, artscald, Diflock, Ignativs, metala, noel666, Pinhead666, Spork, stumpheavyrock, wgs73, wreak, Z28517,
Jul 3 2022, 02:30:45 Vindication - Exhume The Grave [demo] (1994)


*Artist: Vindication
*Album: Exhume The Grave [demo]
*Year: 1994
*Genre: Death Metal
*Country: United States
*Format: mp3@CBR192kbps
*Size: 43MB

Tracklist:
1. Out In The Cold 05:30
2. The Sin Factor 08:05
3. Exhume The Grave 06:00
4. Wings Of A Nightmare 07:59
5. Coronation 05:35
******************************
Total playing time: 33:09

[more=Extended info]Band from Orangevale, California.
Track 5 was recorded in 1997 for some christian music compilation.
[/more]

[more=Technical info]
Input File: 01-Out In The Cold.mp3
Channels : 2
Sample Rate : 44100
Precision : 16-bit
Duration : 00:05:30.52 = 14575756 samples = 24788.7 CDDA sectors
File Size : 7.93M
Bit Rate : 192k
Sample Encoding: MPEG audio (layer I, II or III)
Comments :
Title=Out In The Cold
Artist=Vindication (US, CA)
Album=Exhume the Grave (Demo)
Tracknumber=01
Year=1994
Genre=Death Metal

[/more]

Register
(4) anonenone, kolovratov, stumpheavyrock, wgs73,
Jul 3 2022, 02:20:33 Ninth Level - Ninthlevel [demo] (2001)


*Artist: Ninth Level
*Album: Ninthlevel [demo]
*Year: 2001
*Genre: Progressive Death Metal
*Country: United States
*Format: mp3@CBR192kbps
*Size: 40MB

Tracklist:
1. The Plumed Serpent 05:27
2. Torn By Hatred 06:04
3. Lysergic Passageways 04:05
4. Cathartic 06:20
5. Riddle / A. D. 07:53
******************************
Total playing time: 29:49

[more=Extended info]Band from San Diego, California.[/more]

[more=Technical info]
Input File: 01-The Plumed Serpent.mp3
Channels : 2
Sample Rate : 44100
Precision : 16-bit
Duration : 00:05:27.43 = 14439795 samples = 24557.5 CDDA sectors
File Size : 7.86M
Bit Rate : 192k
Sample Encoding: MPEG audio (layer I, II or III)
Comments :
Title=The Plumed Serpent
Artist=Ninth Level (US, CA)
Album=Ninthlevel (Demo)
Tracknumber=01
Year=2001
Genre=Death Metal

[/more]

Register
(5) after21allD, anonenone, jared_wanted, metala, stumpheavyrock,
Jul 3 2022, 01:49:25 Elements - Another Point [demo] (1997)


*Artist: Elements
*Album: Another Point [demo]
*Year: 1997
*Genre: Death Metal
*Country: Canada
*Format: mp3@CBR192kbps
*Size: 23MB

Tracklist:
1. Variation Ondulation 04:15
2. Gettable Form 03:03
3. Avoid 03:55
4. Beginning At The End / Hidden Track 05:56
******************************
Total playing time: 17:09

[more=Extended info]For fans of technical metal.[/more]

[more=Technical info]
Input File: 01-Variation Ondulation.mp3
Channels : 2
Sample Rate : 44100
Precision : 16-bit
Duration : 00:04:15.67 = 11275179 samples = 19175.5 CDDA sectors
File Size : 6.14M
Bit Rate : 192k
Sample Encoding: MPEG audio (layer I, II or III)
Comments :
Title=Variation Ondulation
Artist=Elements (Can)
Album=Another Point (Demo)
Tracknumber=01
Year=1997
Genre=Death Metal

[/more]

Register
(2) anonenone, stumpheavyrock,
Jul 3 2022, 01:26:59 Incarrion - View Of The Sufferer [demo] (1998)


*Artist: Incarrion
*Album: View Of The Sufferer [demo]
*Year: 1998
*Genre: Death Metal
*Country: United States
*Format: mp3@CBR192kbps
*Size: 13MB

Tracklist:
1. Untangled From The Flesh 03:42
2. Maggots In Evidence 03:19
3. Skeffington's Gyves 02:37
******************************
Total playing time: 9:38

[more=Extended info]Band from Greenville, South Carolina.[/more]

[more=Technical info]
Input File: 01-Untangled From the Flesh.mp3
Channels : 2
Sample Rate : 44100
Precision : 16-bit
Duration : 00:03:42.16 = 9797124 samples = 16661.8 CDDA sectors
File Size : 5.33M
Bit Rate : 192k
Sample Encoding: MPEG audio (layer I, II or III)
Comments :
Title=Untangled From the Flesh
Artist=Incarrion (US, CA)
Album=View of the Sufferer (Demo)
Tracknumber=01
Year=1998
Genre=Death Metal

[/more]

Register
(1) stumpheavyrock,
Jul 3 2022, 01:16:50 Impaled - Brutal Change [demo] (1994)
new link:
Register
(1) hell_armageddon,
Jul 3 2022, 01:14:12 Impaled - From Here To Colostomy [demo] (1999)
1997 demo "Septic Vomit" (without outro):
Register
(2) hell_armageddon, stumpheavyrock,
Jun 29 2022, 23:11:13 Chemikil - Demo 1988 [demo] (1988)


*Artist: Chemikil
*Album: Demo 1988 [demo]
*Year: 1988
*Genre: Thrash Metal
*Country: United States
*Format: mp3@CBR192kbps
*Size: 21MB

Tracklist:
1. Intro / By The Gun 06:14
2. Quit Thinking Start Drinking 04:25
3. Path Of Least Resistance 04:42
******************************
Total playing time: 15:21

[more=Extended info]Band from Santa Barbara, California (ex-Apparition).[/more]

[more=Technical info]
Input File: 01-Intro - By The Gun.mp3
Channels : 2
Sample Rate : 44100
Precision : 16-bit
Duration : 00:06:14.09 = 16497325 samples = 28056.7 CDDA sectors
File Size : 8.98M
Bit Rate : 192k
Sample Encoding: MPEG audio (layer I, II or III)
Comments :
Title=Intro / By The Gun
Artist=Chemikil (US, CA)
Album=Demo 1988
Tracknumber=01
Year=1988
Genre=Thrash Metal

[/more]

Register
(15) after21allD, anonenone, Carcharoth, dimcho0, FUDEDOR, gwar, hell_armageddon, Olethros, Reverend, stumpheavyrock, Svafrlami, thenecromancer, traitor666, vaalkoth, wgs73,
Jun 29 2022, 22:59:14 Terminal Shock - Gothic [demo] (1989)


*Artist: Terminal Shock
*Album: Gothic [demo]
*Year: 1989
*Genre: Progressive Thrash Metal
*Country: United States
*Format: mp3@CBR192kbps
*Size: 26MB

Tracklist:
1. Shitty-Shitty 06:21
2. Gothic 09:10
3. Twilight 03:10
******************************
Total playing time: 18:41

[more=Extended info]Band from Castro Valley/Hayward, California.
Instrumental demo recorded at Lumberjack Studios.
[/more]

[more=Technical info]
Input File: 01-Shitty-Shitty.mp3
Channels : 2
Sample Rate : 44100
Precision : 16-bit
Duration : 00:06:21.38 = 16818770 samples = 28603.4 CDDA sectors
File Size : 9.15M
Bit Rate : 192k
Sample Encoding: MPEG audio (layer I, II or III)
Comments :
Title=Shitty-Shitty
Artist=Terminal Shock (US, CA)
Album=Gothic (Demo)
Tracknumber=01
Year=1989
Genre=Thrash Metal

[/more]

Register
(13) anonenone, Carcharoth, dimcho0, hell_armageddon, metala, Reverend, Spork, stumpheavyrock, Svafrlami, thenecromancer, traitor666, vaalkoth, Z28517,
Jun 29 2022, 22:50:19 Klockworq - Wrenches (1990)


*Artist: Klockworq
*Album: Wrenches
*Year: 1990
*Genre: Progressive Power/Thrash Metal
*Country: United States
*Format: mp3@CBR192kbps
*Size: 93MB

Tracklist:
1. 937 03:49
2. Make Your Way 05:46
3. Mindbenders 04:33
4. Victory's Defeat 07:36
5. Space Quest 07:40
6. Realized Society 06:27
7. Omega 06:29
8. Evil's Finale 04:06
9. The Answer 07:27
10. Decimal 06:14
11. 937 (remix) 03:50
12. Mindbenders (remix) 04:32
******************************
Total playing time: 1:08:29



[more=Extended info]Band from Tulsa, Oklahoma (ex-Deadly Weapon).
Trax 11 & 12 were remixed in 1994.
[/more]

[more=Technical info]
Input File: 02-Make Your Way.mp3
Channels : 2
Sample Rate : 44100
Precision : 16-bit
Duration : 00:05:43.21 = 15135649 samples = 25740.9 CDDA sectors
File Size : 8.24M
Bit Rate : 192k
Sample Encoding: MPEG audio (layer I, II or III)
Comments :
Title=Make Your Way
Artist=KlockWorq (US, OK)
Album=Wrenches
Tracknumber=02
Year=1990
Genre=Thrash Metal

[/more]

Register
(15) after21allD, anonenone, boby9052, Carcharoth, dimcho0, hell_armageddon, metala, Olethros, Reverend, stumpheavyrock, Svafrlami, thenecromancer, traitor666, vaalkoth, Z28517,
Jun 29 2022, 22:32:33 Serpent - Demo 1991 [demo] (1991)


*Artist: Serpent
*Album: Demo 1991 [demo]
*Year: 1991
*Genre: Thrash Metal
*Country: Sweden
*Format: mp3@CBR192kbps
*Size: 20MB

Tracklist:
1. Diagnosis Mad 05:47
2. Outer World 04:19
3. Invitable Fate 04:12
******************************
Total playing time: 14:18

[more=Extended info]Recorded at Studio Svängrummet in Nyköping, Södermanland.[/more]

[more=Technical info]
Input File: 01-Diagnosis Mad.mp3
Channels : 2
Sample Rate : 44100
Precision : 16-bit
Duration : 00:05:48.93 = 15387945 samples = 26170 CDDA sectors
File Size : 8.38M
Bit Rate : 192k
Sample Encoding: MPEG audio (layer I, II or III)
Comments :
Title=Diagnosis Mad
Artist=Serpent (Swe)
Album=Demo 1991
Tracknumber=01
Year=1991
Genre=Thrash Metal

[/more]

Register
(14) after21allD, anonenone, dimcho0, hell_armageddon, metala, Olethros, Reverend, stumpheavyrock, Svafrlami, thenecromancer, traitor666, vaalkoth, wgs73, Z28517,
Jun 29 2022, 22:25:39 Psychicthrob - Bursting Dementia [demo] (1991)
alternative link:
Register
(4) hell_armageddon, thenecromancer, vaalkoth, wgs73,
Jun 29 2022, 22:22:32 Salem Orchid - Demo 1991 [demo] (1991)
new link:
Register
(3) hell_armageddon, vaalkoth, wgs73,
Jun 29 2022, 22:19:56 Rude Awakening - The Black Album [demo] (1990)
new link:
Register
(5) hell_armageddon, METALHUNTER, thenecromancer, traitor666, Z28517,
Jun 29 2022, 22:14:10 Dormant Misery - The World Beyond [demo] (1995)
new link:
Register
(4) Carcharoth, hell_armageddon, thenecromancer, wgs73,
Jun 29 2022, 22:12:15 Disaster - No Hope For The Future (1999)
ЦИТАТА(anonenone @ Jun 29 2022, 15:29:02) *
Please reupload!!!!!

I have only the rip uploaded in topicstart:
Register
(2) anonenone, Carcharoth,
Jun 27 2022, 17:28:50 Seizure - Life In A Freefall (1998)


*Artist: Seizure
*Album: Life In A Freefall
*Year: 1998
*Genre: Thrash/Groove Metal
*Country: United Kingdom
*Format: mp3@CBR320kbps
*Size: 91MB

Tracklist:
1. Words Like Razors 03:34
2. Godhead 02:42
3. Silver Spoon 04:28
4. Half The Man 03:13
5. Progress 03:02
6. John Doe By Choice 03:35
7. Social High 03:33
8. Politically Correct 04:48
9. Gratitude 03:52
10. Caffeine And Filters 02:58
11. Entrapment 03:57
******************************
Total playing time: 39:42

[more=Extended info]Recorded in November 1997.[/more]

[more=Technical info]
Input File: 01-Words Like Razors.mp3
Channels : 2
Sample Rate : 44100
Precision : 16-bit
Duration : 00:03:34.48 = 9458568 samples = 16086 CDDA sectors
File Size : 8.58M
Bit Rate : 320k
Sample Encoding: MPEG audio (layer I, II or III)
Comments :
Title=Words Like Razors
Artist=Seizure (UK)
Album=Life In A Freefall
Tracknumber=01
Year=1998
Genre=Thrash Metal

[/more]

Register
(9) after21allD, analbleeding, boby9052, Carcharoth, metala, Olethros, Reverend, Svafrlami, Unsane,
Jun 27 2022, 17:10:34 Morborum - When Mourning Begins [demo] (1994)
new link:
Register
(3) Carcharoth, hell_armageddon, thenecromancer,
Jun 27 2022, 17:08:12 Ghost Story - Seeds Of Destruction [demo] (1989)
mirror:
Register
(4) Carcharoth, hell_armageddon, thenecromancer, traitor666,
Jun 27 2022, 17:05:15 Gestalt - Demo '90 [demo] (1990)
new link:
Register
(6) after21allD, Carcharoth, hell_armageddon, thenecromancer, traitor666, vaalkoth,

600 Pages V   1 2 3 > » 
- Lo-Fi Version Support form
Copyrights and abuse reports form
Time is now: 5th July 2022 - 13:39:02