Welcome Guest ( Log In | Register )

История благодарностей участнику Proteus_666 ::: Спасибо сказали: 136333 раз(а)
Дата поста: В теме: За сообщение: Спасибо сказали:
Today, 09:05:21 Murdergod - Promo [demo] (1995)
new link:
Register
(2) incubus, thenecromancer,
Yesterday, 09:35:46 New Age - Decadent Image Of Creation In The Nihilist Age [demo] (1996)


*Artist: New Age
*Album: Decadent Image Of Creation In The Nihilist Age [demo]
*Year: 1996
*Genre: Death/Doom Metal
*Country: Romania
*Format: mp3@CBR192kbps
*Size: 30MB

Tracklist:
1. God Eclipse / A Glory Of Decadence 11:43
2. Find Again... 08:10
3. Requiem 01:59
******************************
Total playing time: 21:52

[more=Technical info]
Input File: 02-Find Again....mp3
Channels : 2
Sample Rate : 44100
Precision : 16-bit
Duration : 00:08:10.94 = 21650410 samples = 36820.4 CDDA sectors
File Size : 11.8M
Bit Rate : 192k
Sample Encoding: MPEG audio (layer I, II or III)
Comments :
Title=Find Again...
Artist=New Age (Rom)
Album=Decadent Image Of Creation In The Nihilist Age (Demo)
Tracknumber=02
Year=1996
Genre=Metal

[/more]

Register
(5) Carcharoth, Grev, kimkayoung, stumpheavyrock, thenecromancer,
Yesterday, 09:24:44 New Age - Demo 1995 [demo] (1995)


*Artist: New Age
*Album: Demo 1995 [demo]
*Year: 1995
*Genre: Doom/Death Metal
*Country: Romania
*Format: mp3@CBR192kbps
*Size: 43MB

Tracklist:
1. Intro (Byzantine Hymn) / Lost Life 07:21
2. For All The Suffering 08:05
3. Silent Rhapsody 02:55
4. Sacerdocy 08:13
5. The Satanic Prophecy 04:52
******************************
Total playing time: 31:26

[more=Technical info]
Input File: 02-For All The Suffering.mp3
Channels : 2
Sample Rate : 44100
Precision : 16-bit
Duration : 00:08:05.56 = 21413064 samples = 36416.8 CDDA sectors
File Size : 11.7M
Bit Rate : 192k
Sample Encoding: MPEG audio (layer I, II or III)
Comments :
Title=For All The Suffering
Artist=New Age (Rom)
Album=Demo 1995
Tracknumber=02
Year=1995
Genre=Metal

[/more]

Register
(5) Carcharoth, Grev, kimkayoung, stumpheavyrock, thenecromancer,
Yesterday, 09:11:55 Anoxia - Far From This Time [demo] (2000)


*Artist: Anoxia
*Album: Far From This Time [demo]
*Year: 2000
*Genre: Heavy/Thrash Metal
*Country: Denmark
*Format: mp3@CBR128kbps
*Size: 20MB

Tracklist:
1. Mirage 05:18
2. A Sharp Edge 03:30
3. Far From This Time 05:35
4. Black Death 04:14
5. The Unknown Entrance 03:14
******************************
Total playing time: 21:51

[more=Extended info]pre-Frank og Rødderne.[/more]

[more=Technical info]
Input File: 02-A Sharp Edge.mp3
Channels : 2
Sample Rate : 44100
Precision : 16-bit
Duration : 00:03:30.76 = 9294296 samples = 15806.6 CDDA sectors
File Size : 3.37M
Bit Rate : 128k
Sample Encoding: MPEG audio (layer I, II or III)
Comments :
Title=A Sharp Edge
Artist=Anoxia
Album=Far From This Time... (Demo)
Tracknumber=02
Year=2000
Genre=Metal & Hard Rock

[/more]

Register
(5) dimcho0, Grev, metala, stumpheavyrock, thenecromancer,
Yesterday, 08:27:39 Eternal Mourning - Symphonies For Those Unloved [demo] (1996)


*Artist: Eternal Mourning
*Album: Symphonies For Those Unloved [demo]
*Year: 1996
*Genre: Doom/Black Metal
*Country: Romania
*Format: mp3@CBR192kbps
*Size: 48MB

Tracklist:
1. Ave Satan 03:28
2. In My Own Sea 04:30
3. As I Spoke 04:23
4. Swan Song 03:58
5. The Angel Who Loved Me 03:47
6. The Girl With Golden Tears 06:54
7. The Funeral Of Me 04:47
8. Eternal Mourning 03:52
******************************
Total playing time: 35:39

[more=Technical info]
Input File: 02-In My Own Sea.mp3
Channels : 2
Sample Rate : 44100
Precision : 16-bit
Duration : 00:04:30.02 = 11907662 samples = 20251.1 CDDA sectors
File Size : 6.48M
Bit Rate : 192k
Sample Encoding: MPEG audio (layer I, II or III)
Comments :
Title=In My Own Sea
Artist=Eternal Mourning (Rom)
Album=Symphonies For Those Unloved (Demo)
Tracknumber=02
Year=1996
Genre=Metal

[/more]

Register
(6) Carcharoth, Grev, kimkayoung, metala, stumpheavyrock, thenecromancer,
Yesterday, 08:16:03 Epilepsy - Demo 1993 [demo] (1993)


*Artist: Epilepsy
*Album: Demo 1993 [demo]
*Year: 1993
*Genre: Thrash/Death Metal
*Country: Romania
*Format: mp3@CBR192kbps
*Size: 17MB

Tracklist:
1. Victim Of The Death 06:02
2. Flower Of The Shit 04:35
3. Cobzarul 02:10
******************************
Total playing time: 12:47

[more=Extended info]ex-Xenon.[/more]

[more=Technical info]
Input File: 01-Victim of the Death.mp3
Channels : 2
Sample Rate : 44100
Precision : 16-bit
Duration : 00:06:02.47 = 15984707 samples = 27184.9 CDDA sectors
File Size : 8.70M
Bit Rate : 192k
Sample Encoding: MPEG audio (layer I, II or III)
Comments :
Title=Victim of the Death
Artist=Epilepsy (Rom)
Album=Demo 1993
Tracknumber=01
Year=1993
Genre=Death Metal

[/more]

Register
(7) Carcharoth, cynik, metala, sankametal, stumpheavyrock, thenecromancer, vaalkoth,
Yesterday, 08:05:53 Progeria - A Day At The Intensive Care (2001)
new link:
Register
(2) spazm, Wail,
Yesterday, 08:02:46 Deviant - Balance Of Power [ep] (1991)
192 kbps only:
Register
(1) Wail,
Yesterday, 07:50:46 Faust - Faust [demo] (1993)
new link:
Register
(1) Wail,
Yesterday, 07:47:06 Crowleys Passion - Chapter One [demo] (2000)


*Artist: Crowleys Passion
*Album: Chapter One [demo]
*Year: 2000
*Genre: Death Metal/Hardcore
*Country: Germany
*Format: mp3@CBR320kbps
*Size: 51MB

Tracklist:
1. Intro 00:21
2. The Fog In The Sea Of Tears 03:57
3. Tradition 05:56
4. Intolerance 04:06
5. Seven 07:21
******************************
Total playing time: 21:41

[more=Extended info]Thanx Funeral Frost for this demo![/more]

[more=Technical info]
Input File: 02-The Fog In The Sea Of Tears.mp3
Channels : 2
Sample Rate : 44100
Precision : 16-bit
Duration : 00:03:57.50 = 10473530 samples = 17812.1 CDDA sectors
File Size : 10.7M
Bit Rate : 362k
Sample Encoding: MPEG audio (layer I, II or III)
Comments :
Title=The Fog In The Sea Of Tears
Artist=Crowleys Passion
Album=Chapter One (Demo)
Tracknumber=02
Year=2000
Genre=Rock
Discnumber=1/1

[/more]

Register
(2) Carcharoth, GorAtheist,
Yesterday, 07:27:49 Hypnos - Hypnos [ep] (2000)


*Artist: Hypnos
*Album: Hypnos [ep]
*Year: 2000
*Genre: Death Metal
*Country: Czech Republic
*Format: mp3@CBR320kbps
*Size: 32MB

Tracklist:
1. Infernational 02:36
2. Breeding The Scums 04:01
3. The Cave (Bulldozer cover) 04:48
4. In Blood We Trust 02:31
******************************
Total playing time: 13:56

[more=Extended info]Recorded at Exponent Studio in Hlohovec, Slovak Republic in December 1999.
Thanx Funeral Frost for this EP!
[/more]

[more=Technical info]
Input File: 01-Infernational.mp3
Channels : 2
Sample Rate : 44100
Precision : 16-bit
Duration : 00:02:37.30 = 6936710 samples = 11797.1 CDDA sectors
File Size : 6.51M
Bit Rate : 331k
Sample Encoding: MPEG audio (layer I, II or III)
Comments :
Title=Infernational
Artist=Hypnos
Album=Hypnos (EP)
Tracknumber=01
Year=2000
Genre=Death Metal
Discnumber=1/1

[/more]

Register
(6) Bardo, cancer1974, cesar, GorAtheist, LiarOfAngmar, vyacheslav,
Yesterday, 07:15:06 Progeria - Underground [demo] (1999)


*Artist: Progeria
*Album: Underground [demo]
*Year: 1999
*Genre: Death Metal
*Country: France
*Format: mp3@CBR192kbps
*Size: 46MB

Tracklist:
1. Conjuring 05:22
2. Tsunami 04:31
3. Syphilis 07:31
4. Damocles 06:50
5. Concret Soul 05:05
6. Abyss 05:04
******************************
Total playing time: 34:23

[more=Technical info]
Input File: 01-Conjuring.mp3
Channels : 2
Sample Rate : 44100
Precision : 16-bit
Duration : 00:05:21.87 = 14194423 samples = 24140.2 CDDA sectors
File Size : 7.73M
Bit Rate : 192k
Sample Encoding: MPEG audio (layer I, II or III)
Comments :
Title=Conjuring
Artist=Progeria (Fra)
Album=Underground (Demo)
Tracknumber=01
Year=1999
Genre=Death Metal

[/more]

Register
(5) Carcharoth, metala, spazm, stumpheavyrock, thenecromancer,
Yesterday, 07:06:10 Faust - ...And Finally Faust! [ep] (2001)


*Artist: Faust
*Album: ...And Finally Faust! [ep]
*Year: 2001
*Genre: Death Metal
*Country: Italy
*Format: mp3@CBR320kbps
*Size: 33MB

Tracklist:
1. Raping The Virgin 03:48
2. History Losers 03:56
3. Pig God Dog 02:49
4. Immortality 03:33
******************************
Total playing time: 14:06

[more=Extended info]Recorded at the Entreprise Studio, Italy.
Mixed and mastered at the Massive Arts Studios, Milan, Italy.
Thanx Funeral Frost for this EP!
[/more]

[more=Technical info]
Input File: 01-Raping The Virgin.mp3
Channels : 2
Sample Rate : 44100
Precision : 16-bit
Duration : 00:03:48.51 = 10077203 samples = 17138.1 CDDA sectors
File Size : 9.99M
Bit Rate : 350k
Sample Encoding: MPEG audio (layer I, II or III)
Comments :
Title=Raping The Virgin
Artist=Faust
Album=...And Finally Faust (EP)
Tracknumber=1/4
Year=2000
Genre=Death Metal
Discnumber=1/1

[/more]

Register
(4) GorAtheist, stumpheavyrock, vyacheslav, Wail,
Yesterday, 06:58:13 Deimos - Death Squad (2001)


*Artist: Deimos
*Album: Death Squad
*Year: 2001
*Genre: Death Metal
*Country: Romania
*Format: mp3@CBR128kbps
*Size: 37MB

Tracklist:
1. Level 4 04:12
2. Apocalyptic Clash 04:10
3. Necroville 04:19
4. Contempt 04:10
5. Death Machine 04:10
6. Victory's Land 04:46
7. Demons Come! 04:29
8. Suprema (Instrumental) 04:35
9. Ecou Apus 04:27
10. Tipăt Blestemat 04:24
******************************
Total playing time: 43:42

[more=Technical info]
Input File: 02-Apocalyptic Clash.mp3
Channels : 2
Sample Rate : 44100
Precision : 16-bit
Duration : 00:04:10.65 = 11053753 samples = 18798.9 CDDA sectors
File Size : 4.18M
Bit Rate : 133k
Sample Encoding: MPEG audio (layer I, II or III)
Comments :
Title=Apocalyptic Clash
Artist=Deimos
Album=Death Squad
Tracknumber=02
Year=2001
Genre=Melodic Death Metal

[/more]

Register
(5) jollo, LiarOfAngmar, metala, stumpheavyrock, thenecromancer,
Feb 28 2024, 19:14:34 Blood Lust - Suicidal Mission [demo] (1986)
224 kbps:
Register
(7) Carcharoth, METALHUNTER, stumpheavyrock, thenecromancer, Wail, wgs73, Z28517,
Feb 28 2024, 19:10:53 Acrodus - Brain Washing [demo] (1994)
192 kbps:
Register
(3) Carcharoth, thenecromancer, Wail,
Feb 27 2024, 13:58:31 Interfear - Tolerance [ep] (1998)


*Artist: Interfear
*Album: Tolerance [ep]
*Year: 1998
*Genre: Hardcore/Thrash Metal
*Country: Belgium
*Format: mp3@CBR320kbps
*Size: 40MB

Tracklist:
1. Souldigger 04:15
2. S.I.C.K. 03:26
3. Weeds 04:46
4. Bloodstained 04:52
******************************
Total playing time: 17:19

[more=Extended info]Thanx Funeral Frost for this demo![/more]

[more=Technical info]
Input File: 01-Souldigger.mp3
Channels : 2
Sample Rate : 44100
Precision : 16-bit
Duration : 00:04:16.44 = 11308784 samples = 19232.6 CDDA sectors
File Size : 10.3M
Bit Rate : 321k
Sample Encoding: MPEG audio (layer I, II or III)
Comments :
Title=Souldigger
Artist=Interfear
Album=Tolerance (EP)
Tracknumber=1/4
Year=1998
Genre=Hardcore
Discnumber=1/1

[/more]

Register
(10) amiroo, artscald, boby9052, Carcharoth, Marek, metala, Reverend, sankametal, stumpheavyrock, Z28517,
Feb 27 2024, 13:45:05 Pernicious - Promo 2002 [demo] (2002)


*Artist: Pernicious
*Album: Promo 2002 [demo]
*Year: 2002
*Genre: Death Metal
*Country: Netherlands
*Format: mp3@CBR320kbps
*Size: 35MB

Tracklist:
1. The Awakening Of The Dead 04:17
2. Cunteater 03:53
3. Bloodbath 02:43
4. Death To Us All 04:27
******************************
Total playing time: 15:20

[more=Extended info]Thanx Funeral Frost for this demo![/more]

[more=Technical info]
Input File: 02-Cunteater.mp3
Channels : 2
Sample Rate : 44100
Precision : 16-bit
Duration : 00:03:53.79 = 10309919 samples = 17533.9 CDDA sectors
File Size : 9.36M
Bit Rate : 320k
Sample Encoding: MPEG audio (layer I, II or III)
Comments :
Title=Cunteater
Artist=Pernicious
Album=Promo 2002
Tracknumber=2/4
Year=2002
Genre=Death Metal
Discnumber=1/1

[/more]

Register
(3) artscald, Reverend, stumpheavyrock,
Feb 27 2024, 13:30:31 Existence Denied - Existence Denied [demo] (2002)


*Artist: Existence Denied
*Album: Existence Denied [demo]
*Year: 2002
*Genre: Death Metal
*Country: Belgium
*Format: mp3@CBR320kbps
*Size: 50MB

Tracklist:
1. Intro 00:29
2. Numb To Reality 04:10
3. Strangled 03:56
4. The Beast Within 04:16
5. Embraced By Death 04:56
6. Forever Doomed 03:23
******************************
Total playing time: 21:10

[more=Extended info]Recorded and mixed at Midas Studios, Lokeren by Tony Deblock.
Thanx Funeral Frost for this demo!
[/more]

[more=Technical info]
Input File: 02-Numb To Reality.mp3
Channels : 2
Sample Rate : 44100
Precision : 16-bit
Duration : 00:04:10.27 = 11036731 samples = 18770 CDDA sectors
File Size : 11.2M
Bit Rate : 357k
Sample Encoding: MPEG audio (layer I, II or III)
Comments :
Title=Numb To Reality
Artist=Existence Denied
Album=Existence Denied
Tracknumber=2/6
Year=2002
Genre=Death Metal
Discnumber=1/1

[/more]

Register
(3) artscald, Carcharoth, GorAtheist,
Feb 27 2024, 13:11:14 Death's Bride - The Millennium [demo] (1998)
320 kbps (47 mb):
Register
(6) Carcharoth, Reverend, sergsazan, stumpheavyrock, thenecromancer, Wail,
Feb 27 2024, 13:00:40 Homicide Hagridden - Where Angels Work [demo] (1998)


*Artist: Homicide Hagridden
*Album: Where Angels Work [demo]
*Year: 1998
*Genre: Thrash Metal
*Country: Italy
*Format: mp3@CBR320kbps
*Size: 31MB

Tracklist:
1. Where Angels Work 02:13
2. The Inner Sinner 05:42
3. Violated 02:00
4. Eternal Rage 03:17
******************************
Total playing time: 13:12

[more=Extended info]Recorded and mixed at Nadir Studios, Genova.
Thanx Funeral Frost for this demo!
[/more]

[more=Technical info]
Input File: 01-Where Angels Work.mp3
Channels : 2
Sample Rate : 44100
Precision : 16-bit
Duration : 00:02:13.34 = 5880250 samples = 10000.4 CDDA sectors
File Size : 5.52M
Bit Rate : 331k
Sample Encoding: MPEG audio (layer I, II or III)
Comments :
Title=Where Angels Work
Artist=Homicide Hagridden
Album=Where Angels Work
Tracknumber=1/4
Year=1998
Genre=Thrash Metal
Discnumber=1/1

[/more]

Register
(7) 747metaller, amiroo, artscald, isvili, stumpheavyrock, umnaxtet, Z28517,
Feb 27 2024, 12:37:47 Emptiness - Eternal Rising [demo] (2000)


*Artist: Emptiness
*Album: Eternal Rising [demo]
*Year: 2000
*Genre: Black/Death Metal
*Country: Belgium
*Format: mp3@CBR320kbps
*Size: 22MB

Tracklist:
1. Xenophobia 02:56
2. Supremacy 03:10
3. Shememforash 02:57
4. Eternal Rising (Outro) 00:38
******************************
Total playing time: 9:41

[more=Extended info]Thanx Funeral Frost for this demo![/more]

[more=Technical info]
Input File: 01-Xenophobia.mp3
Channels : 2
Sample Rate : 44100
Precision : 16-bit
Duration : 00:02:57.23 = 7815711 samples = 13292 CDDA sectors
File Size : 7.22M
Bit Rate : 326k
Sample Encoding: MPEG audio (layer I, II or III)
Comments :
Title=Xenophobia
Artist=Emptiness
Album=Eternal Rising (Demo)
Tracknumber=1/4
Year=2000
Genre=Black Metal
Discnumber=1/1

[/more]

Register
(5) artscald, dermarsoran, Pinhead666, Reverend, sacrut,
Feb 27 2024, 12:19:06 The Moonstone - Demos [compilation] (1997)


*Artist: The Moonstone
*Album: Demos [compilation]
*Year: 1997
*Genre: Heavy Metal
*Country: Russian Federation
*Format: mp3@CBR320kbps
*Size: 54MB

Tracklist:
1. The Book 04:02
2. Apathy 03:46
3. The Game Is Over 04:52
4. What I Want To Do 04:20
5. Cowboy's International 02:27
6. Take A Risk 03:48
******************************
Total playing time: 23:15

[more=Extended info]Band from Nigniy Novgorod.
Trax 1-3 are demo "The Book" (1997);
trax 4-6 are demo "What I Want To Do" (1996).
Thanx goreonion for this rip and info!
[/more]

[more=Technical info]
Input File: 01–The Book (\'97).mp3
Channels : 2
Sample Rate : 44100
Precision : 16-bit
Duration : 00:04:02.62 = 10699322 samples = 18196.1 CDDA sectors
File Size : 9.71M
Bit Rate : 320k
Sample Encoding: MPEG audio (layer I, II or III)
Comments :
Title=The Book
Artist=The Moonstone
Album=Demos (Compilation)
Tracknumber=01
Year=1997
Genre=Metal

[/more]

Register
(5) artscald, Bloodline Christian, Carcharoth, stumpheavyrock, Xutun,
Feb 27 2024, 11:52:36 Death's Bride - The Millennium [demo] (1998)


*Artist: Death's Bride
*Album: The Millennium [demo]
*Year: 1998
*Genre: Death/Doom Metal
*Country: Belgium
*Format: mp3@CBR192kbps
*Size: 26MB

Tracklist:
1. September 04:10
2. My Thoughts, My Egocraty 06:41
3. The Millennium 04:30
4. Fantasies Solitaires 03:38
******************************
Total playing time: 18:59

[more=Extended info]Thanx to Funeral Frost for this demo![/more]

[more=Technical info]
Input File: 02-My Thoughts, My Egocraty.mp3
Channels : 2
Sample Rate : 44100
Precision : 16-bit
Duration : 00:06:41.10 = 17688510 samples = 30082.5 CDDA sectors
File Size : 9.84M
Bit Rate : 196k
Sample Encoding: MPEG audio (layer I, II or III)
Comments :
Title=My Thoughts, My Egocraty
Artist=Death's Bride
Album=The Millennium (Demo)
Tracknumber=02
Year=1998
Genre=Death Metal

[/more]

Register
(3) Grev, sergsazan, Wail,
Feb 27 2024, 11:08:59 Nobody - Filth [ep] (2000)


*Artist: Nobody
*Album: Filth [ep]
*Year: 2000
*Genre: Thrash/Groove Metal
*Country: United States
*Format: mp3@CBR320kbps
*Size: 48MB

Tracklist:
1. Third Grade Rock 02:15
2. Fell 04:09
3. Filth 05:24
4. Like Jesus 02:51
5. Star 04:47
6. Pure Black 03:56
7. Live On 02:55
******************************
Total playing time: 26:17

[more=Extended info]Band from Wisconsin.
Thanx Genuine Thrashiac for the links!
[/more]

[more=Technical info]
Input File: 02-Fell.mp3
Channels : 2
Sample Rate : 44100
Precision : 16-bit
Duration : 00:04:09.42 = 10999598 samples = 18706.8 CDDA sectors
File Size : 9.98M
Bit Rate : 320k
Sample Encoding: MPEG audio (layer I, II or III)
Comments :
Title=Fell
Artist=NOBODY
Album=Filth
Tracknumber=02
Year=2000
Genre=Metal

[/more]

Register
(9) amiroo, analbleeding, artscald, boby9052, Carcharoth, CORPSEMIKA, deamonmotherloveson, Reverend, stumpheavyrock,

703 Pages V   1 2 3 > » 
- Lo-Fi Version Support form
Copyrights and abuse reports form
Time is now: 1st March 2024 - 11:56:38