Welcome Guest ( Log In | Register )

История благодарностей участнику Proteus_666 ::: Спасибо сказали: 90347 раз(а)
Дата поста: В теме: За сообщение: Спасибо сказали:
Sep 15 2020, 14:06:49 O.T. Factor - Legends [demo] (1990)
new link:
Register
(5) stumpheavyrock, thenecromancer, traitor666, Wail, Z28517,
Sep 15 2020, 14:01:38 O.T. Factor - Double Standards [demo] (1989)
new link:
Register
(4) thenecromancer, traitor666, Wail, Z28517,
Sep 15 2020, 13:44:51 B-rude - Demo [demo] (1989)
http://ipic.su/img/img7/fs/Brude.1600173862.jpg
According to MA the tracklist as follows:
1. Polytition 04:54
2. False Messiah 04:23
3. Clear Insanity 03:57
4. Wargames 04:27
(1) Wail,
Sep 15 2020, 13:40:49 Chime - Just For Fun [demo] (1991)


*Artist: Chime
*Album: Just For Fun [demo]
*Year: 1991
*Genre: Heavy Metal
*Country: Germany
*Format: mp3@CBR192kbps
*Size: 26MB

Tracklist:
1. Saddam 04:14
2. Shadows Of The Night 04:51
3. Sweet Little Jeannie 03:12
4. Rock City 03:50
5. Angel Face 03:01
******************************
Total playing time: 19:08

[more=Technical info]
Input File: 01-Saddam.mp3
Channels : 2
Sample Rate : 44100
Precision : 16-bit
Duration : 00:04:14.60 = 11227948 samples = 19095.1 CDDA sectors
File Size : 6.11M
Bit Rate : 192k
Sample Encoding: MPEG audio (layer I, II or III)
Comments :
Title=Saddam
Artist=Chime
Album=Just For Fun (Demo)
Tracknumber=01
Year=1991
Genre=Heavy Metal/Hard Rock

[/more]

Register
(6) infiltrator, Olethros, Rosen, stumpheavyrock, Wail, wgs73,
Sep 15 2020, 13:22:05 Decadence - Demotape 1989 [demo] (1989)


*Artist: Decadence
*Album: Demotape 1989 [demo]
*Year: 1989
*Genre: Thrash Metal
*Country: Norway
*Format: mp3@CBR192kbps
*Size: 32MB

Tracklist:
1. The Conqueror 05:07
2. Lies 06:15
3. Eat Shit & Die 05:27
4. The Watch (Rehearsal '90) 05:28
******************************
Total playing time: 22:17

[more=Extended info]This demo was recorded at Norsk Lydskole A/S during a two-day period.[/more]

[more=Technical info]
Input File: 01-The Conqueror.mp3
Channels : 2
Sample Rate : 44100
Precision : 16-bit
Duration : 00:05:07.84 = 13575788 samples = 23088.1 CDDA sectors
File Size : 7.39M
Bit Rate : 192k
Sample Encoding: MPEG audio (layer I, II or III)
Comments :
Title=The Conqueror
Artist=Decadence (Nor)
Album=Demotape 1989
Tracknumber=01
Year=1989
Genre=Thrash Metal

[/more]

Register
(16) after21allD, Evilded, gwar, infiltrator, metala, Olethros, Reverend, Rosen, Rudolfo_Metal, scorpionmk, stumpheavyrock, thenecromancer, traitor666, Wail, wgs73, Z28517,
Sep 15 2020, 13:11:10 Nefarious - 1993 Demo [demo] (1993)


*Artist: Nefarious
*Album: 1993 Demo [demo]
*Year: 1993
*Genre: Death Metal
*Country: United States
*Format: mp3@CBR192kbps
*Size: 19MB

Tracklist:
1. Will It Ever End? 03:32
2. Mung Party 02:14
3. Beyond The Shadsows Of Sin 02:14
4. Drawn Entrails 01:10
5. Odius Indulgence 02:27
6. Lobotomy By Sodomy 02:37
******************************
Total playing time: 14:14

[more=Extended info]Band from Silver Spring, Maryland.[/more]

[more=Technical info]
Input File: 01-Will It Ever End.mp3
Channels : 2
Sample Rate : 44100
Precision : 16-bit
Duration : 00:03:23.51 = 8974571 samples = 15262.9 CDDA sectors
File Size : 4.89M
Bit Rate : 192k
Sample Encoding: MPEG audio (layer I, II or III)
Comments :
Title=Will It Ever End
Artist=Nefarious (US, MD)
Album=1993 Demo
Tracknumber=01
Year=1993
Genre=Death Metal

[/more]

Register
(10) Evilded, infiltrator, LVXXVL, Olethros, Rosen, scorpionmk, stumpheavyrock, thenecromancer, Wail, wgs73,
Sep 14 2020, 15:00:22 The End - The End [ep] (1996)
new link:
Register
(1) Wail,
Sep 14 2020, 14:43:48 Agonizer - Mental Constrictor [demo] (1993)


*Artist: Agonizer
*Album: Mental Constrictor [demo]
*Year: 1993
*Genre: Death Metal
*Country: Italy
*Format: mp3@CBR320kbps
*Size: 70MB

Tracklist:
1. Agony / Obliteration 07:44
2. Joseph 06:40
3. Mental Constrictor 05:29
4. Gates Of Destruction 05:05
5. Society Of Darkness 05:00
6. Rebirth In Wilderness (Bonus Track) 04:31
******************************
Total playing time: 34:29



[more=Extended info]Recorded and mixed at HM Studios, Vigevano, Italy during May-June 1993.[/more]

[more=Technical info]
Input File: 02-Joseph.mp3
Channels : 2
Sample Rate : 44100
Precision : 16-bit
Duration : 00:06:40.59 = 17666019 samples = 30044.2 CDDA sectors
File Size : 16.0M
Bit Rate : 320k
Sample Encoding: MPEG audio (layer I, II or III)
Comments :
Title=Joseph
Artist=Agonizer (Ita)
Album=Mental Constrictor (Demo)
Tracknumber=02
Year=1993
Genre=Death Metal

[/more]

Register
(9) after21allD, andreikun, Evilded, infiltrator, Olethros, Reverend, Rosen, Wail, wanderer73,
Sep 14 2020, 13:45:39 Scapegoat - Scapegoat (1996)


*Artist: Scapegoat
*Album: Scapegoat
*Year: 1996
*Genre: Power Metal
*Country: Canada
*Format: mp3@CBR160kbps
*Size: 64MB

Tracklist:
1. Scapegoat Of Society 03:56
2. Hereditary Pain 05:58
3. Coalition 05:01
4. Unexplained Nightmare 06:21
5. Predictions 05:07
6. Red And White 05:33
7. D.O.T.A. 06:39
8. Mood Of A Warrior 04:36
9. Between Worlds 06:58
10. Ancient Games 06:53
******************************
Total playing time: 57:02



[more=Extended info]Band from Ontario.[/more]

[more=Technical info]
Input File: 01-Scapegoat of Society.mp3
Channels : 2
Sample Rate : 44100
Precision : 16-bit
Duration : 00:03:56.37 = 10423741 samples = 17727.5 CDDA sectors
File Size : 4.86M
Bit Rate : 164k
Sample Encoding: MPEG audio (layer I, II or III)
Comments :
Title=Scapegoat of Society
Artist=Scapegoat
Album=Scapegoat
Tracknumber=01
Year=1996
Genre=Metal

[/more]

Register
(10) boby9052, infiltrator, metala, Olethros, Reverend, Rosen, sergsazan, stumpheavyrock, Wail, Z28517,
Sep 14 2020, 13:17:18 Conniption - Conniption [ep] (1994)


*Artist: Conniption
*Album: Conniption [ep]
*Year: 1994
*Genre: Grindcore/Crust
*Country: United States
*Format: mp3@CBR192kbps
*Size: 14MB

Tracklist:
1. Pinata 00:37
2. Down The Drain 01:48
3. Trust Gods 00:40
4. Terminus 01:16
5. Polluted Science 01:22
6. Contaminated 01:15
7. Last Curtain 02:10
******************************
Total playing time: 9:08

[more=Technical info]
Input File: 01-Pinata.mp3
Channels : 2
Sample Rate : 44100
Precision : 16-bit
Duration : 00:00:37.62 = 1659130 samples = 2821.65 CDDA sectors
File Size : 904k
Bit Rate : 192k
Sample Encoding: MPEG audio (layer I, II or III)
Comments :
Title=Pinata
Artist=Conniption (US)
Album=Conniption (EP)
Tracknumber=01
Year=1994
Genre=Grindcore

[/more]

Register
(7) Evilded, infiltrator, Olethros, Rosen, stumpheavyrock, Wail, wgs73,
Sep 14 2020, 11:36:52 Scapegoat - Mest [demo] (1993)


*Artist: Scapegoat
*Album: Mest [demo]
*Year: 1993
*Genre: Progressive Thrash Metal
*Country: Canada
*Format: mp3@CBR128kbps
*Size: 37MB

Tracklist:
1. Materialist Domination 03:19
2. Scapegoat T'ill The End 05:00
3. Dealing On Peace 05:23
4. Instinctive Life 05:15
5. Hope In Distress 05:27
6. M.E.S.T. 07:54
7. Le Frère De L'amitie 05:05
8. Voiceless Wailing 03:32
******************************
Total playing time: 40:55



[more=Extended info]Band from Quebec.
Recorded and mixed in one week at Scorpion Studio, June 1993.
Engineered by Jean-Francois Bédard. Produced by Scapegoat.
[/more]

[more=Technical info]
Input File: 01-Materialist Domination.mp3
Channels : 2
Sample Rate : 44100
Precision : 16-bit
Duration : 00:03:11.09 = 8426849 samples = 14331.4 CDDA sectors
File Size : 3.06M
Bit Rate : 128k
Sample Encoding: MPEG audio (layer I, II or III)
Comments :
Title=Materialist Domination
Artist=Scapegoat
Album=Mest (Demo)
Tracknumber=01
Year=1993
Genre=Thrash Metal

[/more]

Register
(12) after21allD, Evilded, gwar, infiltrator, metala, Olethros, Reverend, Rosen, Spork, thenecromancer, Wail, Z28517,
Sep 11 2020, 14:54:20 Epitaph - Epitaph [demo] (1995)


*Artist: Epitaph
*Album: Epitaph [demo]
*Year: 1995
*Genre: Heavy/Power Metal
*Country: United States
*Format: mp3@CBR224kbps
*Size: 40MB

Tracklist:
1. Seasons 05:28
2. Crooked Man 04:43
3. Shattered 03:54
4. Prey 04:27
5. Macabre Pulsion 06:06
******************************
Total playing time: 24:38

[more=Extended info]Band from Minnesota.[/more]

[more=Technical info]
Input File: 01-Seasons.mp3
Channels : 2
Sample Rate : 44100
Precision : 16-bit
Duration : 00:05:28.10 = 14469078 samples = 24607.3 CDDA sectors
File Size : 9.19M
Bit Rate : 224k
Sample Encoding: MPEG audio (layer I, II or III)
Comments :
Title=Seasons
Artist=EPITAPH
Album=Demo`95
Tracknumber=01
Year=1995
Genre=Power Metal

[/more]

Register
(9) infiltrator, Olethros, Reverend, Rosen, stumpheavyrock, thenecromancer, Wail, wgs73, Z28517,
Sep 11 2020, 14:28:19 Gehenna - Valley Of Gore [demo] (1992)
ЦИТАТА(MP101M @ Apr 16 2019, 10:54:43) *
Does anyone have: "The Horror Begins..." demo 1991?
Thx.

new link:
Register


The Horror Begins is on moderation to this moment.
(2) thenecromancer, Wail,
Sep 11 2020, 14:05:47 Gehenna - Birth Of Vengeance [ep] (1994)


*Artist: Gehenna
*Album: Birth Of Vengeance [ep]
*Year: 1994
*Genre: Crust/Thrash Metal
*Country: United States
*Format: mp3@CBR128kbps
*Size: 11MB

Tracklist:
1. Birth Of Vengeance 01:31
2. A Universe's Demise 02:18
3. Testimony 01:24
4. Thirty Silver Pieces 01:08
5. Cave In 05:24
******************************
Total playing time: 11:45



[more=Extended info]Band from San Diego, California.[/more]

[more=Technical info]
Input File: 01-The Birth Of Vengeance.mp3
Channels : 2
Sample Rate : 44100
Precision : 16-bit
Duration : 00:01:31.55 = 4037311 samples = 6866.18 CDDA sectors
File Size : 1.47M
Bit Rate : 128k
Sample Encoding: MPEG audio (layer I, II or III)
Comments :
Title=The Birth Of Vengeance
Artist=Gehenna (US, CA)
Album=Birth Of Vengeance (EP)
Tracknumber=01
Year=1994
Genre=Metal

[/more]

Register
(9) Evilded, FUDEDOR, infiltrator, Olethros, Reverend, Rosen, stumpheavyrock, Wail, wgs73,
Sep 11 2020, 13:56:22 Gehenna - Gehenna [demo] (1994)


*Artist: Gehenna
*Album: Gehenna [demo]
*Year: 1994
*Genre: Crust/Thrash Metal
*Country: United States
*Format: mp3@CBR192kbps
*Size: 21MB

Tracklist:
1. 83% 03:59
2. Woodmaker 03:09
3. Bottom Line 03:03
4. Swarm 02:10
5. Dead Shell 02:54
******************************
Total playing time: 15:15



[more=Extended info]Band from San Diego, California.
Trax 4, 5 are bonuses taken from split w/Apartment 213.
[/more]

[more=Technical info]
Input File: 01-83%.mp3
Channels : 2
Sample Rate : 44100
Precision : 16-bit
Duration : 00:03:59.22 = 10549382 samples = 17941.1 CDDA sectors
File Size : 5.74M
Bit Rate : 192k
Sample Encoding: MPEG audio (layer I, II or III)
Comments :
Title=83%
Artist=Gehenna (US, CA)
Album=Gehenna (Demo)
Tracknumber=01
Year=1994
Genre=Metal

[/more]

Register
(8) Evilded, FUDEDOR, infiltrator, Olethros, Reverend, Rosen, stumpheavyrock, Wail,
Sep 11 2020, 13:38:12 Gehenna - The Horror Begins... [demo] (1991)


*Artist: Gehenna
*Album: The Horror Begins... [demo]
*Year: 1991
*Genre: Death Metal
*Country: United States
*Format: mp3@CBR192kbps
*Size: 35MB

Tracklist:
1. Beauty Of Gore 03:59
2. Decapitated 03:41
3. Grotesque Dismemberment 04:17
4. Cannibalistic Devourment 05:14
5. Human Inferno 03:59
6. Beauty Of Gore 04:00
******************************
Total playing time: 25:10



[more=Extended info]Band from Salix, Pennsylvania. Their first demo.[/more]

[more=Technical info]
Input File: 01-The Beauty Of Gore.mp3
Channels : 2
Sample Rate : 44100
Precision : 16-bit
Duration : 00:03:59.92 = 10580516 samples = 17994.1 CDDA sectors
File Size : 5.76M
Bit Rate : 192k
Sample Encoding: MPEG audio (layer I, II or III)
Comments :
Title=The Beauty Of Gore
Artist=Gehenna (US, PA)
Album=The Horror Begins... (Demo)
Tracknumber=01
Year=1991
Genre=Death Metal

[/more]

Register
(10) enslaver, Evilded, FUDEDOR, infiltrator, Olethros, Reverend, Rosen, stumpheavyrock, thenecromancer, Wail,
Sep 11 2020, 11:12:49 Tabletops - When She Sits Around The House...She Really Sits Around The House [demo] (1999)


*Artist: Tabletops
*Album: When She Sits Around The House...She Really Sits Around The House [demo]
*Year: 1999
*Genre: Thrash/Groove Metal
*Country: United States
*Format: mp3@CBR128kbps
*Size: 27MB

Tracklist:
1. W.A.M. Book 03:10
2. Sits Around The House 04:03
3. Genital Kick 03:04
4. R U My Lover Or R U Just A Corpse? 03:55
5. Missing Out 04:48
6. Sits Around The House (radio version) 04:03
7. Self-indulgent Fuck (almost live) 03:34
8. Rants (hidden track) 07:24
9. Fuckin Shit (hidden track) 00:16
******************************
Total playing time: 34:17



[more=Extended info]Band from Spring Hill, Florida.
Recorded & engineered at Panda Productions & Studios, Clearwater, Florida.
[/more]

[more=Technical info]
Input File: 01-W.A.M. Book.mp3
Channels : 2
Sample Rate : 44100
Precision : 16-bit
Duration : 00:03:10.68 = 8408768 samples = 14300.6 CDDA sectors
File Size : 3.77M
Bit Rate : 158k
Sample Encoding: MPEG audio (layer I, II or III)
Comments :
Title=W.AM. Book
Artist=TableTops
Album=When She Sits Around the House She Really Sits Around the House
Tracknumber=01
Year=1999
Genre=Heavy Metal

[/more]

Register
(4) infiltrator, Olethros, Rosen, stumpheavyrock,
Sep 10 2020, 14:27:50 Santa Muerte - Relatos En La Obscuridad [demo] (1998)


*Artist: Santa Muerte
*Album: Relatos En La Obscuridad [demo]
*Year: 1998
*Genre: Heavy/Thrash Metal
*Country: Mexico
*Format: mp3@CBR192kbps
*Size: 63MB

Tracklist:
1. Introducción (Toccata Y Fuga En Re Menor-Bach) 01:26
2. Canto A Lucifer (666) 07:50
3. Vida Después De La Muerte 05:14
4. Cielo, Infierno 07:05
5. El Vuelo Del Abejorro 01:12
6. En Las Puertas Del Infierno 04:45
7. Maldito Seas 07:08
8. La Presencia De La Bestia 05:18
9. Cautivo 05:25
******************************
Total playing time: 45:23

[more=Technical info]
Input File: 03-Vida Después De La Muerte.mp3
Channels : 2
Sample Rate : 44100
Precision : 16-bit
Duration : 00:05:09.38 = 13643746 samples = 23203.6 CDDA sectors
File Size : 7.43M
Bit Rate : 192k
Sample Encoding: MPEG audio (layer I, II or III)
Comments :
Title=Vida Después De La Muerte
Artist=Santa Muerte (Mex)
Album=Relatos En La Obscuridad (Demo)
Tracknumber=03
Year=1998
Genre=Metal

[/more]

Register
(9) ilsestomartire, infiltrator, Olethros, Reverend, Rosen, stumpheavyrock, thenecromancer, Wail, Z28517,
Sep 10 2020, 13:32:49 Tabletops - No Size Over 5 [ep] (1999)


*Artist: Tabletops
*Album: No Size Over 5 [ep]
*Year: 1999
*Genre: Thrash/Groove Metal
*Country: United States
*Format: mp3@CBR128kbps
*Size: 15MB

Tracklist:
1. The Monster's Back 04:05
2. 911... Please Hold 02:15
3. Night Of The Creeps 01:54
4. Lead Pipe 02:27
5. Evil Pumpkin Men From Hell 04:54
******************************
Total playing time: 15:35



[more=Extended info]Band from Spring Hill, Florida.[/more]

[more=Technical info]
Input File: 01-The Monster\'s Back.mp3
Channels : 2
Sample Rate : 44100
Precision : 16-bit
Duration : 00:04:05.40 = 10822184 samples = 18405.1 CDDA sectors
File Size : 4.25M
Bit Rate : 139k
Sample Encoding: MPEG audio (layer I, II or III)
Comments :
Title=The Monster's Back
Artist=TableTops
Album=No Size Over 5 (EP)
Tracknumber=01
Year=1999
Genre=Heavy Metal

[/more]

Register
(9) analbleeding, boby9052, gwar, infiltrator, metala, Olethros, Rosen, stumpheavyrock, Z28517,
Sep 10 2020, 13:11:24 Illegal Ideas - Quando La Musica Morira [ep] (1988)
new link:
Register
(2) thenecromancer, Wail,
Sep 10 2020, 13:07:40 Morbit - Incarnated Morbid Perversion [demo] (1993)
Their demo called "After Death" recorded in 1991 (without song titles, they sang in Russian and the band was named AFTER DEATH then):
Register
(2) thenecromancer, Wail,
Sep 10 2020, 12:56:03 Miscarriage - Your Child Will Be Dead [demo] (1992)


*Artist: Miscarriage
*Album: Your Child Will Be Dead [demo]
*Year: 1992
*Genre: Death Metal/Grindcore
*Country: Russian Federation
*Format: mp3@CBR192kbps
*Size: 23MB

Tracklist:
1. Visual Dismemberment 02:34
2. Unbalanced Agitated Finale 01:30
3. Ideology Of Common Sense 02:59
4. Miscarriage 01:29
5. Abnormal Susceptibility 04:17
6. Trembly Membrane 01:37
7. Interfluent By Inhibition 02:09
******************************
Total playing time: 16:35

[more=Extended info]Band from Moscow.
Recorded in June 1992.
[/more]

[more=Technical info]
Input File: 01-Visual Dismemberment.mp3
Channels : 2
Sample Rate : 44100
Precision : 16-bit
Duration : 00:02:34.76 = 6824872 samples = 11606.9 CDDA sectors
File Size : 3.72M
Bit Rate : 192k
Sample Encoding: MPEG audio (layer I, II or III)
Comments :
Title=Visual Dismemberment
Artist=Miscarriage
Album=Your Child Will Be Dead (Demo)
Tracknumber=01
Year=1992
Genre=Death Metal

[/more]

Register
(6) infiltrator, Olethros, Rosen, stumpheavyrock, Wail, wgs73,
Sep 8 2020, 12:05:41 Exorcist - Sound Tank [demo] (1995)
new link:
Register
(1) Wail,
Sep 8 2020, 12:01:56 Exorcist - When I Die [demo] (1994)
new link:
Register
(2) thenecromancer, Wail,
Sep 8 2020, 11:57:07 Inside Dead - Todestrieb [demo] (1996)
new link:
Register
(2) Wail, wanderer73,

511 Pages V   1 2 3 > » 
- Lo-Fi Version Support form
Copyrights and abuse reports form
Time is now: 19th September 2020 - 06:50:31

Состав ювентус 2014 незаменимый игрок в составе ювентуса.