Welcome Guest ( Log In | Register )

История благодарностей участнику Proteus_666 ::: Спасибо сказали: 86729 раз(а)
Дата поста: В теме: За сообщение: Спасибо сказали:
Jul 1 2020, 11:53:45 Gryn - Progression Of Aggression [ep] (1998)


*Artist: Gryn
*Album: Progression Of Aggression [ep]
*Year: 1998
*Genre: Thrash/Groove Metal
*Country: United States
*Format: mp3@CBR320kbps
*Size: 39MB

Tracklist:
1. Identity 02:59
2. Ignorant M.F. 03:43
3. Society Of Oppression 04:17
4. Progression Of Aggression 03:35
5. Speed Freak (Andrew) 04:25
******************************
Total playing time: 18:59

[more=Extended info]Band from Dallas, Texas.[/more]

[more=Technical info]
Input File: 01-Identity.mp3
Channels : 2
Sample Rate : 44100
Precision : 16-bit
Duration : 00:02:57.56 = 7830396 samples = 13317 CDDA sectors
File Size : 7.12M
Bit Rate : 321k
Sample Encoding: MPEG audio (layer I, II or III)
Comments :
Title=Identity
Artist=Gryn
Album=Progression Of Aggression EP
Tracknumber=01
Year=1998
Genre=Metal

[/more]

Register
(3) boby9052, gwar, Olethros,
Jul 1 2020, 11:29:31 Imperium - Concept Or Paradox [demo] (1991)
new link:
Register
(1) scorpionmk,
Jul 1 2020, 11:23:03 Asocial - Total Asocial [best of/compilation] (1995)
new link:
Register
(1) Wail,
Jul 1 2020, 10:59:31 Gryn - Our New Earth (2000)


*Artist: Gryn
*Album: Our New Earth
*Year: 2000
*Genre: Groove/Thrash Metal
*Country: United States
*Format: mp3@CBR192kbps
*Size: 68MB

Tracklist:
1. O.N.E. 03:49
2. Tabula Rasa 02:54
3. Inside Of Me 03:42
4. Shyne 04:45
5. Human Warfare 04:04
6. Piece Of The Puzzle 03:10
7. Mentality 03:45
8. Veto II 03:17
9. The Blood 04:26
10. G.R.Y.N. 08:01
11. Bonus Hidden Track 07:54
******************************
Total playing time: 49:47

[more=Extended info]Band from Dallas, Texas.
Recorded at Last Beat Studios, Dallas, TX.
[/more]

[more=Technical info]
Input File: 01-O.N.E..mp3
Channels : 2
Sample Rate : 44100
Precision : 16-bit
Duration : 00:03:49.50 = 10120818 samples = 17212.3 CDDA sectors
File Size : 5.51M
Bit Rate : 192k
Sample Encoding: MPEG audio (layer I, II or III)
Comments :
Title=O.N.E.
Artist=Gryn (US, TX)
Album=Our New Earth
Tracknumber=01
Year=2000
Genre=Metal

[/more]

Register
(3) boby9052, gwar, Olethros,
Jul 1 2020, 10:45:20 Gryn - Capital Punishment (1995)


*Artist: Gryn
*Album: Capital Punishment
*Year: 1995
*Genre: Thrash/Groove Metal
*Country: United States
*Format: mp3@CBR192kbps
*Size: 40MB

Tracklist:
1. Capital Punishment 03:13
2. No Fear 04:07
3. Strenght In Numbers 04:03
4. Victim 05:45
5. Life Kills You / Pregnant Pain 09:38
6. The Chase 02:08
******************************
Total playing time: 28:54

[more=Extended info]Band from Dallas, Texas.[/more]

[more=Technical info]
Input File: 01-Capital Punishment.mp3
Channels : 2
Sample Rate : 44100
Precision : 16-bit
Duration : 00:03:13.63 = 8539083 samples = 14522.2 CDDA sectors
File Size : 4.65M
Bit Rate : 192k
Sample Encoding: MPEG audio (layer I, II or III)
Comments :
Title=Capital Punishment
Artist=Gryn (US, TX)
Album=Capital Punishment
Tracknumber=01
Year=1995
Genre=Thrash Metal

[/more]

Register
(4) analbleeding, boby9052, gwar, Olethros,
Jul 1 2020, 10:21:51 Imperium - State Of The Art [demo] (1990)


*Artist: Imperium
*Album: State Of The Art [demo]
*Year: 1990
*Genre: Progressive/Power/Thrash Metal
*Country: Netherlands
*Format: mp3@CBR192kbps
*Size: 27MB

Tracklist:
1. Beyond Infinity / Resolve Into Desistance 06:12
2. Dementia 03:47
3. Abyssmal Regression 04:59
4. Hate Kills 04:32
5. Pieces 00:43
******************************
Total playing time: 20:13



[more=Extended info]Recorded at Franz K. Studios, Witten, Germany, 23-26 November 1990.[/more]

[more=Technical info]
Input File: 01-Beyond Infinity - Resolve Into Desistance.mp3
Channels : 2
Sample Rate : 44100
Precision : 16-bit
Duration : 00:06:12.47 = 16425927 samples = 27935.3 CDDA sectors
File Size : 8.94M
Bit Rate : 192k
Sample Encoding: MPEG audio (layer I, II or III)
Comments :
Title=Beyond Infinity (Intro) / Resolve Into Desistance
Artist=Imperium
Album=State of the Art (Demo)
Tracknumber=01
Year=1990
Genre=Metal

[/more]

Register
(2) Olethros, thenecromancer,
Jun 23 2020, 12:06:08 Sarcasmo - De Ocultis [demo] (2000)


*Artist: Sarcasmo
*Album: De Ocultis [demo]
*Year: 2000
*Genre: Death Metal
*Country: Mexico
*Format: mp3@CBR192kbps
*Size: 60MB

Tracklist:
1. Afectos Inplacenteros 04:32
2. El Retorno 05:57
3. Viscisitud 03:54
4. Fuga de Dudas 04:02
5. La Relación Inexistente (Instrumental History Act. VI) 04:56
6. Inconformidad Y Duda 04:39
7. Disolución de Ideas 06:10
8. Escape A La Verdad (Ficticia) 06:12
9. Intentos 05:53
******************************
Total playing time: 46:15

[more=Extended info]Recorded, engineered and mixed at MAT Studio, April, 2000.
Remastered at Spickat Studio.
[/more]

[more=Technical info]
Input File: 01-Afectos Inplacenteros.mp3
Channels : 2
Sample Rate : 44100
Precision : 16-bit
Duration : 00:03:57.73 = 10483717 samples = 17829.5 CDDA sectors
File Size : 5.71M
Bit Rate : 192k
Sample Encoding: MPEG audio (layer I, II or III)
Comments :
Title=Afectos Inplacenteros
Artist=Sarcasmo (Mex)
Album=De Ocultis (Demo)
Tracknumber=01
Year=2000
Genre=Death Metal

[/more]

Register
(6) Evilded, infiltrator, Olethros, stumpheavyrock, thenecromancer, Wail,
Jun 23 2020, 11:51:50 Soulless Domain - Hymns Of Bravery [demo] (2001)


*Artist: Soulless Domain
*Album: Hymns Of Bravery [demo]
*Year: 2001
*Genre: Death Metal
*Country: Mexico
*Format: mp3@CBR192kbps
*Size: 21MB

Tracklist:
1. Land Of Black Ashes 03:57
2. Waiting A Soul 03:26
3. Golden Sign 05:03
4. Hymns Of Bravery 03:35
******************************
Total playing time: 16:01

[more=Extended info]Recorded at Esfera Studios between 8th and 9th October, 2000.
For fans of Swedish melodeath.
[/more]

[more=Technical info]
Input File: 01-Land of Black Ashes.mp3
Channels : 2
Sample Rate : 44100
Precision : 16-bit
Duration : 00:03:47.67 = 10040203 samples = 17075.2 CDDA sectors
File Size : 5.46M
Bit Rate : 192k
Sample Encoding: MPEG audio (layer I, II or III)
Comments :
Title=Land of Black Ashes
Artist=Soulless Domain (Mex)
Album=Hymns of Bravery (Demo)
Tracknumber=01
Year=2001
Genre=Death Metal

[/more]

Register
(6) Evilded, infiltrator, Olethros, scorpionmk, thenecromancer, Wail,
Jun 23 2020, 11:39:10 Sadomasochism - Demo [demo] (1999)


*Artist: Sadomasochism
*Album: Demo [demo]
*Year: 1999
*Genre: Death Metal
*Country: United States
*Format: mp3@CBR320kbps
*Size: 45MB

Tracklist:
1. Regius 03:11
2. Sodomize Your Soul 04:49
3. Fucking The Rotting Corpse 03:28
4. Pre-Manufactured Hatred 03:39
5. Soiled 04:24
6. Intestinal Remains 02:53
******************************
Total playing time: 22:24

[more=Extended info]Band from Grand Rapids, Michigan (pre- Flesh for the Beast).[/more]

[more=Technical info]
Input File: 02-Sodomize Your Soul.mp3
Channels : 2
Sample Rate : 44100
Precision : 16-bit
Duration : 00:04:49.50 = 12766818 samples = 21712.3 CDDA sectors
File Size : 11.6M
Bit Rate : 320k
Sample Encoding: MPEG audio (layer I, II or III)
Comments :
Title=Sodomize Your Soul
Artist=Sadomasochism (US, MI)
Album=Demo
Tracknumber=02
Year=1999
Genre=Death Metal

[/more]

Register
(8) boardd, Evilded, infiltrator, Olethros, scorpionmk, stumpheavyrock, thenecromancer, Wail,
Jun 23 2020, 11:21:31 Hologram - Into The Hologram [compilation] (1996)


*Artist: Hologram
*Album: Into The Hologram [compilation]
*Year: 1996
*Genre: Progressive/Thrash Metal
*Country: Mexico
*Format: mp3@CBR192kbps
*Size: 33MB

Tracklist:
1. Signed On Stone 04:21
2. Inner Sooth 03:27
3. Into The Hologram 04:08
4. Time Window 06:26
5. Out-there 03:40
6. Ordainer Of Reality 02:29
******************************
Total playing time: 24:31

[more=Technical info]
Input File: 04-Time Window.mp3
Channels : 2
Sample Rate : 44100
Precision : 16-bit
Duration : 00:06:26.19 = 17030759 samples = 28963.9 CDDA sectors
File Size : 9.27M
Bit Rate : 192k
Sample Encoding: MPEG audio (layer I, II or III)
Comments :
Title=Time Window
Artist=Hologram (Mex)
Album=Into the Hologram
Tracknumber=04
Year=1996
Genre=Metal

[/more]

Register
(8) Evilded, infiltrator, metala, Olethros, scorpionmk, stumpheavyrock, thenecromancer, Wail,
Jun 23 2020, 11:09:25 Golem - Mattana! [demo] (1987)


*Artist: Golem
*Album: Mattana! [demo]
*Year: 1987
*Genre: Heavy Metal
*Country: Italy
*Format: mp3@CBR320kbps
*Size: 63MB

Tracklist:
1. Evil On Sweet 07:06
2. Jolly Roger 06:01
3. Old Poker 11:41
4. Golem 03:11
******************************
Total playing time: 27:59

[more=Technical info]
Input File: 01-Evil On Sweet.mp3
Channels : 2
Sample Rate : 44100
Precision : 16-bit
Duration : 00:07:06.11 = 18791451 samples = 31958.2 CDDA sectors
File Size : 17.0M
Bit Rate : 320k
Sample Encoding: MPEG audio (layer I, II or III)
Comments :
Title=Evil On Sweet
Artist=Golem
Album=Mattana! (Demo)
Tracknumber=01
Year=1987
Genre=Heavy Metal

[/more]

Register
(6) boardd, Evilded, infiltrator, Olethros, Wail, wgs73,
Jun 23 2020, 10:56:13 Corpses - Echoes From The Grave [demo] (1991)


*Artist: Corpses
*Album: Echoes From The Grave [demo]
*Year: 1991
*Genre: Grindcore/Death Metal
*Country: Singapore
*Format: mp3@CBR128kbps
*Size: 11MB

Tracklist:
1. Intro 00:36
2. Griñd 01:49
3. Twistèd Cry 01:54
4. Bèhöld Thy Dööm 00:53
5. Rèålm Of Soüls 02:51
6. Griñd.2 01:46
7. Båck To The Grävé 00:59
8. Extro 00:42
******************************
Total playing time: 11:30

[more=Extended info]Recorded on 25.01. - 02.02.1991.[/more]

[more=Technical info]
Input File: 03-Twisted Cry.mp3
Channels : 2
Sample Rate : 44100
Precision : 16-bit
Duration : 00:01:54.79 = 5062195 samples = 8609.18 CDDA sectors
File Size : 1.84M
Bit Rate : 128k
Sample Encoding: MPEG audio (layer I, II or III)
Comments :
Title=Twisted Cry
Artist=Corpses
Album=Echoes From The Grave
Tracknumber=3
Year=1991
Genre=Death Metal

[/more]

Register
(8) boardd, Evilded, FUDEDOR, infiltrator, Olethros, scorpionmk, Wail, wgs73,
Jun 17 2020, 08:12:00 Screamer - Screamer [demo] (1990)


*Artist: Screamer
*Album: Screamer [demo]
*Year: 1990
*Genre: Heavy Metal
*Country: United States
*Format: mp3@CBR192kbps
*Size: 42MB

Tracklist:
1. Lust And Fury 05:04
2. Until Dawn 03:01
3. Forever More 04:16
4. Cold Blooded 02:59
5. Die 04:17
6. Play That Funky Music 02:52
7. Through Your Love 03:55
8. All Will Die 04:21
******************************
Total playing time: 30:45

[more=Extended info]Band from Wheeling, West Virginia.[/more]

[more=Technical info]
Input File: 01-Lust And Fury.mp3
Channels : 2
Sample Rate : 44100
Precision : 16-bit
Duration : 00:05:04.33 = 13421129 samples = 22825 CDDA sectors
File Size : 7.31M
Bit Rate : 192k
Sample Encoding: MPEG audio (layer I, II or III)
Comments :
Title=Lust And Fury
Artist=Screamer (US, WV)
Album=Demo 1990
Tracknumber=01
Year=1990
Genre=Heavy Metal

[/more]

Register
(5) infiltrator, Olethros, Reverend, Wail, wgs73,
Jun 17 2020, 08:01:57 Screamer - Give All Your Might [demo] (1987)


*Artist: Screamer
*Album: Give All Your Might [demo]
*Year: 1987
*Genre: Heavy Metal
*Country: United States
*Format: mp3@CBR192kbps
*Size: 37MB

Tracklist:
1. Beckoned To Me 02:45
2. Cold Blooded 02:53
3. Let Go 04:51
4. Give All Your Might 03:46
5. Watch Out 02:57
6. All Will Die 04:57
7. Need It So Much (Bonus) 04:27
******************************
Total playing time: 26:36



[more=Extended info]Band from Wheeling, West Virginia.
Track 7 was taken from "Rockin' U WNPQ" compilation (1987).
[/more]

[more=Technical info]
Input File: 01-Beckoned To Me.mp3
Channels : 2
Sample Rate : 44100
Precision : 16-bit
Duration : 00:02:45.79 = 7311471 samples = 12434.5 CDDA sectors
File Size : 3.98M
Bit Rate : 192k
Sample Encoding: MPEG audio (layer I, II or III)
Comments :
Title=Beckoned to Me
Artist=Screamer (US,WV)
Album=Give All Your Might (Demo)
Tracknumber=01
Year=1987
Genre=Heavy Metal

[/more]

Register
(6) infiltrator, Olethros, Reverend, stumpheavyrock, Wail, wgs73,
Jun 17 2020, 07:42:19 Screamer - Throw Down At Your Own Risk [demo] (1985)


*Artist: Screamer
*Album: Throw Down At Your Own Risk [demo]
*Year: 1985
*Genre: Heavy Metal
*Country: United States
*Format: mp3@CBR192kbps
*Size: 31MB

Tracklist:
1. Throw Down 03:08
2. Busted 04:29
3. Settle The Score 03:03
4. Your Daddy Don't Like Me 03:05
5. She'll Be Gone 05:24
6. Armies Of The Night 03:47
******************************
Total playing time: 22:56

[more=Extended info]Band from Houston, Texas.[/more]

[more=Technical info]
Input File: 01-Throw Down.mp3
Channels : 2
Sample Rate : 44100
Precision : 16-bit
Duration : 00:03:08.97 = 8333401 samples = 14172.5 CDDA sectors
File Size : 4.54M
Bit Rate : 192k
Sample Encoding: MPEG audio (layer I, II or III)
Comments :
Title=Throw Down
Artist=Screamer
Album=Throw Down At Your Own Risk (Demo)
Tracknumber=01
Year=1985
Genre=Heavy/Power Metal

[/more]

Register
(6) infiltrator, Olethros, Reverend, stumpheavyrock, Wail, wgs73,
Jun 17 2020, 07:20:58 Psychopatic Terror - Demo [demo] (1990)


*Artist: Psychopatic Terror
*Album: Demo [demo]
*Year: 1990
*Genre: Grindcore/Noise
*Country: Brazil
*Format: mp3@CBR192kbps
*Size: 12MB

Tracklist:
1. Parasite Worm 00:11
2. Posers 00:41
3. Psychopatic Butcher 00:23
4. Noise Torment 00:23
5. Pussy Fucker 00:36
6. Rancid Shit 00:44
7. Vomit Scurfs 00:48
8. Hate And Terror 00:32
9. Sonic Triturator 00:52
10. Genital Aberration 03:59
******************************
Total playing time: 9:09

[more=Extended info]Another obscure rehearsal shit.[/more]

[more=Technical info]
Input File: 02-Posers.mp3
Channels : 2
Sample Rate : 44100
Precision : 16-bit
Duration : 00:00:41.99 = 1851539 samples = 3148.88 CDDA sectors
File Size : 1.01M
Bit Rate : 192k
Sample Encoding: MPEG audio (layer I, II or III)
Comments :
Title=Posers
Artist=Psychopatic Terror
Album=Demo '90
Tracknumber=02
Year=1990
Genre=Grindcore

[/more]

Register
(6) FUDEDOR, infiltrator, Olethros, stumpheavyrock, Wail, wgs73,
Jun 17 2020, 07:10:01 The Saturday - Siege Of Flower [demo] (1990)


*Artist: The Saturday
*Album: Siege Of Flower [demo]
*Year: 1990
*Genre: Death Metal
*Country: Brazil
*Format: mp3@CBR192kbps
*Size: 20MB

Tracklist:
1. Only In It For Ourselves 04:56
2. Let The Flowers Speak 03:00
3. Hellcrazy, Hellcrowd (Evilcrazy, Evilcrawlers) 00:47
4. Pseudo-Rotten Sons of Human Superiority Complex 02:56
5. All It Against Jokers 03:12
******************************
Total playing time: 14:51

[more=Extended info]Obscure joke band.[/more]

[more=Technical info]
Input File: 01- Only In It For Ourselves.mp3
Channels : 2
Sample Rate : 44100
Precision : 16-bit
Duration : 00:04:56.50 = 13075826 samples = 22237.8 CDDA sectors
File Size : 7.12M
Bit Rate : 192k
Sample Encoding: MPEG audio (layer I, II or III)
Comments :
Title=Only In It For Ourselves
Artist=The Saturday
Album=Siege of Flower (Demo)
Tracknumber=01
Year=1990
Genre=Death Metal

[/more]

Register
(6) FUDEDOR, infiltrator, Olethros, scorpionmk, stumpheavyrock, Wail,
Jun 17 2020, 06:37:56 Naglefaroth - Arrival [demo] (1993)


*Artist: Naglefaroth
*Album: Arrival [demo]
*Year: 1993
*Genre: Death/Doom Metal
*Country: Mexico
*Format: mp3@CBR192kbps
*Size: 26MB

Tracklist:
1. Arrival 06:08
2. Constant Hate 05:06
3. Don't Fall Back 05:23
4. Agony 02:20
******************************
Total playing time: 18:57

[more=Technical info]
Input File: 01-Arrival.mp3
Channels : 2
Sample Rate : 44100
Precision : 16-bit
Duration : 00:06:08.73 = 16261169 samples = 27655 CDDA sectors
File Size : 8.85M
Bit Rate : 192k
Sample Encoding: MPEG audio (layer I, II or III)
Comments :
Title=Arrival
Artist=Naglefaroth (Mex)
Album=Arrival (Demo)
Tracknumber=01
Year=1993
Genre=Death Metal

[/more]

Register
(8) infiltrator, Reverend, scorpionmk, Sphinx7, stumpheavyrock, thenecromancer, VALERY, Wail,
Jun 17 2020, 06:29:34 Pigsty - Creatio Ex Nihilo (1998)


*Artist: Pigsty
*Album: Creatio Ex Nihilo
*Year: 1998
*Genre: Death Metal/Grindcore
*Country: Mexico
*Format: mp3@CBR192kbps
*Size: 59MB

Tracklist:
1. Intro (Memento Homo) / UnchainTo Successor 08:10
2. Wisdom 03:44
3. Ario 05:13
4. Spasm Of Conscience 03:53
5. Love Yourself 04:00
6. Witness 04:08
7. Monotony Existence 03:37
8. Mare Imbrium 06:37
9. In Cihuatotollin (Outro) 01:32
******************************
Total playing time: 40:54



[more=Extended info]Tape version.[/more]

[more=Technical info]
Input File: 02-Wisdom.mp3
Channels : 2
Sample Rate : 44100
Precision : 16-bit
Duration : 00:03:44.04 = 9880076 samples = 16802.9 CDDA sectors
File Size : 5.38M
Bit Rate : 192k
Sample Encoding: MPEG audio (layer I, II or III)
Comments :
Title=Wisdom
Artist=Pigsty (Mex)
Album=Creatio Ex Nihilio
Tracknumber=02
Year=1998
Genre=Death Metal

[/more]

Register
(7) Evilded, FUDEDOR, infiltrator, jollo, Olethros, scorpionmk, stumpheavyrock,
Jun 15 2020, 17:19:26 Sashay - Looking For Some Action [single] (1986)


*Artist: Sashay
*Album: Looking For Some Action [single]
*Year: 1986
*Genre: Heavy Metal
*Country: United States
*Format: mp3@CBR320kbps
*Size: 14MB

Tracklist:
1. Looking For Some Action 03:05
2. Together 03:31
******************************
Total playing time: 6:36

[more=Extended info]Band from Everett,Washington.[/more]

[more=Technical info]
Input File: 01-Looking For Some Action.mp3
Channels : 2
Sample Rate : 44100
Precision : 16-bit
Duration : 00:03:05.12 = 8163660 samples = 13883.8 CDDA sectors
File Size : 7.41M
Bit Rate : 320k
Sample Encoding: MPEG audio (layer I, II or III)
Comments :
Title=Looking For Some Action
Artist=Sashay
Album=Looking For Some Action / Together 7"
Tracknumber=01
Year=1986
Genre=Heavy Metal

[/more]

Register
(7) HMHamster, infiltrator, Olethros, senecazm, varlam4, Wail, wgs73,
Jun 15 2020, 17:08:41 Mental Captivity - Perspective Of Reality (2002)


*Artist: Mental Captivity
*Album: Perspective Of Reality
*Year: 2002
*Genre: Heavy Metal
*Country: Netherlands
*Format: mp3@CBR192kbps
*Size: 52MB

Tracklist:
1. Shade Into Grey 05:02
2. Perspective Of Reality 03:40
3. Mental Captivity 06:40
4. Tomorrow 06:08
5. March Of Time 04:25
6. The Swamp 05:36
7. Le Horla 06:20
******************************
Total playing time: 37:51

[more=Extended info]Recorded at studio Moskou, Utrecht, August 11 - September 16, 2001.
Mixed at studio Moskou, Utrecht, October 8-16, 2001.
Produced by Mental Captivity.
[/more]

[more=Technical info]
Input File: 01-Shade Into Grey.mp3
Channels : 2
Sample Rate : 44100
Precision : 16-bit
Duration : 00:05:01.36 = 13290064 samples = 22602.1 CDDA sectors
File Size : 7.23M
Bit Rate : 192k
Sample Encoding: MPEG audio (layer I, II or III)
Comments :
Title=Shade Into Grey
Artist=Mental Captivity (Hol)
Album=Perspective of Reality
Tracknumber=01
Year=2002
Genre=Heavy Metal

[/more]

Register
(8) infiltrator, Lukittaz, metalwoman, Olethros, SAPOGi, sergsazan, stumpheavyrock, Wail,
Jun 14 2020, 12:07:31 Marduk - Bel - Marduk! [demo] (1990)


*Artist: Marduk
*Album: Bel - Marduk! [demo]
*Year: 1990
*Genre: Heavy/Thrash Metal
*Country: Mexico
*Format: mp3@CBR192kbps
*Size: 39MB

Tracklist:
1. Caballero De La Noche 04:00
2. Rey De Las Bestias 03:04
3. Santifícate 03:48
4. Hijos Del Sol 04:43
5. Bel-Marduk 03:36
6. Dueños Del Futuro 03:42
7. Apocalipsis 04:27
8. Mujer Maldita 02:25
******************************
Total playing time: 29:45

[more=Extended info]pre-Votan.[/more]

[more=Technical info]
Input File: 01-Caballero de La Noche.mp3
Channels : 2
Sample Rate : 44100
Precision : 16-bit
Duration : 00:04:25.97 = 11729057 samples = 19947.4 CDDA sectors
File Size : 6.38M
Bit Rate : 192k
Sample Encoding: MPEG audio (layer I, II or III)
Comments :
Title=Caballero de La Noche
Artist=Marduk (Mex)
Album=Bel Marduk (Demo)
Tracknumber=01
Year=1990
Genre=Metal

[/more]

Register
(5) infiltrator, Olethros, Reverend, Wail, wgs73,
Jun 14 2020, 09:15:19 Living Mortem - Wicked Awaken For The Evil [demo] (1994)


*Artist: Living Mortem
*Album: Wicked Awaken For The Evil [demo]
*Year: 1994
*Genre: Death/Black Metal
*Country: Mexico
*Format: mp3@CBR192kbps
*Size: 31MB

Tracklist:
1. Wicked Awaken For The Evil 04:17
2. Liberation Of Visions From The Evil Land 04:24
3. Sickness From Beyond... Glorious Depravity 03:34
4. Immortal Perversity 06:46
5. Eternal Evocation 03:41
******************************
Total playing time: 22:42

[more=Extended info]Recorded and mixed at Lira International.[/more]

[more=Technical info]
Input File: 01-Wicked Awaken For the Evil.mp3
Channels : 2
Sample Rate : 44100
Precision : 16-bit
Duration : 00:04:17.24 = 11344284 samples = 19293 CDDA sectors
File Size : 6.17M
Bit Rate : 192k
Sample Encoding: MPEG audio (layer I, II or III)
Comments :
Title=Wicked Awaken For the Evil
Artist=Living Mortem (Mex)
Album=Wicked Awaken For the Evil (Demo)
Tracknumber=01
Year=1994
Genre=Death Metal

[/more]

Register
(7) craP_cillA, infiltrator, Olethros, scorpionmk, stumpheavyrock, Wail, wgs73,
Jun 13 2020, 14:04:06 Bloodthirsty - El Lado Oscuro De Gaia [demo] (1999)


*Artist: Bloodthirsty
*Album: El Lado Oscuro De Gaia [demo]
*Year: 1999
*Genre: Death Metal
*Country: Mexico
*Format: mp3@CBR192kbps
*Size: 49MB

Tracklist:
1. El Sendero 04:05
2. Hipocresy 02:22
3. Voces Del Astral 04:23
4. Sol Sangriento 03:16
5. Crying For The Dead 04:07
6. Desolación 04:19
7. Mantra Astral 05:36
8. Extraña Dimensión 03:41
9. Vampirela 04:20
******************************
Total playing time: 36:09



[more=Extended info]Recorded at M.A.T. Studio in 1999.[/more]

[more=Technical info]
Input File: 01-El Sendero.mp3
Channels : 2
Sample Rate : 44100
Precision : 16-bit
Duration : 00:04:05.54 = 10828182 samples = 18415.3 CDDA sectors
File Size : 5.89M
Bit Rate : 192k
Sample Encoding: MPEG audio (layer I, II or III)
Comments :
Title=El Sendero
Artist=Bloodthirsty (Mex)
Album=El Lado Oscuro de Gaia (Demo)
Tracknumber=01
Year=1999
Genre=Death Metal

[/more]

Register
(5) infiltrator, Olethros, Reverend, stumpheavyrock, Wail,
Jun 13 2020, 13:45:34 Bloodthirsty - Cry For The Death [demo] (1994)


*Artist: Bloodthirsty
*Album: Cry For The Death [demo]
*Year: 1994
*Genre: Death Metal
*Country: Mexico
*Format: mp3@CBR192kbps
*Size: 27MB

Tracklist:
1. Cry For The Death 04:16
2. Hipocryte 02:25
3. The Death Way 03:15
4. Epidemic 03:05
5. Toxic Killer 03:49
6. Sound Of War 03:33
******************************
Total playing time: 20:23



[more=Technical info]
Input File: 01-Cry For the Death.mp3
Channels : 2
Sample Rate : 44100
Precision : 16-bit
Duration : 00:04:16.54 = 11313194 samples = 19240.1 CDDA sectors
File Size : 6.16M
Bit Rate : 192k
Sample Encoding: MPEG audio (layer I, II or III)
Comments :
Title=Cry For the Death
Artist=Bloodthirsty (Mex)
Album=Cry For the Death (Demo)
Tracknumber=01
Year=1994
Genre=Death Metal

[/more]

Register
(5) infiltrator, Olethros, Reverend, stumpheavyrock, Wail,

497 Pages V   1 2 3 > » 
- Lo-Fi Version Support form
Copyrights and abuse reports form
Time is now: 3rd July 2020 - 20:47:28

Состав ювентус 2014 незаменимый игрок в составе ювентуса.