Welcome Guest ( Log In | Register )

История благодарностей участнику Proteus_666 ::: Спасибо сказали: 106584 раз(а)
Дата поста: В теме: За сообщение: Спасибо сказали:
Today, 13:51:30 Amazeroth - Promo '93 [demo] (1993)
320 kbps, 40 mb (from uaforever_ua):
Register
(2) Carcharoth, thenecromancer,
Today, 13:46:02 Amazeroth - Ten Świat... [demo] (1994)
320 kbps, 71 mb (from uaforever_ua):
Register
(1) Carcharoth,
Today, 12:08:12 Necrodeath & Ghostrider - Back To The Abyss [split] (2012)


*Artist: Necrodeath & Ghostrider
*Album: Back To The Abyss [split]
*Year: 2012
*Genre: Black/Thrash Metal | Black/Heavy/Thrash Metal
*Country: Italy | Italy
*Format: mp3@VBR282kbps
*Size: 123MB

Tracklist:
Necrodeath side:
1. (Necro) Thrashin' Death 04:53
2. Iconoclast 08:43
3. Mater Tenebrarum 05:26
4. Morbid Mayhem 05:26
Ghostrider side:
5. The Exorcist 04:59
6. Curse Of Valle Christi 04:10
7. Victim Of Necromancy 03:54
8. Doomed To Serve The Devil 04:47
9. The Exorcist 05:07
10. Black Archangel 04:47
11. Ride For Your Life 04:09
12. Curse Of Valle Christi 04:11
******************************
Total playing time: 1:00:32




[more=Extended info]Split CD released by Terror From Hell Records:
Songs 1-4: The Shining Pentagram demo '85 by Necrodeath.
Songs 5-8: Mayhemic Destruction demo '84 by Ghostrider.
Songs 9- 12: Unreleased bonus songs from a rehearsal in '84 by Ghostrider.
[/more]

[more=Technical info]
Input File: 01-Necrodeath - (Necro) Thrashin\' Death.mp3
Channels : 2
Sample Rate : 44100
Precision : 16-bit
Duration : 00:04:53.12 = 12926592 samples = 21984 CDDA sectors
File Size : 9.68M
Bit Rate : 264k
Sample Encoding: MPEG audio (layer I, II or III)
Comments :
Title=(Necro) Thrashin' Death
Artist=Necrodeath
Album=Back To The Abyss (Spilt)
Tracknumber=01
Year=2012
Genre=Thrash Metal

[/more]

Register
(4) cancer1974, Carcharoth, dulak, kefka,
Today, 11:24:26 Kretyn - Acid Rain [demo] (1991)


*Artist: Kretyn
*Album: Acid Rain [demo]
*Year: 1991
*Genre: Thrash Metal
*Country: United States
*Format: mp3@CBR192kbps
*Size: 18MB

Tracklist:
1. Acid Rain 03:15
2. Enemy Within 05:19
3. Isolated 04:57
******************************
Total playing time: 13:31

[more=Extended info]Band from Baltimore, Maryland.
Recorded and mixed at Falling Sound Studio, Baltimore, Maryland on the 8th, 14th and 24th November 1991.
[/more]

[more=Technical info]
Input File: 01-Acid Rain.mp3
Channels : 2
Sample Rate : 44100
Precision : 16-bit
Duration : 00:03:15.12 = 8604748 samples = 14633.9 CDDA sectors
File Size : 4.68M
Bit Rate : 192k
Sample Encoding: MPEG audio (layer I, II or III)
Comments :
Title=Acid Rain
Artist=Kretyn (US, MD)
Album=Acid Rain (Demo)
Tracknumber=01
Year=1991
Genre=Thrash Metal

[/more]

Register
(2) after21allD, Carcharoth,
Today, 11:16:13 Dark Cell - Promised Lands/Evilution [demo] (1999)


*Artist: Dark Cell
*Album: Promised Lands/Evilution [demo]
*Year: 1999
*Genre: Groove/Thrash Metal
*Country: United Kingdom
*Format: mp3@CBR192kbps
*Size: 11MB

Tracklist:
1. Promised Lands 03:27
2. Evilution 05:05
******************************
Total playing time: 8:32

[more=Technical info]
Input File: 01-Promised Lands.mp3
Channels : 2
Sample Rate : 44100
Precision : 16-bit
Duration : 00:03:27.92 = 9169272 samples = 15594 CDDA sectors
File Size : 4.99M
Bit Rate : 192k
Sample Encoding: MPEG audio (layer I, II or III)
Comments :
Title=Promised Lands
Artist=Dark Cell (UK)
Album=Promised Lands / Evilution (Demo)
Tracknumber=01
Year=1999
Genre=Metal

[/more]

Register
(2) after21allD, Carcharoth,
Today, 11:02:45 Blackeye - In My Darkest Hour [ep] (2004)


*Artist: Blackeye
*Album: In My Darkest Hour [ep]
*Year: 2004
*Genre: Progressive Thrash/Power Metal
*Country: United Kingdom
*Format: mp3@CBR192kbps
*Size: 36MB

Tracklist:
1. Depleted 03:40
2. Knuckle Duster 02:38
3. Tarnish 03:35
4. Medusa 03:37
5. Seven Gates 04:53
6. BlackEye 04:00
7. In My Darkest Hour 04:52
******************************
Total playing time: 27:15

[more=Technical info]
Input File: 01-Depleted.mp3
Channels : 2
Sample Rate : 44100
Precision : 16-bit
Duration : 00:03:40.62 = 9729166 samples = 16546.2 CDDA sectors
File Size : 5.30M
Bit Rate : 192k
Sample Encoding: MPEG audio (layer I, II or III)
Comments :
Title=Depleted
Artist=Blackeye (UK)
Album=In My Darkest Hour (EP)
Tracknumber=01
Year=2004
Genre=Metal

[/more]

Register
(1) after21allD,
Yesterday, 16:26:39 Skweeg - Wattevr (1999)


*Artist: Skweeg
*Album: Wattevr
*Year: 1999
*Genre: Industrial/Thrash Metal
*Country: United States
*Format: mp3@CBR320kbps
*Size: 88MB

Tracklist:
1. Victim 03:27
2. Fit For A King 02:29
3. Live For Today 02:43
4. One Mind One Voice 03:05
5. Slap You Down 03:31
6. Sun Crusher 03:15
7. Zsycho Babble 04:21
8. Night Dawning 03:31
9. The Upper Hand 04:12
10. Reciprocate 02:40
11. Bio Nuclear Propulsion Generator 02:47
12. Wattevr 03:52
******************************
Total playing time: 39:53



[more=Extended info]Band from Dallas, Texas.[/more]

[more=Technical info]
Input File: 01-Victim.mp3
Channels : 2
Sample Rate : 44100
Precision : 16-bit
Duration : 00:03:27.64 = 9156704 samples = 15572.6 CDDA sectors
File Size : 8.31M
Bit Rate : 320k
Sample Encoding: MPEG audio (layer I, II or III)
Comments :
Title=Victim
Artist=Skwee-G
Album=Wattevr
Tracknumber=01
Year=1999
Genre=Metal

[/more]

Register
(3) boby9052, Carcharoth, Taakeferd,
Yesterday, 15:25:09 Scrotum - Woodenshoe Penetration [demo] (2003)


*Artist: Scrotum
*Album: Woodenshoe Penetration [demo]
*Year: 2003
*Genre: Death Metal
*Country: Netherlands
*Format: mp3@CBR320kbps
*Size: 51MB

Tracklist:
1. Woodenshoe Penetration 04:54
2. Genital Snatcher 05:12
3. Alter Ego's Blame 03:55
4. Lager Beer 02:53
5. Mighty Brontopenis 05:26
******************************
Total playing time: 22:20



[more=Extended info]Thanx T-Mags Crew for ripping this demo![/more]

[more=Technical info]
Input File: 01-Woodenshoe Penetration.mp3
Channels : 2
Sample Rate : 48000
Precision : 16-bit
Duration : 00:04:54.44 = 14132880 samples ~ 22082.6 CDDA sectors
File Size : 12.6M
Bit Rate : 342k
Sample Encoding: MPEG audio (layer I, II or III)
Comments :
Title=Woodenshoe Penetration
Artist=Scrotum
Album=Woodenshoe Penetration
Tracknumber=01
Year=2003
Genre=Death Metal

[/more]

Register
(5) Marek, Olethros, spazm, Svafrlami, wanderer73,
Yesterday, 14:53:47 Cretin - The Demos 1988, 1989 & 1990 [compilation] (2020)


*Artist: Cretin
*Album: The Demos 1988, 1989 & 1990 [compilation]
*Year: 2020
*Genre: Thrash Metal
*Country: Netherlands
*Format: mp3@CBR128kbps
*Size: 40MB

Tracklist:
1. The Train 06:33
2. Proud 2 Be 03:35
3. Sick World 05:57
4. Short Cut 05:18
5. Foul Play 04:43
6. Hazardous 04:30
7. Maniac 04:48
8. Microwaves 02:09
9. Sabotism 03:55
10. Nut On Vacation 02:22
******************************
Total playing time: 43:50



[more=Extended info]CD released on Headbangers Records:
Track 1-4: "Now They Know" demo 2.
Track 5-6: "Strike Three" previously unreleased third demo.
Track 7-10: "Not Very Pleased..... With the Way Things Are!" demo 1.
[/more]

[more=Technical info]
Input File: 01-The Train.mp3
Channels : 2
Sample Rate : 44100
Precision : 16-bit
Duration : 00:06:33.97 = 17374121 samples = 29547.8 CDDA sectors
File Size : 6.30M
Bit Rate : 128k
Sample Encoding: MPEG audio (layer I, II or III)
Comments :
Title=The Train
Artist=Cretin (Hol)
Album=The Demos 1988, 1989 & 1990
Tracknumber=01
Year=2020
Genre=Thrash Metal

[/more]

Register
(5) Carcharoth, METALHUNTER, Olethros, stumpheavyrock, wanderer73,
Yesterday, 14:36:43 Skweeg - Skweeg (1996)


*Artist: Skweeg
*Album: Skweeg
*Year: 1996
*Genre: Groove/Thrash Metal
*Country: United States
*Format: mp3@CBR320kbps
*Size: 96MB

Tracklist:
1. Pull 02:46
2. Don't Sleep 03:09
3. Self Destruct 03:29
4. Burned 03:23
5. Sludge 03:36
6. BFG 9000 03:56
7. Blood Bounces On Ice 03:22
8. Non-Linear Existence 02:40
9. Complete Bastard 03:10
10. Snap 03:29
11. Chingaleda 16:17
******************************
Total playing time: 49:17




[more=Extended info]Band from Dallas, Texas.[/more]

[more=Technical info]
Input File: 01-Pull.mp3
Channels : 2
Sample Rate : 44100
Precision : 16-bit
Duration : 00:02:47.30 = 7377930 samples = 12547.5 CDDA sectors
File Size : 8.24M
Bit Rate : 394k
Sample Encoding: MPEG audio (layer I, II or III)
Comments :
Title=Pull
Artist=Skweeg
Album=Skweeg
Tracknumber=01
Year=1996
Genre=Industrial Metal

[/more]

Register
(6) boby9052, metala, METALHUNTER, Olethros, stumpheavyrock, Svafrlami,
Yesterday, 14:23:51 Captain Crush - Grounded (1996)


*Artist: Captain Crush
*Album: Grounded
*Year: 1996
*Genre: Groove/Thrash Metal
*Country: United States
*Format: mp3@CBR320kbps
*Size: 92MB

Tracklist:
1. Wasting My Breath 03:41
2. Trampled 04:17
3. U.N.I. 04:21
4. Jeffrey 04:32
5. Selfophobic 04:36
6. Split Endz 03:51
7. A.D.C. 00:47
8. Twisted Fate 05:14
9. Omega Man 03:30
10. Visions Of Chaos 04:19
******************************
Total playing time: 39:08



[more=Extended info]Band from Elk Grove Village, Illinois.[/more]

[more=Technical info]
Input File: 01-Wasting My Breath.mp3
Channels : 2
Sample Rate : 44100
Precision : 16-bit
Duration : 00:03:41.14 = 9752318 samples = 16585.6 CDDA sectors
File Size : 9.02M
Bit Rate : 326k
Sample Encoding: MPEG audio (layer I, II or III)
Comments :
Title=Wasting My Breath
Artist=Captain Crush
Album=Grounded
Tracknumber=01
Year=1996
Genre=Metal

[/more]

Register
(5) boby9052, metala, Olethros, stumpheavyrock, Svafrlami,
Oct 16 2021, 07:23:42 Headstrong - Days Of Darkness [demo] (1990)


*Artist: Headstrong
*Album: Days Of Darkness [demo]
*Year: 1990
*Genre: Power Metal
*Country: United Kingdom
*Format: mp3@CBR128kbps
*Size: 16MB

Tracklist:
1. Settle The Score 04:36
2. Days Of Darkness 04:12
3. Out In The Cold 05:53
4. Miss Issippi Missed 03:13
******************************
Total playing time: 17:54

[more=Technical info]
Input File: 01-Settle The Score.mp3
Channels : 2
Sample Rate : 44100
Precision : 16-bit
Duration : 00:04:36.51 = 12194223 samples = 20738.5 CDDA sectors
File Size : 4.43M
Bit Rate : 128k
Sample Encoding: MPEG audio (layer I, II or III)
Comments :
Title=Settle The Score
Artist=Headstrong (UK)
Album=Days of Darkness (Demo)
Tracknumber=01
Year=1990
Genre=Heavy Metal

[/more]

Register
(9) after21allD, Carcharoth, dimcho0, metalwoman, Olethros, Reverend, stumpheavyrock, wgs73, Z28517,
Oct 16 2021, 06:54:57 Impact - The Flag (1987)


*Artist: Impact
*Album: The Flag
*Year: 1987
*Genre: Heavy Metal
*Country: Netherlands
*Format: mp3@CBR192kbps
*Size: 80MB

Tracklist:
1. No Sleep 03:59
2. She Fascinates Me 03:57
3. Missing Persons 03:37
4. Titanic 04:01
5. Rocking In The Name Of The Lord 03:52
6. Straight To The Top 03:47
7. Eat Your Heart Out 03:56
8. Symbol Of The Flag 04:00
9. Save My Life 04:01
10. Streetwise 03:57
11. You And I 03:30
12. Red Tape 04:25
13. Absolutely 03:39
14. Symbol Of The Flag 04:00
15. You And I 03:43
******************************
Total playing time: 58:24



[more=Extended info]Tracks 1-13:
- Recorded at Excess Studios, Rotterdam, Netherlands.
- Recorded Aug./Sept. 1987 at the Church Vlaardingen.
Tracks 14-15:
- Recorded, mixed and produced by André Borgman.
[/more]

[more=Technical info]
Input File: 01-No Sleep.mp3
Channels : 2
Sample Rate : 44100
Precision : 16-bit
Duration : 00:04:00.47 = 10604683 samples = 18035.2 CDDA sectors
File Size : 5.77M
Bit Rate : 192k
Sample Encoding: MPEG audio (layer I, II or III)
Comments :
Title=No Sleep
Artist=Impact (Hol)
Album=The Flag
Tracknumber=01
Year=1987
Genre=Heavy Metal

[/more]

Register
(6) after21allD, dimcho0, metala, Olethros, Reverend, wgs73,
Oct 16 2021, 04:59:25 Headstrong - Head First (1991)


*Artist: Headstrong
*Album: Head First
*Year: 1991
*Genre: Power Metal
*Country: United Kingdom
*Format: mp3@CBR128kbps
*Size: 33MB

Tracklist:
1. Bring Them Back Alive 03:32
2. Headstrong Girl 03:05
3. Stand Your Ground 03:48
4. Prelude To A Dream 01:48
5. Lady Big Dreamer 02:26
6. When The World Fell Down 04:04
7. Too Good For Loving 03:27
8. The Hunger 04:47
9. Angel On The Run 03:29
10. The Flame Of Life And Death 05:38
******************************
Total playing time: 36:04

[more=Technical info]
Input File: 01-Bring Them Back Alive.mp3
Channels : 2
Sample Rate : 44100
Precision : 16-bit
Duration : 00:03:32.38 = 9365826 samples = 15928.3 CDDA sectors
File Size : 3.40M
Bit Rate : 128k
Sample Encoding: MPEG audio (layer I, II or III)
Comments :
Title=Bring Them Back Alive
Artist=Headstrong (UK)
Album=Head First
Tracknumber=01
Year=1991
Genre=Heavy Metal

[/more]

Register
(7) boby9052, metala, metalwoman, Olethros, Reverend, stumpheavyrock, wgs73,
Oct 16 2021, 04:04:00 Mortifix - Eternal Pain [demo] (1994)
new link:
Register
(5) dermarsoran, hell_armageddon, thenecromancer, traitor666, Z28517,
Oct 16 2021, 03:50:43 Mortifix - Darkened Truth [demo] (1992)


*Artist: Mortifix
*Album: Darkened Truth [demo]
*Year: 1992
*Genre: Death/Thrash Metal
*Country: United States
*Format: mp3@CBR256kbps
*Size: 10MB

Tracklist:
1. Darkened Truth 02:56
2. Now I Hate 02:43
******************************
Total playing time: 5:39



[more=Extended info]Band from Dallas, Texas.[/more]

[more=Technical info]
Input File: 01-Darkened Truth.mp3
Channels : 2
Sample Rate : 44100
Precision : 16-bit
Duration : 00:02:56.26 = 7773066 samples = 13219.5 CDDA sectors
File Size : 5.64M
Bit Rate : 256k
Sample Encoding: MPEG audio (layer I, II or III)
Comments :
Title=Darkened Truth
Artist=Mortifix (US, TX)
Album=Darkened Truth (Demo)
Tracknumber=01
Year=1992
Genre=Death Metal

[/more]

Register
(9) after21allD, dermarsoran, metala, Olethros, Reverend, stumpheavyrock, thenecromancer, traitor666, wgs73,
Oct 15 2021, 12:55:02 Mystifier - 25 Years Of Blasphemy And War [compilation] (2014)


*Artist: Mystifier
*Album: 25 Years Of Blasphemy And War [compilation]
*Year: 2014
*Genre: Black/Death Metal
*Country: Brazil
*Format: mp3@VBR200kbps
*Size: 97MB

Tracklist:
1. The Witness (Intro) 01:11
2. Mystifier 04:23
3. Possession 03:32
4. Christian Proscription 05:54
5. Cursed Excruciation 03:09
6. Fierceness 00:28
7. The Six Celestial Desires Of The Virgin 03:57
8. The Almighty Satanas 03:01
9. Satan's Aberrations 03:19
10. The Cult (Intro) 00:55
11. Ancient Prediction (My Eternal Nightmare) 04:09
12. The Sign Of The Unholy Cross / The Cult Continues 04:58
13. My Gloat (Intro) / Osculum Obscenum 07:00
14. Defloration (The Antichrist Lives) 01:33
15. An Elizabethan Devil-Worshipper's Prayer-Book 05:43
16. Hyoscyamus Niger 04:02
17. Tormentum Aeternu 03:28
18. The Dark Kingdom (T.E.A.R.) 03:39
19. Mystifier (Satan's Messengers) 03:06
******************************
Total playing time: 1:07:27




[more=Extended info]Compilation of the first three demos done by Dunkelheit Produktionen:
Tracks 01-09 - “Tormenting the Holy Trinity“ (1989),
Tracks 10-12 - “T.E.A.R.“ (1990),
Tracks 13-19 - “Aleister Crowley“ (1991).
[/more]

[more=Technical info]
Input File: 11-Ancient Prediction (My Eternal Nightmare).mp3
Channels : 2
Sample Rate : 44100
Precision : 16-bit
Duration : 00:04:56.83 = 13090159 samples = 22262.2 CDDA sectors
File Size : 7.37M
Bit Rate : 199k
Sample Encoding: MPEG audio (layer I, II or III)
Comments :
Title=Ancient Prediction (My Eternal Nightmare)
Artist=Mystifier
Album=25 Years of Blasphemy and War
Tracknumber=11
Year=2014
Genre=Black Metal

[/more]

Register
(4) Carcharoth, Olethros, stumpheavyrock, thenecromancer,
Oct 15 2021, 12:07:36 Severance - Transmigration Reincarnation [compilation] (2020)


*Artist: Severance
*Album: Transmigration Reincarnation [compilation]
*Year: 2020
*Genre: Death Metal
*Country: United States
*Format: mp3@CBR224kbps
*Size: 137MB

Tracklist:
1. Entombed 05:45
2. Decimation 05:08
3. Eternally Possessed 06:43
4. Entombed 05:56
5. Beyond Bleeding 05:13
6. Decimation 04:49
7. Cycle Of Torture 06:02
8. Eternally Possessed 06:44
9. ...And Then Silence 06:41
10. The Beholder 06:12
11. Dominant Conscience 05:27
12. Painfully Reborn 06:05
13. Holocausto Obscuro (Espiritos En Guerra) 06:57
14. Cross Breeding 08:23
******************************
Total playing time: 1:26:05



[more=Extended info]Band from McAllen, Texas.
CD compilation done by Huangquan Records:
01-03: "Procreation" Demo 1990.
04-08: "Afterbirth of Infamy" Demo 1991.
09-10: "Abysmal Ascent" 7" 1992.
11-14: "Salvation Denied" CD Ep 1996.
[/more]

[more=Technical info]
Input File: 11-Dominant Conscience.mp3
Channels : 2
Sample Rate : 44100
Precision : 16-bit
Duration : 00:05:27.85 = 14458361 samples = 24589 CDDA sectors
File Size : 9.18M
Bit Rate : 224k
Sample Encoding: MPEG audio (layer I, II or III)
Comments :
Title=Dominant Conscience
Artist=Severance (US, TX)
Album=Transmigration Reincarnation
Tracknumber=11
Year=2020
Genre=Death Metal

[/more]

Register
(3) hell_armageddon, Olethros, stumpheavyrock,
Oct 15 2021, 09:25:12 Necropolis - Thought About Death Lately (2021)
mega:
Register
(1) KKK1488,
Oct 14 2021, 15:12:45 Necrok.i.l.l.dozer - Missunderstood Unicum (1993)
ЦИТАТА(troll_swamp @ Nov 10 2018, 17:06:58) *
Подоспело приятное переиздание https://metalrace.com/ru/item/necrok-i-l-l-...asons-sterility pray.gif pray.gif pray.gif

рип с переиздания: 256 kbps (75 MB):
Register
(2) A.L.Rapsod, stumpheavyrock,
Oct 14 2021, 14:45:29 Today Needed
ЦИТАТА(kipelov999 @ Sep 29 2021, 23:46:45) *
Excruciation - Prophecy of Immortality переиздание

добавил в тему: Excruciation - Prophecy Of Immortality [demo] (1988)
(1) thenecromancer,
Oct 14 2021, 14:44:29 Excruciation - Prophecy Of Immortality [demo] (1988)
2019 re-release done on 2CDs by Dark Symphonies (256 kbps, 231 MB):
Register


(3) hell_armageddon, thenecromancer, Z28517,
Oct 14 2021, 13:47:17 Subsidence - The Take One Ep [ep] (1994)


*Artist: Subsidence
*Album: The Take One Ep [ep]
*Year: 1994
*Genre: Thrash Metal/Hardcore
*Country: United States
*Format: mp3@CBR256kbps
*Size: 28MB

Tracklist:
1. Unholy 04:07
2. Wardance 04:11
3. Say A Prayer 03:13
4. Hangin' By A Thread 03:42
******************************
Total playing time: 15:13



[more=Extended info]Band from Shelby Township, Michigan.
Produced and Arranged by Subsidence.
Engineered by Frank Giammanco.
Assistant Engineer: Scott Christoloveon.
Produced at Silvery Lane Studios.
[/more]

[more=Technical info]
Input File: 01-Unholy.mp3
Channels : 2
Sample Rate : 44100
Precision : 16-bit
Duration : 00:04:07.58 = 10918146 samples = 18568.3 CDDA sectors
File Size : 7.92M
Bit Rate : 256k
Sample Encoding: MPEG audio (layer I, II or III)
Comments :
Title=Unholy
Artist=Subsidence
Album=The Take One EP
Tracknumber=01
Year=1994
Genre=Thrash Metal

[/more]

Register
(11) after21allD, boby9052, caro, hell_armageddon, Marek, metala, Olethros, Requiescat, stumpheavyrock, Svafrlami, Z28517,
Oct 14 2021, 13:29:04 Necropolis - Thought About Death Lately (2021)


*Artist: Necropolis
*Album: Thought About Death Lately
*Year: 2021
*Genre: Thrash Metal
*Country: United States
*Format: mp3@CBR224kbps
*Size: 74MB

Tracklist:
1. Brownstone 05:02
2. January February March To Your Grave 04:27
3. Human Butcher 07:57
4. The Coming 05:12
5. Thought About Death Lately 04:32
6. Cryptophiliac 08:47
7. No Room In Hell (1985) 10:17
******************************
Total playing time: 46:14



[more=Extended info]Band from Stockbridge, Georgia.
Tracks 1-6 were recorded in 1992, and had been left unreleased for 29 years.
[/more]

[more=Technical info]
Input File: 01-Brownstone.mp3
Channels : 2
Sample Rate : 44100
Precision : 16-bit
Duration : 00:05:02.10 = 13322434 samples = 22657.2 CDDA sectors
File Size : 8.46M
Bit Rate : 224k
Sample Encoding: MPEG audio (layer I, II or III)
Comments :
Title=Brownstone
Artist=Necropolis
Album=Thought About Death Lately
Tracknumber=1/7
Year=2021
Genre=Thrash Metal

[/more]

Register
(17) after21allD, artscald, boby9052, caro, chipsgott, gwar, HMHamster, infozahist, kefka, KKK1488, Marek, metala, Olethros, postal67, sergsazan, stumpheavyrock, Z28517,
Oct 14 2021, 12:21:52 Dark Reality - Cruel Research [demo] (1992)


*Artist: Dark Reality
*Album: Cruel Research [demo]
*Year: 1992
*Genre: Death Metal
*Country: Germany
*Format: mp3@CBR224kbps
*Size: 35MB

Tracklist:
1. Cruel Research 05:47
2. The Day After 03:18
3. Diseased 02:12
4. Condemned To Suffer 02:52
5. Open Your Eyes 04:39
6. Visionary Flight 02:58
******************************
Total playing time: 21:46

[more=Extended info]Recorded, mixed and produced at Viking Sound Studio Schoemberg 2.[/more]

[more=Technical info]
Input File: 01-Cruel Research.mp3
Channels : 2
Sample Rate : 44100
Precision : 16-bit
Duration : 00:05:47.39 = 15320075 samples = 26054.5 CDDA sectors
File Size : 9.73M
Bit Rate : 224k
Sample Encoding: MPEG audio (layer I, II or III)
Comments :
Title=Cruel Research
Artist=Dark Reality
Album=Cruel Research (Demo)
Tracknumber=1/6
Year=1992
Genre=Death Metal

[/more]

Register
(7) Carcharoth, hell_armageddon, Olethros, Reverend, stumpheavyrock, SyncestrA, thenecromancer,

560 Pages V   1 2 3 > » 
- Lo-Fi Version Support form
Copyrights and abuse reports form
Time is now: 18th October 2021 - 18:08:08