Welcome Guest ( Log In | Register )

История благодарностей участнику Proteus_666 ::: Спасибо сказали: 108981 раз(а)
Дата поста: В теме: За сообщение: Спасибо сказали:
Jan 16 2022, 15:34:11 Various Artists - Peace-Eater Vol.Ii [compilation] (1992)


*Artist: Various Artists
*Album: Peace-Eater Vol.Ii [compilation]
*Year: 1992
*Genre: Heavy/Thrash/Progressive Metal
*Country: International
*Format: mp3@CBR320kbps
*Size: 171MB

Tracklist:
1. Katzenkopf - Overtüre In Fis-Moll 03:07
2. Megora - Matter Of Course 03:42
3. Drowning In Real - Picture Of A Dying Day 08:31
4. Soul Cages - The Narrow Path Of Truth 05:07
5. Xerxes - Ainor, The Child Of Eternity (Part 1) 06:09
6. Paralysis - Arctic Sleep 04:06
7. No Silence - Fanatic Menace 05:55
8. Life Artist - Flyer 04:10
9. Cheep Stuff - The Whiskey Within 04:30
10. Long Since Dark - Under My Skin 07:20
11. Azrael - The Landlord 05:25
12. Flaming Anger - Humaniced 07:08
13. Ancient Curse - Plastic Tears 05:34
14. Mon Amour - Over Again (Live) 03:52
******************************
Total playing time: 1:14:36

[more=Extended info]Compilation CD done by Rave Music. It contains mostly German bans except Megora, Paralysis & Xerxes.[/more]

[more=Technical info]
Input File: 02-Megora - Matter Of Course.mp3
Channels : 2
Sample Rate : 44100
Precision : 16-bit
Duration : 00:03:42.63 = 9817851 samples = 16697 CDDA sectors
File Size : 8.91M
Bit Rate : 320k
Sample Encoding: MPEG audio (layer I, II or III)
Comments :
Title=Matter Of Course
Artist=Megora
Album=Peace-Eater Vol. II
Tracknumber=2/14
Year=1992
Genre=Heavy Metal

[/more]

Register
(4) artscald, stumpheavyrock, Taakeferd, varlam4,
Jan 16 2022, 15:10:43 Various Artists - The Storm Has Begun [compilation] (1995)


*Artist: Various Artists
*Album: The Storm Has Begun [compilation]
*Year: 1995
*Genre: Death/Doom/Thrash Metal
*Country: Malta
*Format: mp3@CBR320kbps
*Size: 122MB

Tracklist:
1. Norm Rejection - Trance Upon The Chessboard 05:15
2. Trial By Fate - Once Upon A Time 05:25
3. Beheaded - Vae Victus 06:13
4. Forsaken - Moondancer 07:40
5. Sanity - The Insane's Tale 05:29
6. Masada - Redemption 04:30
7. Orbus Vitae - Lament Of The Disturbed 09:10
8. Amentia - Charms Of Mysticism 05:37
******************************
Total playing time: 49:19

[more=Extended info]Released by Storm Records.
Archive file includes scans.
[/more]

[more=Technical info]
Input File: 01-Norm Rejection - Trance Upon The Chessboard.mp3
Channels : 2
Sample Rate : 44100
Precision : 16-bit
Duration : 00:05:15.18 = 13899614 samples = 23638.8 CDDA sectors
File Size : 12.6M
Bit Rate : 320k
Sample Encoding: MPEG audio (layer I, II or III)
Comments :
Title=Trance Upon The Chessboard
Artist=Norm Rejection
Album=The Storm Has Begun
Tracknumber=1/8
Year=1995
Genre=Metal

[/more]

Register
(5) artscald, Carcharoth, stumpheavyrock, Taakeferd, varlam4,
Jan 16 2022, 15:00:05 Various Artists - Precise Reality Compilation Vol. Iii [compilation] (2001)


*Artist: Various Artists
*Album: Precise Reality Compilation Vol. Iii [compilation]
*Year: 2001
*Genre: Death/Doom/Thrash/Black Metal
*Country: Russian Federation
*Format: mp3@CBR192kbps
*Size: 89MB

Tracklist:
1. Paracels - Agressor Paracelsus 04:22
2. Рэскидс - Падение В Ад 04:53
3. Excess - Requiem Of Devastation 03:35
4. Inside Dead - Elegy To A French Road 05:35
5. Clangforge - Unknown Angels 03:54
6. Columbarium - Male Unholy 05:56
7. Disfigurement - Desadobauchery With Fish 04:09
8. Trident - China 03:01
9. Processor - Герника 05:23
10. Deathonator - Curtain Song 06:06
11. Winter Beauty - Дождь 05:22
12. Синадрион - Время Знает 04:16
13. Phantasmagore - Inhuman Hydrophobia 08:49
******************************
Total playing time: 1:05:21

[more=Extended info]Compilation tape done by Alexey "Cels" (drums of Paracels).
Front cover painted by Safar (vox for Paracels & Disfigurement).
[/more]

[more=Technical info]
Input File: 01-Paracels - Agressor Paracelsus.mp3
Channels : 2
Sample Rate : 44100
Precision : 16-bit
Duration : 00:04:22.36 = 11570076 samples = 19677 CDDA sectors
File Size : 6.30M
Bit Rate : 192k
Sample Encoding: MPEG audio (layer I, II or III)
Comments :
Title=Agressor Paracelsus
Artist=Paracels
Album=Precise Reality Compilation Vol. 3
Tracknumber=01
Year=2001
Genre=Metal

[/more]

Register
(3) Carcharoth, stumpheavyrock, varlam4,
Jan 16 2022, 14:35:55 Various Artists - Precise Reality Vol.Ii [compilation] (2000)


*Artist: Various Artists
*Album: Precise Reality Vol.Ii [compilation]
*Year: 2000
*Genre: Death/Doom/Thrash/Black Metal
*Country: Russian Federation
*Format: mp3@CBR192kbps
*Size: 73MB

Tracklist:
1. Uterine Decay - Intro 01:35
2. Columbarium - Apotheosis of War 07:01
3. Paracels - Time 05:53
4. Todesgeist - Retention of Sleep 07:20
5. Necrocite - Molestation Rule 01:15
6. Clangforge - Transplantation of Rotten Organs 04:13
7. Cryptic Riot - Only Soul Alive 03:26
8. Cerber - Misanthropic Pantheon 05:26
9. Processor - Angel of War 08:00
10. Синадрион - В Никуда 05:12
11. Disfigurement - Internal Vaginal Art 04:32
******************************
Total playing time: 53:53

[more=Extended info]Compilation tape done by Paracels (also Columbarium, Necrocite & Processor at the moment) drummer Alexey Cels. Here were presented only bands from far east of Russia (such cities as Khabarovsk, Vladivostok & Petropavlosk-Kampchatsky).
Front cover was painted by Safar (vox for Paracels & Disfigurement).
[/more]

[more=Technical info]
Input File: 02-Columbarium - Apotheosis of War.mp3
Channels : 2
Sample Rate : 44100
Precision : 16-bit
Duration : 00:07:01.19 = 18574479 samples = 31589.2 CDDA sectors
File Size : 10.1M
Bit Rate : 192k
Sample Encoding: MPEG audio (layer I, II or III)
Comments :
Title=Apotheosis of War
Artist=Columbarium
Album=Precise Reality Compilation Vol. 2
Tracknumber=02
Year=2000
Genre=Metal

[/more]

Register
(3) Carcharoth, stumpheavyrock, varlam4,
Jan 16 2022, 14:10:08 Various Artists - Nord Compilation [compilation] (2000)


*Artist: Various Artists
*Album: Nord Compilation [compilation]
*Year: 2000
*Genre: Death/Doom/Thrash/Black Metal
*Country: Russian Federation
*Format: mp3@CBR192kbps
*Size: 115MB

Tracklist:
1. Lead Freedom - Бесконечная Боль 04:17
2. Abyss Angel - Непрерывный Вдох Свободы 07:09
3. Condemned Cell - Untitled 09:28
4. Little Dead Bertha - Frosties War 05:07
5. Arbitrator - Hard Hearted 03:33
6. Incest - Утопия Смысла 04:22
7. No-Spa - Участь Ведьмы-жены 02:34
8. Mental Dissection - Убей Сучку! 05:23
9. O.P.C. - Envenomed Enterrhage 01:46
10. Clangforge - Gradual Necrosis 04:02
11. Extinction - Cold Oblivion 05:35
12. Mortemirus - Suffer The Flesh 07:12
13. Disfigurement - Pulp Transfixion 04:33
14. Filthy Flesh - Recreation 05:02
15. Todeskampf - Burn the Heavenland 04:08
16. Grenouer - Conversing the Dolt 04:47
17. Scrambled Defuncts - Ripped With Hooks 05:41
******************************
Total playing time: 1:24:39

[more=Extended info]Compilation tape of Russian bands distributed with copies of Nord'zine #1.[/more]

[more=Technical info]
Input File: 02-Abyss Angel - Непрерывный Вдох Свободы.mp3
Channels : 2
Sample Rate : 44100
Precision : 16-bit
Duration : 00:07:09.39 = 18936187 samples = 32204.4 CDDA sectors
File Size : 10.3M
Bit Rate : 192k
Sample Encoding: MPEG audio (layer I, II or III)
Comments :
Title=Непрерывный Вдох Свободы
Artist=Abyss Angel
Album=Nord Compilation
Tracknumber=02
Year=2000
Genre=Metal

[/more]

Register
(6) artscald, Carcharoth, lacrimoza, stumpheavyrock, Taakeferd, varlam4,
Jan 16 2022, 13:44:14 Childermas - Fatalia [demo] (1997)
new link:
Register
(3) stumpheavyrock, thenecromancer, uaforever_ua,
Jan 16 2022, 08:37:24 Poverty - Poverty Sucks [demo] (1998)
new link:
Register
(1) Wail,
Jan 16 2022, 08:21:03 Eldritch Rite - Demo ’86 [demo] (1986)
ЦИТАТА(Wail @ Jan 16 2022, 02:33:22) *
Please can anyone reup the link which has
Bonus tracks
6.Shriek Of The Mutilated (bonus) 05:18
07. Thrash Your Face (bonus) 03:17
08. Execution (bonus) 02:06
Thanks in advance

Slack's link above have these trax. Check it.
(1) Wail,
Jan 15 2022, 18:17:28 Effluvia - Cadaverous Compost (2004)


*Artist: Effluvia
*Album: Cadaverous Compost
*Year: 2004
*Genre: Death Metal/Grindcore
*Country: United States
*Format: mp3@CBR128kbps
*Size: 19MB

Tracklist:
1. D.O.T. 02:15
2. Blood Fermentation 01:47
3. Knee Deep In Feces 00:44
4. Delta Trauma 01:52
5. Depression 01:04
6. Ideal World 02:46
7. Meat Tenderizer 02:57
8. Go Through Life 01:18
9. You 00:06
10. Cadaverous Compost 01:23
11. W.Y.S. 00:34
12. Slaughtered Remains 01:20
13. World Termination 03:04
******************************
Total playing time: 21:10




[more=Extended info]Band from Tacoma/Lakewood, Washington.
Recorded December 2003 - January 2004.
Mixed and mastered February 2004.
[/more]

[more=Technical info]
Input File: 03-Knee Deep In Feces.mp3
Channels : 2
Sample Rate : 44100
Precision : 16-bit
Duration : 00:00:44.47 = 1961215 samples = 3335.4 CDDA sectors
File Size : 714k
Bit Rate : 128k
Sample Encoding: MPEG audio (layer I, II or III)
Comments :
Title=Knee Deep In Feces
Artist=Effluvia (US, WA)
Album=Cadaverous Compost
Tracknumber=03
Year=2004
Genre=Death Metal

[/more]

Register
(1) artscald,
Jan 15 2022, 14:29:12 Effluvia - World Termination [demo] (1993)


*Artist: Effluvia
*Album: World Termination [demo]
*Year: 1993
*Genre: Death Metal/Grindcore
*Country: United States
*Format: mp3@CBR128kbps
*Size: 8MB

Tracklist:
1. World Termination 03:41
2. Cadaverous Compost 01:46
3. Blood Fermentation 02:38
******************************
Total playing time: 8:05




[more=Extended info]Band from Tacoma/Lakewood, Washington.
Self-produced and recorded by Effluvia and Garth P. Saylor.
"World Termination" was recorded on October 5, 1992.
"Cadaverous Compost" was recorded on December 27, 1992.
"Blood Fermentation" was recorded on January 15, 1993.
[/more]

[more=Technical info]
Input File: 01-World Termination.mp3
Channels : 2
Sample Rate : 44100
Precision : 16-bit
Duration : 00:03:41.31 = 9759815 samples = 16598.3 CDDA sectors
File Size : 3.54M
Bit Rate : 128k
Sample Encoding: MPEG audio (layer I, II or III)
Comments :
Title=World Termination
Artist=Effluvia (US, WA)
Album=World Termination (Demo)
Tracknumber=01
Year=1993
Genre=Death Metal

[/more]

Register
(3) artscald, Reverend, stumpheavyrock,
Jan 15 2022, 14:08:18 Sufferance - Demo [demo] (1994)
new link:
Register
(6) Carcharoth, Corpuscul, hell_armageddon, thenecromancer, traitor666, wanderer73,
Jan 15 2022, 14:06:01 Contusion - Heavy Duty (1997)
new link:
Register
(3) Carcharoth, Corpuscul, traitor666,
Jan 15 2022, 14:03:46 Cocobat - Struggle For Aphrodite (1993)
new link (vbr):
Register
(4) Corpuscul, hell_armageddon, METALHUNTER, stumpheavyrock,
Jan 14 2022, 14:05:07 Tempesta - Depression [demo] (1995)


*Artist: Tempesta
*Album: Depression [demo]
*Year: 1995
*Genre: Thrash Metal
*Country: Switzerland
*Format: mp3@CBR192kbps
*Size: 30MB

Tracklist:
1. Storm Of Cries 06:09
2. Fear Of Today 06:35
3. Depression 05:11
4. In Another World 04:04
******************************
Total playing time: 21:59



[more=Extended info]Their sole thrash metal release.[/more]

[more=Technical info]
Input File: 01-Storm of Cries.mp3
Channels : 2
Sample Rate : 44100
Precision : 16-bit
Duration : 00:06:09.47 = 16293451 samples = 27710 CDDA sectors
File Size : 8.87M
Bit Rate : 192k
Sample Encoding: MPEG audio (layer I, II or III)
Comments :
Title=Storm of Cries
Artist=Tempesta (Switz)
Album=Depression (Demo)
Tracknumber=01
Year=1995-14-01
Genre=Thrash Metal

[/more]

Register
(8) after21allD, artscald, dimcho0, James817, METALHUNTER, stumpheavyrock, wgs73, Z28517,
Jan 14 2022, 13:42:52 Vicious Circle - Demo 1993 [demo] (1993)


*Artist: Vicious Circle
*Album: Demo 1993 [demo]
*Year: 1993
*Genre: Heavy/Power Metal
*Country: United States
*Format: mp3@CBR320kbps
*Size: 37MB

Tracklist:
1. Impaler 03:40
2. King Of NY 03:21
3. Traveler 03:43
4. Nightmares 04:23
5. Queen Of Hearts 03:24
******************************
Total playing time: 18:31

[more=Extended info]Band from Buffalo, New York.[/more]

[more=Technical info]
Input File: 01-Impaler.mp3
Channels : 2
Sample Rate : 44100
Precision : 16-bit
Duration : 00:03:40.77 = 9735825 samples = 16557.5 CDDA sectors
File Size : 8.83M
Bit Rate : 320k
Sample Encoding: MPEG audio (layer I, II or III)
Comments :
Title=Impaler
Artist=Vicious Circle (US-NY)
Album=Demo (1993)
Tracknumber=01
Year=1993
Genre=Power Metal

[/more]

Register
(4) artscald, dimcho0, Reverend, varlam4,
Jan 14 2022, 13:23:35 Hidden Pride - Hidden Pride [demo] (1993)
new link:
Register
(1) spazm,
Jan 14 2022, 12:28:07 Volatile - Volatile [ep] (1997)


*Artist: Volatile
*Album: Volatile [ep]
*Year: 1997
*Genre: Thrash Metal
*Country: Canada
*Format: mp3@CBR192kbps
*Size: 26MB

Tracklist:
1. Pain 03:03
2. Starve For The Sound 04:11
3. Unusual Punishment 03:54
4. Only What You Make 04:46
5. Physical Mechanics 03:31
******************************
Total playing time: 19:25

[more=Extended info]Recorded at N.A.L Sound Studio North Vancouver November 01, 1997.[/more]

[more=Technical info]
Input File: 01-Pain.mp3
Channels : 2
Sample Rate : 44100
Precision : 16-bit
Duration : 00:03:02.84 = 8063288 samples = 13713.1 CDDA sectors
File Size : 4.39M
Bit Rate : 192k
Sample Encoding: MPEG audio (layer I, II or III)
Comments :
Title=Pain
Artist=Volatile (Can)
Album=Volatile (EP)
Tracknumber=01
Year=1997
Genre=Thrash Metal

[/more]

Register
(6) artscald, Carcharoth, gwar, sergsazan, stumpheavyrock, wgs73,
Jan 12 2022, 13:06:25 Freek - Spiritual Enlightenment Through Disembowelment [compilation] (2001)


*Artist: Freek
*Album: Spiritual Enlightenment Through Disembowelment [compilation]
*Year: 2001
*Genre: Death Metal
*Country: United States
*Format: mp3@CBR192kbps
*Size: 56MB

Tracklist:
1. Necrosodomizer 04:04
2. Putrid 05:25
3. Rectal Stew 06:53
4. Infanticidal Consumption 04:16
5. Fuck The Lesions 04:26
6. Genitalia Slaw 04:37
7. Drenched In Vomit 08:08
8. Baptised In Pus 04:26
******************************
Total playing time: 42:15




[more=Extended info]Band from Pittsburgh, Pennsylvania.
Nowadays they are called Leprosy.
Trax 1-3 are new ones recorded in 2001.
Trax 4-8 are "Infanticidal Consumption" demo (1994).
[/more]

[more=Technical info]
Input File: 01-Necrosodomizer.mp3
Channels : 2
Sample Rate : 44100
Precision : 16-bit
Duration : 00:04:04.26 = 10771734 samples = 18319.3 CDDA sectors
File Size : 5.86M
Bit Rate : 192k
Sample Encoding: MPEG audio (layer I, II or III)
Comments :
Title=Necrosodomizer
Artist=Freek (US, PA)
Album=Spiritual Enlightenment Through Disembowelment
Tracknumber=01
Year=2001
Genre=Death Metal

[/more]

Register
(5) anonenone, artscald, Carcharoth, hell_armageddon, Unsane,
Jan 12 2022, 12:38:13 Obscure Disaster - Perish [ep] (1998)


*Artist: Obscure Disaster
*Album: Perish [ep]
*Year: 1998
*Genre: Death Metal
*Country: Germany
*Format: mp3@CBR192kbps
*Size: 30MB

Tracklist:
1. Intro / Bloodlines 04:40
2. Insane 03:57
3. Fallstudie 03:51
4. Perish 05:07
5. A Dark Romance... 04:41
******************************
Total playing time: 22:16

[more=Technical info]
Input File: 02-Insane.mp3
Channels : 2
Sample Rate : 44100
Precision : 16-bit
Duration : 00:03:57.49 = 10473353 samples = 17811.8 CDDA sectors
File Size : 5.70M
Bit Rate : 192k
Sample Encoding: MPEG audio (layer I, II or III)
Comments :
Title=Insane
Artist=Obscure Disaster (Ger)
Album=Perish (EP)
Tracknumber=02
Year=1998
Genre=Death Metal

[/more]

Register
(5) anonenone, artscald, Carcharoth, Reverend, stumpheavyrock,
Jan 12 2022, 12:27:48 Thorazine - Geneticide (2002)
320 kbps (90 mb):
Register
(1) WOLAND,
Jan 12 2022, 12:21:41 Thorazine - Seed The Black Sky (1999)
320 kbps (64 mb):
Register
(1) stumpheavyrock,
Jan 12 2022, 11:45:55 Twitch - They Call This Protection? [demo] (1996)


*Artist: Twitch
*Album: They Call This Protection? [demo]
*Year: 1996
*Genre: Thrash/Groove Metal
*Country: Canada
*Format: mp3@CBR320kbps
*Size: 53MB

Tracklist:
1. Sheepless 04:25
2. Four Words 04:42
3. Drive 02:42
4. Do You Feel Whole? 02:52
5. The Fun Things 03:15
6. 500 Miles (Proclaimers Cover) 03:57
7. Moosedick 01:55
******************************
Total playing time: 23:48

[more=Technical info]
Input File: 01-Sheepless.mp3
Channels : 2
Sample Rate : 44100
Precision : 16-bit
Duration : 00:04:25.41 = 11704581 samples = 19905.8 CDDA sectors
File Size : 10.6M
Bit Rate : 320k
Sample Encoding: MPEG audio (layer I, II or III)
Comments :
Title=Sheepless
Artist=Twitch (Can)
Album=They Call This Protection? (Demo)
Tracknumber=01
Year=1996
Genre=Thrash Metal

[/more]

Register
(6) after21allD, analbleeding, artscald, metala, Reverend, Z28517,
Jan 12 2022, 11:21:28 Twitch - The Watchers Out Of Time [demo] (1990)
new link:
Register
(4) Carcharoth, dimcho0, hell_armageddon, vaalkoth,
Jan 12 2022, 11:17:56 Sinister - Crisis [demo] (1989)
new link:
Register
(3) hell_armageddon, Wail, Z28517,
Jan 12 2022, 10:45:12 Threshold Of Pain - Demo 1 [demo] (1989)
new link:
Register
(3) hell_armageddon, vaalkoth, Z28517,

571 Pages V   1 2 3 > » 
- Lo-Fi Version Support form
Copyrights and abuse reports form
Time is now: 20th January 2022 - 11:52:14