Welcome Guest ( Log In | Register )

История благодарностей участнику Proteus_666 ::: Спасибо сказали: 85917 раз(а)
Дата поста: В теме: За сообщение: Спасибо сказали:
May 18 2020, 10:56:02 Devastator - Alteration [demo] (1991)


*Artist: Devastator
*Album: Alteration [demo]
*Year: 1991
*Genre: Thrash Metal
*Country: Canada
*Format: mp3@CBR320kbps
*Size: 30MB

Tracklist:
1. Alteration 03:00
2. Back To Ashes 04:48
3. Ominious Denizen 05:25
******************************
Total playing time: 13:13




[more=Technical info]
Input File: 01-Alteration.mp3
Channels : 2
Sample Rate : 44100
Precision : 16-bit
Duration : 00:03:00.89 = 7977029 samples = 13566.4 CDDA sectors
File Size : 7.25M
Bit Rate : 320k
Sample Encoding: MPEG audio (layer I, II or III)
Comments :
Title=Alteration
Artist=Devastator
Album=Alteration (Demo)
Tracknumber=01
Year=1991
Genre=Thrash Metal

[/more]

Register
(9) andreikun, Evilded, gwar, infiltrator, Olethros, Reverend, Wail, wgs73, Z28517,
May 18 2020, 10:42:37 Devastator - Wall Of Sound [demo] (1990)


*Artist: Devastator
*Album: Wall Of Sound [demo]
*Year: 1990
*Genre: Thrash Metal
*Country: Canada
*Format: mp3@CBR320kbps
*Size: 94MB

Tracklist:
1. The City / Sonic Devastation 07:46
2. Battle Zone 05:33
3. Tangled Web 05:26
4. Guitar Solo 01:52
5. Running From Your Sanity 04:42
6. Sea To Shining Sea 06:53
7. Maiden Voyage 09:25
******************************
Total playing time: 41:37




[more=Extended info]Live recording.[/more]

[more=Technical info]
Input File: 02-Battle Zone.mp3
Channels : 2
Sample Rate : 44100
Precision : 16-bit
Duration : 00:05:33.45 = 14705057 samples = 25008.6 CDDA sectors
File Size : 13.3M
Bit Rate : 320k
Sample Encoding: MPEG audio (layer I, II or III)
Comments :
Title=Battle Zone
Artist=Devastator
Album=Wall Of Sound (Demo)
Tracknumber=02
Year=1990
Genre=Thrash Metal

[/more]

Register
(9) andreikun, Evilded, gwar, infiltrator, Olethros, Reverend, Wail, wgs73, Z28517,
May 18 2020, 10:25:34 Inverted - Re-Invocation Of The Beast [compilation] (2019)


*Artist: Inverted
*Album: Re-Invocation Of The Beast [compilation]
*Year: 2019
*Genre: Death Metal
*Country: Sweden
*Format: mp3@CBR256kbps
*Size: 119MB

Tracklist:
1. Estaban 03:59
2. Abnegation 03:50
3. Forsaken Soul 03:08
4. Intro / Fear Of Life 05:53
5. Century Of Oppression 05:01
6. Heaven Defied 02:04
7. Deny Paradise 03:54
8. Revocation Of The Beast 05:05
9. Beyond The Holy Ground 03:54
10. Lost (With Christ) 04:27
11. Into The Sign Of Chaos 05:26
12. Across The Lake Of Flames 04:18
13. Enslaver Of Mankind 04:13
14. The Inverted One 03:10
15. Silence Remains 04:47
******************************
Total playing time: 1:03:09

[more=Extended info]CD Re-release of 2014 vynil compilation originally manufactured by
To the Death Records.

Tracks 01-03: "Tales Of Estaban" (Demo/1991)
Tracks 04-07: "Heaven Defied" (Demo/1992)
Tracks 08-11: "Revocation Of The Beast" (MCD/1994)
Track 12: "Sometimes...Death Is Better" (Compilation/1993)
Tracks 13-15: "Enslaver Of Mankind" (Unreleased EP/1992)
[/more]

[more=Technical info]
Input File: 01-Estaban.mp3
Channels : 2
Sample Rate : 44100
Precision : 16-bit
Duration : 00:04:04.78 = 10794886 samples = 18358.6 CDDA sectors
File Size : 7.83M
Bit Rate : 256k
Sample Encoding: MPEG audio (layer I, II or III)
Comments :
Title=Estaban
Artist=Inverted
Album=Re-Invocation of the Beast
Tracknumber=01/15
Year=2019
Genre=Death Metal

[/more]

Register
(13) andreikun, Evilded, FUDEDOR, infiltrator, kranger, Mist13Signifier, Olethros, soulflesh, spazm, stumpheavyrock, supremo, vyacheslav, Wail,
May 18 2020, 10:04:34 Saddleback Shark - Machinegun Raindance (1992)


*Artist: Saddleback Shark
*Album: Machinegun Raindance
*Year: 1992
*Genre: Glam Rock/Funk/Groove Metal
*Country: United States
*Format: mp3@CBR128kbps
*Size: 43MB

Tracklist:
1. Machinegun Raindance 04:17
2. Pig Romp (Capitol War Stomp) 04:10
3. Bad Mouthin' 03:56
4. Jazzupy Lounge 02:57
5. Lunch With A Psycho 03:40
6. Rob's Down Home Cookin' 04:25
7. Suck Up And Bust 03:30
8. King By My Own Hand 03:50
9. No Pretty Picture 04:36
10. Suffocation Blvd. 05:06
11. 10 Guns Kickin' 03:11
12. Not Yet, You Bet 00:53
13. Sexual Monster 03:06
******************************
Total playing time: 47:37

[more=Extended info]Band from Columbus, Ohio.[/more]

[more=Technical info]
Input File: 03-Bad Mouthin\'.mp3
Channels : 2
Sample Rate : 44100
Precision : 16-bit
Duration : 00:03:56.15 = 10414391 samples = 17711.5 CDDA sectors
File Size : 3.78M
Bit Rate : 128k
Sample Encoding: MPEG audio (layer I, II or III)
Comments :
Title=Badmouthin
Artist=Saddleback Shark
Album=Machinegun Raindance
Tracknumber=03
Year=1992
Genre=Metal

[/more]

Register
(4) Corpuscul, infiltrator, Olethros, Z28517,
May 16 2020, 09:39:09 Sarcastic - No Forgiveness [demo] (1990)
new link (192 kbps):
Register
(3) thenecromancer, Wail, Z28517,
May 16 2020, 09:10:27 Festered Corpse - CMHR [demo] (1989)
their demo "Psycho Flower" (1989) without the last track called "Without Beer" (320kbps, 82MB):
Register
(1) Wail,
May 16 2020, 09:01:29 Sacrament A.D. - Five Guys In Tight Trousers (Live) [demo] (1991)


*Artist: Sacrament A.D.
*Album: Five Guys In Tight Trousers (Live) [demo]
*Year: 1991
*Genre: Thrash Metal
*Country: Canada
*Format: mp3@CBR320kbps
*Size: 80MB

Tracklist:
1. Bitchin' Intro 01:02
2. Sacrament (Anno Domini) 05:37
3. Exordium Reqiuem (A Show Of Violence) 07:06
4. Loud Guns 04:03
5. Psycho Flower 04:30
6. Shadow Of Brutality 03:52
7. Doomsday Effect (5 Solos) 04:04
8. Ghost Busters (Ray Parker Jr. cover) 04:41
******************************
Total playing time: 34:55

[more=Extended info]Recorded at the Cornerstone on May 14th, 1991.[/more]

[more=Technical info]
Input File: 02-Sacrament (Anno Domini).mp3
Channels : 2
Sample Rate : 44100
Precision : 16-bit
Duration : 00:05:37.94 = 14903066 samples = 25345.4 CDDA sectors
File Size : 13.5M
Bit Rate : 320k
Sample Encoding: MPEG audio (layer I, II or III)
Comments :
Title=Sacrament (Anno Domini)
Artist=Sacrament A.D.
Album=Five Guys In Tight Trousers (Live)
Tracknumber=2

[/more]

Register
(9) 555, Evilded, heinz88, infiltrator, Olethros, Reverend, thenecromancer, Wail, wgs73,
May 16 2020, 08:52:58 Sacrament A.D. - Better Off Dead... Than Live!!! [demo] (1991)


*Artist: Sacrament A.D.
*Album: Better Off Dead... Than Live!!! [demo]
*Year: 1991
*Genre: Thrash Metal
*Country: Canada
*Format: mp3@CBR320kbps
*Size: 86MB

Tracklist:
1. Symbolic Faith 04:25
2. Exordium Requiem (A Show Of Violence) 07:22
3. Psycho Flower 04:38
4. Doomsday Effect 04:02
5. Subconscious Descent 06:10
6. Dawn Of Conception 05:57
7. Sacrament (Anno Domini) 05:05
******************************
Total playing time: 37:39

[more=Extended info]ex-Festered Corpse.
Recorded live at Bar None, November 2nd 1991.
[/more]

[more=Technical info]
Input File: 01-Symbolic Faith.mp3
Channels : 2
Sample Rate : 44100
Precision : 16-bit
Duration : 00:04:25.63 = 11714283 samples = 19922.2 CDDA sectors
File Size : 10.6M
Bit Rate : 320k
Sample Encoding: MPEG audio (layer I, II or III)
Comments :
Title=Symbolic Faith
Artist=Sacrament A.D.
Album=Better Off Dead... Than Live!!!
Tracknumber=01
Year=1991
Genre=Thrash Metal

[/more]

Register
(9) 555, Evilded, heinz88, infiltrator, Olethros, Reverend, thenecromancer, Wail, wgs73,
May 16 2020, 08:44:12 Society Gang Rape - No Fate (1995)
new link:
Register
(1) Wail,
May 16 2020, 08:41:25 Society Gang Rape - More Dead Than Alive [ep] (1994)
new link:
Register
(1) Wail,
May 16 2020, 08:38:25 Sarcastic - Sarcastic [demo] (1992)
new link:
Register
(3) thenecromancer, Wail, Z28517,
May 16 2020, 08:35:06 Sacrilege B.C. - Demo 1990 [demo] (1990)
new link:
Register
(3) thenecromancer, Wail, Z28517,
May 16 2020, 08:32:36 Sacrament - Agony (1995)
new link (192 kbps):
Register
(1) Wail,
May 16 2020, 08:29:06 S.F.D. - Destruction Of The Youth [demo] (1993)
new link:
Register
(2) Wail, Z28517,
May 16 2020, 08:27:04 S.F.D. - Dematerialize [demo] (1992)
new link:
Register
(2) Wail, Z28517,
May 15 2020, 17:17:50 Aesir - Save Us From Today [demo] (1987)
new link:
Register
(2) Wail, Z28517,
May 15 2020, 17:07:50 Aesir - In The Name Of Power [demo] (1987)


*Artist: Aesir
*Album: In The Name Of Power [demo]
*Year: 1987
*Genre: Thrash Metal
*Country: United States
*Format: mp3@CBR320kbps
*Size: 22MB

Tracklist:
1. Time To Fight 07:06
2. King Of Asgard 06:23
******************************
Total playing time: 13:29

[more=Extended info]Band from Mahopac, New York.[/more]

[more=Technical info]
Input File: 01-Time To Fight.mp3
Channels : 2
Sample Rate : 44100
Precision : 16-bit
Duration : 00:07:10.27 = 18975039 samples = 32270.5 CDDA sectors
File Size : 17.2M
Bit Rate : 320k
Sample Encoding: MPEG audio (layer I, II or III)
Comments :
Title=Time To Fight
Artist=Aesir
Album=In The Name of Power (demo)
Tracknumber=01
Year=1987-14-03
Genre=Thrash Metal

[/more]

Register
(9) Dark Sage, Evilded, gwar, infiltrator, metala, Olethros, thenecromancer, Wail, wgs73,
May 15 2020, 16:52:17 Rotten Flesh - Holy Tears (Ego Fum Papa) [ep] (1992)
new link:
Register
(3) deatholocaust, satanist666, Wail,
May 15 2020, 13:54:27 Cyborg - Death Notice [demo] (1987)
new link:
Register
(2) Wail, Z28517,
May 15 2020, 13:13:56 Rekuiem - The Black Death [ep] (2002)


*Artist: Rekuiem
*Album: The Black Death [ep]
*Year: 2002
*Genre: Heavy Metal
*Country: United Kingdom
*Format: mp3@CBR128kbps
*Size: 21MB

Tracklist:
1. Steelbreeze 05:09
2. Angel Of Sin 05:46
3. Nightmare 06:21
4. Black Death 05:41
5. Outro 01:07
******************************
Total playing time: 24:04



[more=Extended info]ex-Requiem (UK). Promotional release.[/more]

[more=Technical info]
Input File: 01-Steelbreeze.mp3
Channels : 2
Sample Rate : 44100
Precision : 16-bit
Duration : 00:05:09.59 = 13652699 samples = 23218.9 CDDA sectors
File Size : 4.96M
Bit Rate : 128k
Sample Encoding: MPEG audio (layer I, II or III)
Comments :
Title=Steelbreeze
Artist=Rekuiem
Album=The Black Death (EP)
Tracknumber=01
Year=2002
Genre=Heavy Metal

[/more]

Register
(5) infiltrator, Olethros, sergsazan, Wail, wgs73,
May 15 2020, 13:03:09 X-Tremity - Morir Es Vivir (2006)


*Artist: X-Tremity
*Album: Morir Es Vivir
*Year: 2006
*Genre: Thrash/Groove Metal
*Country: Germany
*Format: mp3@CBR192kbps
*Size: 40MB

Tracklist:
1. Intro / Forensic 03:48
2. Resurrection 05:00
3. Valentine 02:07
4. Morir Es Vivir 05:55
5. It's Your Game 02:52
6. The Cold Heart 06:18
7. Bleeding Me Dry 03:22
******************************
Total playing time: 29:22

[more=Technical info]
Input File: 02-Resurrection.mp3
Channels : 2
Sample Rate : 44100
Precision : 16-bit
Duration : 00:05:00.08 = 13233616 samples = 22506.1 CDDA sectors
File Size : 7.20M
Bit Rate : 192k
Sample Encoding: MPEG audio (layer I, II or III)
Comments :
Title=Resurrection
Artist=X-Tremity
Album=Morir Es Vivir
Tracknumber=02
Year=2006
Genre=Thrash Metal

[/more]

Register
(6) boby9052, gwar, infiltrator, metala, Olethros, stumpheavyrock,
May 15 2020, 12:52:59 Sacrament - Need To Live A Lie [demo] (1990)


*Artist: Sacrament
*Album: Need To Live A Lie [demo]
*Year: 1990
*Genre: Thrash Metal
*Country: Brazil
*Format: mp3@CBR192kbps
*Size: 22MB

Tracklist:
1. Intro 01:33
2. I'm Want To Be What I'm 05:01
3. Search For The Stage 04:09
4. Catastrophic Lesson 05:03
******************************
Total playing time: 15:46

[more=Technical info]
Input File: 02-I\'m Want To Be What I\'m.mp3
Channels : 2
Sample Rate : 44100
Precision : 16-bit
Duration : 00:05:03.66 = 13391450 samples = 22774.6 CDDA sectors
File Size : 7.29M
Bit Rate : 192k
Sample Encoding: MPEG audio (layer I, II or III)
Comments :
Title=I'm Want To Be What I'm
Artist=Sacrament (Bra)
Album=Need To Live A Lie (demo)
Tracknumber=02
Year=1990
Genre=Thrash Metal

[/more]

Register
(6) Evilded, infiltrator, Olethros, Reverend, Wail, Z28517,
May 15 2020, 11:59:23 Cyberhed - Cyberhed [demo] (1993)


*Artist: Cyberhed
*Album: Cyberhed [demo]
*Year: 1993
*Genre: Thrash Metal
*Country: Germany
*Format: mp3@CBR320kbps
*Size: 55MB

Tracklist:
1. Dimension 05:43
2. Machinehead 03:25
3. H.I.V. 05:32
4. Riot 05:03
5. Choose Your God 04:56
******************************
Total playing time: 24:39

[more=Technical info]
Input File: 01-Dimension.mp3
Channels : 2
Sample Rate : 48000
Precision : 16-bit
Duration : 00:05:43.49 = 16487424 samples ~ 25761.6 CDDA sectors
File Size : 13.7M
Bit Rate : 320k
Sample Encoding: MPEG audio (layer I, II or III)
Comments :
Title=Dimension
Artist=Cyberhed
Album=Cyberhed (Demo)
Tracknumber=1
Year=1993
Genre=Thrash Metal

[/more]

Register
(6) Evilded, gwar, infiltrator, Olethros, Wail, Z28517,
May 15 2020, 11:46:50 Frozen Doberman - Frozen Doberman [demo] (1989)


*Artist: Frozen Doberman
*Album: Frozen Doberman [demo]
*Year: 1989
*Genre: Thrash Metal
*Country: Australia
*Format: mp3@CBR192kbps
*Size: 19MB

Tracklist:
1. Frozen Few 03:14
2. Meaty Good Time 03:31
3. Way Of Life 03:22
4. Live And Let Live 03:53
******************************
Total playing time: 14:00



[more=Extended info]Recorded at Sound Move Studios, December 9, 1989.[/more]

[more=Technical info]
Input File: 01-Frozen Few.mp3
Channels : 2
Sample Rate : 44100
Precision : 16-bit
Duration : 00:03:14.37 = 8571893 samples = 14578 CDDA sectors
File Size : 4.67M
Bit Rate : 192k
Sample Encoding: MPEG audio (layer I, II or III)
Comments :
Title=Frozen Few
Artist=Frozen Doberman
Album=Frozen Doberman (Demo)
Tracknumber=01
Year=1989
Genre=Thrash Metal

[/more]

Register
(4) Evilded, infiltrator, Olethros, Wail,
May 15 2020, 11:38:59 Mortal Sin - I Am Immortal [single] (1990)


*Artist: Mortal Sin
*Album: I Am Immortal [single]
*Year: 1990
*Genre: Thrash Metal
*Country: Australia
*Format: mp3@CBR320kbps
*Size: 38MB

Tracklist:
1. I Am Immortal 04:42
2. Lebanon (Live) 07:02
3. Voyage Of The Disturbed (Live) 04:47
******************************
Total playing time: 16:31




[more=Extended info]Live tracks recorded at the Enmore Theatre in Sydney, Australia on August 5th, 1989.[/more]

[more=Technical info]
Input File: 01-I Am Immortal.mp3
Channels : 2
Sample Rate : 44100
Precision : 16-bit
Duration : 00:04:45.80 = 12603692 samples = 21434.9 CDDA sectors
File Size : 11.4M
Bit Rate : 320k
Sample Encoding: MPEG audio (layer I, II or III)
Comments :
Title=I Am Immortal
Artist=Mortal Sin
Album=I Am Immortal (Single)
Tracknumber=01
Year=1990
Genre=Thrash Metal

[/more]

Register
(7) cancer1974, Evilded, gwar, infiltrator, Olethros, Reverend, Wail,

492 Pages V  < 1 2 3 4 5 > » 
- Lo-Fi Version Support form
Copyrights and abuse reports form
Time is now: 29th May 2020 - 12:20:33