Welcome Guest ( Log In | Register )

История благодарностей участнику RADeus ::: Спасибо сказали: 21891 раз(а)
Дата поста: В теме: За сообщение: Спасибо сказали:
Apr 12 2024, 09:51:19 Heresiarch - Edifice (2024)
Добавил FLAC в шапку.
(5) aesteticvice, babanguida, Daale, MAPhilosopher, Occultas,
Apr 11 2024, 11:52:53 Heresiarch - Edifice (2024)


*Artist: Heresiarch
*Album: Edifice
*Year: 2024
*Genre: Black/Death Metal
*Country: New Zealand
*Format: mp3@CBR320kbps
*Size: 98MB

Tracklist:
1. Forged Doctrine 04:46
2. Manifest Odium 02:13
3. Noose Above the Abyss 04:36
4. Gloryless Execution 03:07
5. Tides of Regression 06:31
6. A World Lit Only By Fire 06:45
7. Swarming Blight 02:28
8. Mystic and Chaos 00:45
9. Hubris and Decline 02:54
10. Militate Pyrrhic Collapse 07:23
******************************
Total playing time: 41:28



[more=Extended info]Iron Bonehead Productions, April 12th[/more]

[more=Technical info]
Input File: 05 - Tides of Regression.mp3
Channels : 2
Sample Rate : 44100
Precision : 16-bit
Duration : 00:06:31.00 = 17243100 samples = 29325 CDDA sectors
File Size : 15.9M
Bit Rate : 325k
Sample Encoding: MPEG audio (layer I, II or III)
Comments :
Title=Tides of Regression
Artist=Heresiarch
Album=Edifice
Tracknumber=5
Year=2024-04-12
Genre=Black/Death Metal
Discnumber=1

[/more]

Register

Register
(43) 6black6magic6, acerbus, Ainar, AlexSmith, alikkon, Altkiller, Antichrist, artscald, babanguida, biroutios, Bzth, cesar, Condehate, Daale, Doooomed, fuoco, gena, gongshow, Grev, HelenVaughan, holokausst, igore2911, kefka, madera, MAPhilosopher, Marek, marilin, Mist13Signifier, Occultas, pwoods, rimfrost, SaintVitus, Scorpi, Shadechaser, smysl, StabWound, tim47, VALERY, Velmi, VerminGhost, wreak, xariton, yinchanghanhuang,
Mar 21 2024, 14:15:35 Khold - Du Dømmes Til Død (2024)


*Artist: Khold
*Album: Du Dømmes Til Død
*Year: 2024
*Genre: Black Metal
*Country: Norway
*Format: mp3@CBR320kbps
*Size: 78MB

Tracklist:
1. Myrdynk 04:03
2. Vanviddfaren 03:35
3. Heks (Du dømmes til død) 04:04
4. Skoggangsmann 03:38
5. Misgrep 03:31
6. Trolldomsdømt 04:18
7. Lædel 03:04
8. Galgeberg og Retterbakke 03:14
9. Dølgsmål 03:28
******************************
Total playing time: 32:55



[more=Extended info]Soulseller Records, March 22nd[/more]

[more=Technical info]
Input File: 02 - Vanviddfaren.mp3
Channels : 2
Sample Rate : 44100
Precision : 16-bit
Duration : 00:03:35.00 = 9481500 samples = 16125 CDDA sectors
File Size : 8.91M
Bit Rate : 332k
Sample Encoding: MPEG audio (layer I, II or III)
Comments :
Title=Vanviddfaren
Artist=Khold
Album=Du d​ø​mmes til D​ø​d
Tracknumber=2
Year=2024-03-22
Genre=Black Metal
Discnumber=1

[/more]

Register

Register
(89) A.L.Rapsod, acerbus, Adskij, AlexSmith, alikkon, Altkiller, ancalagoninfernus, andeimon, Aresson, artscald, as71, BandR75, Bardo, blaskhyrk, boby9052, Brann, Bzth, CaptianGoreGrind, Carcharoth, cesar, Condehate, core_eater, CuRSeD, DarkHorde, dermarsoran, dma-09, DMIYUR, dromord, ForzaMinardi1977, garml2, gobblin, Grev, grobator, gwar, Henmik, HMHamster, Ice Gnoll, infozahist, John Beak, judaz, kefka, khestanow3001, kim666, kolar666, kryptor, Lord Noctua, lucifix, madera, mardak666, marilin, Marina543, Messian, metala, Metalass, metaljosue, mightynorth, MikkeFFF, mishasha, MMMMM, nadin85, nazgul666, nemx, Occultas, older68, recber, Reverend, rimfrost, Rotter, Rover, RUDACHUR, RUSP73, sabr, SAPOGi, scorn33, Shadechaser, skogtroll, Strygaldwir, supremo, TeamatSE, thenecromancer, tim47, VALERY, vov7609, wreak, xska, yuratroll, ZA670, ZamanFu, zotyo1975,
Mar 9 2024, 15:28:30 Merrimack - Of Grace And Gravity (2024)
ЦИТАТА(Unforg1ven @ Mar 9 2024, 15:07:07) *
FLAC (1GB)

Жесть, там просто пустоты на 700 мб, если смотреть по спектрам

Там 24-Bit/96 kHz, но да, большинство пустоты. Добавил рядом 16-Bit/44.1 kHz, весит втрое меньше.
(3) GorAtheist, isvili, Occultas,
Mar 8 2024, 15:27:09 Merrimack - Of Grace And Gravity (2024)
Согласен с FullofHate, отличный альбом. Особенно понравились Sublunar Despondency (2), Under the Aimless Spheres (6) и Embalmer's Wine (7), но и весь альбом держит в интересе.
Добавил флак в шапку.
(4) GorAtheist, Nerevar, Occultas, Абигор,
Mar 7 2024, 13:19:59 Merrimack - Of Grace And Gravity (2024)


*Artist: Merrimack
*Album: Of Grace And Gravity
*Year: 2024
*Genre: Black Metal
*Country: France
*Format: mp3@CBR320kbps
*Size: 113MB

Tracklist:
1. Sulphurean Synods 06:42
2. Sublunar Despondency 07:07
3. Dead and Distant Clamors 05:35
4. Wounds That Heal 06:44
5. Starving Crowns 08:05
6. Under the Aimless Spheres 07:01
7. Embalmer's Wine 06:59
******************************
Total playing time: 48:13



[more=Extended info]Season of Mist Underground Activists, March 8th[/more]

[more=Technical info]
Input File: 01 - Sulphurean Synods.mp3
Channels : 2
Sample Rate : 44100
Precision : 16-bit
Duration : 00:06:42.00 = 17728200 samples = 30150 CDDA sectors
File Size : 16.5M
Bit Rate : 328k
Sample Encoding: MPEG audio (layer I, II or III)
Comments :
Title=Sulphurean Synods
Artist=Merrimack
Album=Of Grace and Gravity
Tracknumber=1
Year=2024-03-08
Genre=Black Metal
Discnumber=1

[/more]

Register

Register

Register
(96) 6black6magic6, acerbus, AHBAnep, AlexSmith, Altkiller, Antichrist, artscald, as71, babanguida, BandR75, BERZERK, blacky66, Boozer, Bzth, CaptianGoreGrind, Carcharoth, Condehate, deatholocaust, demonosz, dermarsoran, ent404, Evilded, Femto, ForzaMinardi1977, FR453R, galuche, gena, gobblin, GorAtheist, Grev, HelenVaughan, Ildjarn, Impaled, Irimias, isvili, judaz, Kazoth, kefka, kim666, kimkayoung, macher1, madera, mardak666, Marek, Maximvs, mazoy, megam, Melusinara, Messian, milosdjor, Mortuusinfernus, nadin85, nat, nemx, Nerevar, nsmetalhead, Occultas, older68, oldvarg, Ostinato, Pinhead666, Radek, Rahmer, recber, rimfrost, Rover, RUSP73, sabr, SadistikSlayer, SaintVitus, sandr666, Scorpi, Sergey, SilentNidhogg, SS2998, Strid, Strygaldwir, supremo, the_cleanser, tim47, umnaxtet, VALERY, Valvestate, Victim of fate, vov7609, vovenom, VVR, Wail, Winterkalte, wreak, xska, yuratroll, ZamanFu, Zenial, Zoloft, Абигор,
Mar 1 2024, 13:10:40 Misotheist - Vessels By Which The Devil Is Made Flesh (2024)
FLAC
Register
(9) acerbus, Ignativs, isvili, nemx, Occultas, Piob, sTerLingaz, thenecromancer, Абигор,
Feb 15 2024, 12:51:58 Darkspace - Dark Space -II (2024)


*Artist: Darkspace
*Album: Dark Space -II
*Year: 2024
*Genre: Atmospheric Black Metal/Ambient
*Country: Switzerland
*Format: mp3@CBR320kbps
*Size: 108MB

Tracklist:
1. Dark -2.-2 47:12
******************************
Total playing time: 47:12



[more=Extended info]Season of Mist, February 16th[/more]

[more=Technical info]
Input File: 01 - Dark -2.-2.mp3
Channels : 2
Sample Rate : 44100
Precision : 16-bit
Duration : 00:47:11.00 = 124847100 samples = 212325 CDDA sectors
File Size : 114M
Bit Rate : 321k
Sample Encoding: MPEG audio (layer I, II or III)
Comments :
Title=Dark -2.-2
Artist=Darkspace
Album=Dark Space -II
Tracknumber=1
Year=2024-02-16
Genre=Metal
Discnumber=1

[/more]

Register

Register
(106) acerbus, Ainar, alex-82, Altkiller, An226, Antichrist, artscald, Ash_1980, babanguida, BERZERK, Blackner, BlackSwordMaster88, BlackTroll, blacky66, Buregon, CaptianGoreGrind, Carcharoth, CRUNCH, CryptOn, d0zer, Darkwood, dromord, ent404, Evilded, featb, Femto, fuoco, garml2, gena, Ghostb, Grev, HelenVaughan, Hell_Is_Here, Henmik, Ildjarn, Infidel, judaz, kefka, khestanow3001, kig, kim666, kimkayoung, kolar666, Krankheit, LEGION69, Leolomb, Lord Noctua, lucifix, Lux, mardak666, Metalass, murian, muskatnuss, nadin85, napalmjesus, Nebo, Necromag, nemx, nsmetalhead, Occultas, Old Vyaine, oldvarg, OldY, Ostinato, Peikko, Qliphoth, Radek, rammmirez, recber, Reverend, Rivalen, robertho777, rominow, SAPOGi, satanist666, simonalacacarisa, skogtroll, smes, squall8fr, Strygaldwir, Sulphuric, Surt, Tarkron, the_cleanser, VALERY, Velmi, veselchak_u, vlad74, VVR, Weikai, Woosad, wreak, wtk.412, Xor, xska, yarrsuaa, yinchanghanhuang, yuratroll, ZamanFu, ZambuL, zargonath, zbysio, Zer0, Абигор, Волос, Фо,
Jan 25 2024, 14:02:41 Inquisition - Veneration Of Medieval Mysticism And Cosmological Violence (2024)


*Artist: Inquisition
*Album: Veneration Of Medieval Mysticism And Cosmological Violence
*Year: 2024
*Genre: Black Metal
*Country: Colombia | United States
*Format: mp3@CBR320kbps
*Size: 107MB

Tracklist:
1. Witchcraft Within a Gothic Tomb 03:27
2. Crown of Light and Constellations 03:23
3. A Hidden Ceremony of Blood and Flesh 04:26
4. Force of Death Is the Force of Life 02:29
5. Memories Within an Empty Castle in Ruins 04:39
6. Primordial Philosophy and Pure Spirit 03:10
7. Infinity Is the Aeon of Satan 03:47
8. Pathway of Light Is a Pathway to Fire 01:09
9. Light of My Dark Essence 04:56
10. Secrets from the Wizard Forest of Forbidden Knowledge 03:22
11. Sorcery Through Crystal Eyes in Search of the Devil 03:31
12. Veneration of Medieval Mysticism and Cosmological Violence 04:34
13. Lord of Absolute Darkness and Infinite Light 02:01
******************************
Total playing time: 44:54



[more=Extended info]Agonia Records, January 26th.[/more]

[more=Technical info]
Input File: Memories Within an Empty Castle in Ruins.mp3
Channels : 2
Sample Rate : 44100
Precision : 16-bit
Duration : 00:04:38.69 = 12290317 samples = 20901.9 CDDA sectors
File Size : 11.5M
Bit Rate : 331k
Sample Encoding: MPEG audio (layer I, II or III)
Comments :
Title=Memories Within an Empty Castle in Ruins
Artist=Inquisition
Album=Veneration of Medieval Mysticism and Cosmological Violence
Tracknumber=5/13
Year=2024
Genre=Metal
Discnumber=1/1

[/more]

Register

Register
(156) 6666666, 666days, 6black6magic6, acerbus, aesteticvice, AHBAnep, Ainar, AlexSmith, Altkiller, ancalagoninfernus, andeimon, andivi, AndreFrancis, anotherandomofo, Antichrist, Aresson, Arghfer, artscald, as71, Ash_1980, BabylonRise, Ballisargon, Bardo, BERZERK, blacky66, blaskhyrk, Boozer, Bulldozzzzzzer, cenzored, cesar, Condehate, CRUNCH, CuRSeD, Daale, DarkHorde, deadbutdreaming, dermarsoran, EndlessDrone, ENDSMOUTH, ent404, Evgen79, Femto, Firefrost, Froze, Frozenkult, Fryz, fuoco, garml2, Grev, grobator, Gylve, HelenVaughan, hellbibber, Hell_Is_Here, helvetestoner, Henkel, Henmik, HMHamster, igore2911, Ildjarn, Infidel, infozahist, Isildur, Jackyl, John Beak, judaz, kazulapka, kefka, khestanow3001, kim666, kiol1, Kisser, legion01, LEGION69, LiarOfAngmar, Lord Noctua, lucifix, Lucju, Lux, madera, mardak666, marilin, megam, Melusinara, Metalass, metaljosue, mishasha, MMMMM, mrdrs, nadin85, Nattfodd, nemx, nikolay81, noel666, nsmetalhead, Occultas, Old Vyaine, older68, Phlebotomized, Pinhead666, princessofdarkness, Purestenchkvlt, Radek, Rahmer, recber, respect, Reverend, rimfrost, Rita, robertho777, rominow, Rover, RUDACHUR, RUSP73, sabr, SadistikSlayer, sandr666, satanist666, scorn33, Sergey, Shadechaser, Shnapsregen, SilentNidhogg, skogtroll, smysl, Soulgrinder, Spunkynut, StabWound, Strid, Strygaldwir, supremo, TeamatSE, the_cleanser, trabantfan, tschunioronbeer, uk82grind, VALERY, Vassago06, VECTOR, Vidyadharov, vov7609, vovenom, Wail, WarmasterChorus, Wormtongue, Wotanwatch, wreak, Xor, xska, yarrsuaa, yinchanghanhuang, yuratroll, Zenial, Zer0, Zhelezjaka, Козлотролль,
Jan 18 2024, 12:28:13 Vemod - The Deepening (2024)


*Artist: Vemod
*Album: The Deepening
*Year: 2024
*Genre: Black Metal
*Country: Norway
*Format: mp3@CBR320kbps
*Size: 112MB

Tracklist:
1. Mot oss, en ild 01:01
2. Der guder dør 13:01
3. True North Beckons 09:44
4. Fra drømmenes bok I 01:39
5. Inn i lysende natt 06:45
6. The Deepening 16:13
******************************
Total playing time: 48:23



[more=Extended info]Prophecy Productions, January 19th[/more]

[more=Technical info]
Input File: 03 - True North Beckons.mp3
Channels : 2
Sample Rate : 44100
Precision : 16-bit
Duration : 00:09:44.00 = 25754400 samples = 43800 CDDA sectors
File Size : 23.6M
Bit Rate : 324k
Sample Encoding: MPEG audio (layer I, II or III)
Comments :
Title=True North Beckons
Artist=Vemod
Album=The Deepening
Tracknumber=3
Year=2024-01-19
Genre=Black Metal
Discnumber=1

[/more]

Register

Register
(77) 231282ftw, 6666666, acerbus, AlexSmith, alikkon, Altkiller, andeimon, andivi, AndreFrancis, Angeldemon617, Antichrist, artscald, BERZERK, Boozer, Buregon, Bzth, cancer1974, Carcharoth, cesar, Daale, DarkHorde, deadbutdreaming, demogogron, dermarsoran, ent404, Femto, foxmalderua, Fryz, garml2, gena, gobblin, Grev, gusto24191, Ildjarn, kefka, khestanow3001, kim666, kryptor, Marek, Messian, MMMMM, nadin85, Nebo, nemx, nsmetalhead, older68, oldvarg, Ostinato, princeshr, Purestenchkvlt, rimfrost, Rita, robertho777, rocesid, Rover, SaintVitus, satanist666, Shadechaser, SilentNidhogg, smes, squall8fr, stub888, supremo, Taragorm, thenecromancer, VALERY, Wail, wreak, wtk.412, Xor, xska, yinchanghanhuang, Yorker, yuratroll, ZA670, ZamanFu, Zer0,
Jan 13 2024, 01:23:12 Departure Chandelier - Satan Soldier Of Fortune (2024)
ЦИТАТА(Daale @ Jan 12 2024, 19:32:56) *
Лично мне куда больше интересно услышать, оправдало ли сыгранное ожидание комрадов Velmi и acerbus. Да и что думает сам выложивший релиз RADeus.

Обычно я не комментирую выкладываемые мной релизы, потому что они и так проходят отбор Радеуса и изначально должны быть выше среднего. Всё это субъективно, поэтому стараюсь не навязывать.

Думаю, что для 2024 года это хороший, выделяющийся альбом. Как продолжение первого альбома, тоже хорошо, не разочаровывает. Простота, здравый мелодизм, уже узнаваемый почерк. Нужно уметь совмещать примитивизм и такт, мелодию и грубость, ярость и выдержанность, и главное - нужно уметь собрать в кулак все эти атомы, чтобы сформировалась новая галактика.
Интересный альбом, который буду ещё расслушивать.
(7) Ainar, BERZERK, Daale, judaz, Occultas, rominow, sabr,
Jan 12 2024, 17:06:57 Departure Chandelier - Satan Soldier Of Fortune (2024)


*Artist: Departure Chandelier
*Album: Satan Soldier Of Fortune
*Year: 2024
*Genre: Black Metal
*Country: Canada | United States
*Format: mp3@CBR320kbps
*Size: 87MB

Tracklist:
1. Intro (Napoleonic Battlefield Cleanup) 2:31
2. By Way of Torchlight from Parliament to Catacombs 6:14
3. Hard as a Coffin Nail 06:10
4. Accipitridae 06:14
5. Interlude (Graverobbers Profit Off the Fallen of Both Sides) 1:12
6. Hail Dark Forces 5:46
7. Satan Soldier of Fortune 7:33
8. Outro (Dragged Via Musket Straps and Set Upon Bivouac Fires) 2:05
******************************
Total playing time: 37:45



[more=Extended info]Occult Antiquities, February 23rd[/more]

[more=Technical info]
Input File: 06 - Hail Dark Forces.mp3
Channels : 2
Sample Rate : 44100
Precision : 16-bit
Duration : 00:05:46.41 = 15276505 samples = 25980.5 CDDA sectors
File Size : 14.0M
Bit Rate : 323k
Sample Encoding: MPEG audio (layer I, II or III)
Comments :
Title=Hail Dark Forces
Artist=Departure Chandelier
Album=Satan Soldier of Fortune
Tracknumber=6/8
Year=2024
Genre=Black Metal

[/more]

Register

Register
(67) acerbus, Ainar, aleon, Alexis The Best, AlexSmith, alikkon, Altkiller, andeimon, artscald, BERZERK, Blackner, Boozer, Carcharoth, Daale, deadbutdreaming, demonosz, dermarsoran, durandal, ent404, Forest Silence, Fryz, gobblin, Grev, Hell_Is_Here, Ildjarn, isvili, judaz, kefka, kolar666, Lamby90, lucifix, Maximvs, MMMMM, nadin85, Narasimha, Nebo, nemx, nsk2008, obituarydark, Occultas, princeshr, Purestenchkvlt, pwoods, rammmirez, rimfrost, rominow, Rover, sabr, satanist666, Sergey, SilentNidhogg, Soulgrinder, stormhatt, supremo, TeamatSE, titorrante, Unscarted, VALERY, valgalder, Vassago06, Velmi, Vidder242, vovenom, wreak, ZambuL, Zer0, Козлотролль,
Dec 28 2023, 13:50:02 Suicide Circle - Bukkake Of Souls (2023)


*Artist: Suicide Circle
*Album: Bukkake Of Souls
*Year: 2023
*Genre: Black Metal
*Country: France
*Format: mp3@CBR320kbps
*Size: 112MB

Tracklist:
1. The Star Spawn 06:49
2. The Highest Spheres 06:27
3. The Advent 06:58
4. Bukkake of Souls 08:21
5. For Nothing 05:20
6. The Prince of Darkness 07:07
7. Any of You 06:17
******************************
Total playing time: 47:19



[more=Extended info]Osmose Productions, December 29th[/more]

[more=Technical info]
Input File: 06 - The Prince of Darkness.mp3
Channels : 2
Sample Rate : 44100
Precision : 16-bit
Duration : 00:07:07.00 = 18830700 samples = 32025 CDDA sectors
File Size : 17.7M
Bit Rate : 331k
Sample Encoding: MPEG audio (layer I, II or III)
Comments :
Title=The Prince of Darkness
Artist=SUICIDE CIRCLE
Album=Bukakke of Souls
Tracknumber=6
Year=2023-12-29
Genre=Metal
Discnumber=1

[/more]

Register
(42) acerbus, Alexis The Best, AlexSmith, alikkon, Altkiller, Antichrist, artscald, babanguida, biroutios, Boozer, Chasm, ent404, Hell_Is_Here, igore2911, judaz, kefka, kim666, LEGION69, MAPhilosopher, metaljosue, MMMMM, nadin85, nemx, nsk2008, Occultas, oldvarg, Rover, SadistikSlayer, SaintVitus, satanist666, SilentNidhogg, smes, supremo, the_cleanser, VALERY, varlam4, vasiljev_sergej, vosmidesijatye, Wail, wreak, WX419, Козлотролль,
Dec 26 2023, 22:36:22 White Death - Iconoclast (2023)
ЦИТАТА(frostdomain @ Dec 26 2023, 19:23:52) *
I got the mp3 files through soulseek,the priority is the quality not the source, and it is a real stereo 320 showed in the high spectrum graphic examination.
The section is not restricted to post just CD rips,there are a lot of bandcamp and streaming rips that do not reach the technical graphs of a real 320

This spectrum has a cut on 16kHz. It has some colored area above, but it's just a fake. It's an obvious youtube rip, I've seen a lot of these with same behavior. Soulseek is not a source of truth. If you don't have a CD or FLAC, you don't have a proof. The low bitrate release without a doubt.
(1) Occultas,
Nov 30 2023, 14:28:56 Paradise Lost - Icon (1993)
Paradise Lost - Icon 30 (2023), Gothic/Doom Metal (D) by necroscum



Tracklist:
01. Embers Fire 04:51
02. Remembrance 03:28
03. Forging Sympathy 04:41
04. Joys Of The Emptiness 03:29
05. Dying Freedom 03:43
06. Widow 03:07
07. Colossal Rains 04:31
08. Weeping Words 03:51
09. Poison 03:04
10. True Belief 04:32
11. Shallow Seasons 04:54
12. Christendom 04:33
13. Deus Misereatur 01:53
******************************
Total playing time: 50:37

[more=Technical info]
Input File: 02 - Remembrance.mp3
Channels : 2
Sample Rate : 44100
Precision : 16-bit
Duration : 00:03:28.29 = 9185369 samples = 15621.4 CDDA sectors
File Size : 8.41M
Bit Rate : 323k
Sample Encoding: MPEG audio (layer I, II or III)
Comments :
Title=Remembrance
Artist=Paradise Lost
Album=Icon 30
Tracknumber=2/13
Year=2023
Discnumber=1/1

[/more]

Register
(17) 6666666, Aresson, Bzth, Chasm, dma-09, Emm Human, green7272, hellbibber, hellonstage, Joey_73, Klapskalli, Mihalik, Old Vyaine, VVP123, wrath082, yuratroll, zyklon,
Oct 27 2023, 14:16:51 Ljå - 1943 (2023)


*Artist: Ljå
*Album: 1943
*Year: 2023
*Genre: Black Metal
*Country: Norway
*Format: mp3@CBR320kbps
*Size: 99MB

Tracklist:
1. Klar Til Strid 4:07
2. Revheim 4:47
3. Levande Skjold 6:15
4. Graverne 1:50
5. 1943 5:25
6. Vestland 6:24
7. Alltid Gje Opp 5:28
8. Ild Og Bevegelse 4:32
9. Hollow Coast 4:29
******************************
Total playing time: 43:17



[more=Extended info]Self-released CDr could be bought on October 20th 2023 at the Checkpoint Charlie concert. Approximately 50 copies made.

Отличный альбом.[/more]

[more=Technical info]
Input File: 02 - Revheim.mp3
Channels : 2
Sample Rate : 44100
Precision : 16-bit
Duration : 00:04:47.31 = 12670503 samples = 21548.5 CDDA sectors
File Size : 11.5M
Bit Rate : 320k
Sample Encoding: MPEG audio (layer I, II or III)
Comments :
Title=Revheim
Artist=Ljå
Album=1943
Tracknumber=2
Year=2023
Genre=Black Metal

[/more]

Register


Register
(93) 666days, acerbus, aleon, AlexSmith, alikkon, Altkiller, andeimon, artscald, cancer1974, Carcharoth, cesar, ChaosArcana, Chasm, Daale, dromord, egortitov, Emhyr var Emreis, Evrom, Frozenkult, Fryz, gena, Gimli17, Grev, Hell_Is_Here, helvetestoner, Hexenmeister, Ildjarn, Infidel, Kaa23, Kazoth, kefka, kim666, Korpse, kryptor, Lord Noctua, lucifix, Marek, Mencae77, metaljosue, MMMMM, murian, nadin85, Nebo, nemx, nsk2008, Occultas, Olethros, Qliphoth, Radek, rammmirez, Reverend, rimfrost, Rita, robertho777, Rover, sacrut, SaintVitus, sandr666, satanist666, Sergey, Shnapsregen, SilentNidhogg, smysl, Soulgrinder, SSWolf88, stub888, supremo, Surt, Taragorm, TekFarmer, thenecromancer, tim47, VALERY, Velmi, Victim of fate, Vidder242, Vitald, vov7609, vovenom, Wail, Weikai, wreak, wtk.412, Xor, xska, yarrsuaa, yinchanghanhuang, ZamanFu, ZambuL, Zenial, zhol, Zoloft, Абигор,
Oct 19 2023, 17:47:11 Goatpenis - Flesh Consumed In The Battlefield (2014)
FLAC
Register
(1) Pinhead666,
Oct 19 2023, 13:39:11 Asagraum - Veil Of Death, Ruptured (2023)


*Artist: Asagraum
*Album: Veil Of Death, Ruptured
*Year: 2023
*Genre: Black Metal
*Country: Netherlands
*Format: mp3@CBR320kbps
*Size: 85MB

Tracklist:
1. Ignem Purificat Lilitu 4:53
2. Fearless Dominance 5:11
3. Opus ad Errantem 1:04
4. De Verloren Tijd 5:24
5. Impure Fire 5:10
6. Veil of Death, Ruptured 5:25
7. Opus ad Aeternum 3:16
8. De Waanzin Eoept Mijn Naam 6:09
******************************
Total playing time: 36:30



[more=Extended info]Edged Circle Productions, October 20th[/more]

[more=Technical info]
Input File: 04 - De Verloren Tijd.mp3
Channels : 2
Sample Rate : 44100
Precision : 16-bit
Duration : 00:05:23.00 = 14244300 samples = 24225 CDDA sectors
File Size : 13.2M
Bit Rate : 326k
Sample Encoding: MPEG audio (layer I, II or III)
Comments :
Title=De Verloren Tijd
Artist=Asagraum
Album=Veil of Death, Ruptured
Tracknumber=4
Year=2023-10-20
Genre=Metal
Discnumber=1

[/more]

Register


Register
(97) 6black6magic6, AlexSmith, alikkon, Altkiller, andivi, AndreFrancis, artscald, Bardo, BlackMirror, BlackSwordMaster88, BladeOvDarkness, Boozer, cancer1974, Carcharoth, cenzored, cesar, Condehate, DarkHorde, demonosz, dermarsoran, desekrator, egortitov, Emhyr var Emreis, ent404, ErikGoth, Femto, Forest Silence, Fryz, guidanner, Hell_Is_Here, Henkel, Hihimars, Ignativs, Ildjarn, INDARKNESS, infozahist, kefka, kim666, Korpse, Krosis, LEGION69, lucifix, Lucju, madera, Marek, marraz, Melusinara, Messian, metaljosue, milosdjor, mishasha, MMMMM, murian, nadin85, Nebo, nemx, Nerevar, Nordavind, nsmetalhead, Occultas, older68, oldvarg, OldY, Olguard, Phlebotomized, Purestenchkvlt, Radek, Rahmer, RedMoloch, rimfrost, robertho777, Rover, RUSP73, SadistikSlayer, satanist666, SilentNidhogg, smysl, StabWound, stub888, supremo, Surt, TeamatSE, thenecromancer, VALERY, Vidder242, Vidyadharov, vovenom, wrath082, wreak, Xor, xska, xxx191989, yarrsuaa, yinchanghanhuang, yuratroll, Zenial, Zer0,
Oct 12 2023, 16:41:17 Domini Inferi - Reversed Prayers (2023)


*Artist: Domini Inferi
*Album: Reversed Prayers
*Year: 2023
*Genre: Black Metal
*Country: Netherlands
*Format: mp3@CBR320kbps
*Size: 87MB

Tracklist:
1. Eternal Wrath of Darkness 05:10
2. Violent Storm of Demonic Might 04:11
3. Towards the Gates of Perdition 04:01
4. Victorious Infernal Carnage + He that Moves the Dead 05:04
5. Reversed Prayers 04:08
6. Those Who Honor the Devil 04:24
7. Under Satans Glorious Command 03:57
8. Crypt of the Cursed Saints 05:58
******************************
Total playing time: 36:53


Preview 2

[more=Extended info]Drakkar Productions, September 22nd

Project of Hellchrist Xul (Funeral Winds)[/more]

[more=Technical info]
Input File: 06 - Those Who Honor the Devil.mp3
Channels : 2
Sample Rate : 44100
Precision : 16-bit
Duration : 00:04:25.00 = 11686632 samples = 19875.2 CDDA sectors
File Size : 10.8M
Bit Rate : 327k
Sample Encoding: MPEG audio (layer I, II or III)
Comments :
Title=Those Who Honor the Devil
Artist=Domini Inferi / Domini Inferi / Domini Inferi / Domini Inferi
Album=Reversed Prayers
Tracknumber=6/8
Year=2023
Genre=Black Metal
Discnumber=1/1

[/more]

Register

Register
(51) acerbus, Alexis The Best, AlexSmith, Altkiller, artscald, Boozer, Bzth, cancer1974, Carcharoth, cesar, Chasm, dermarsoran, egortitov, ent404, Fallen_Angel_of_Doom, gobblin, Hell_Is_Here, Hexenmeister, Ildjarn, INDARKNESS, infozahist, kefka, kim666, lopuh21, metaljosue, mizantrophist, MMMMM, nemx, Premature_Devotion, rimfrost, RUSP73, satanist666, Sergey, SilentNidhogg, smes, smysl, Strid, stub888, supremo, VALERY, varlam4, vasiljev_sergej, Velmi, Vidder242, Vidyadharov, vovenom, Wail, Weikai, wreak, Абигор, Козлотролль,
Oct 12 2023, 15:41:43 Slidhr - White Hart! (2023)


*Artist: Slidhr
*Album: White Hart!
*Year: 2023
*Genre: Black Metal
*Country: Ireland
*Format: mp3@CBR320kbps
*Size: 104MB

Tracklist:
1. The Temple Armoury 06:05
2. White Hart! 04:30
3. Sacred Defiance 05:36
4. Trench Offering 05:57
5. What the Gauntlet Bestows 06:50
6. The Bloodied Tongue 04:28
7. Wall of the Reptile 06:03
8. Hate's Noose Tightens 05:18
******************************
Total playing time: 44:47




[more=Extended info]Debemur Morti, October 13th[/more]

[more=Technical info]
Input File: 02 - White Hart!.mp3
Channels : 2
Sample Rate : 44100
Precision : 16-bit
Duration : 00:04:30.00 = 11907000 samples = 20250 CDDA sectors
File Size : 11.0M
Bit Rate : 325k
Sample Encoding: MPEG audio (layer I, II or III)
Comments :
Title=White Hart!
Artist=Slidhr
Album=White Hart!
Tracknumber=2
Year=2023-10-13
Genre=Metal
Discnumber=1

[/more]

Register

Register
(57) acerbus, AlexSmith, Altkiller, Antichrist, artscald, as71, BandR75, BlackSwordMaster88, blaskhyrk, cancer1974, Chasm, Condehate, demogogron, dermarsoran, doomTemplar, egortitov, Emhyr var Emreis, ent404, Froze, gobblin, Hell_Is_Here, Ildjarn, infozahist, isvili, kefka, kim666, Korpse, madera, Marek, Messian, milosdjor, MMMMM, nadin85, nemx, Nerevar, nsmetalhead, Premature_Devotion, Purestenchkvlt, rimfrost, sabr, satanist666, SilentNidhogg, smes, stub888, supremo, VALERY, vasiljev_sergej, Velmi, vovenom, wreak, xska, Yorker, yuratroll, ZamanFu, Zenial, Zer0, Zoloft,
Aug 31 2023, 17:47:25 Marduk - Memento Mori (2023)
FLAC
Register
(28) 666days, acerbus, AHBAnep, Alexis The Best, andivi, biroutios, blackestdesire, Blancos00, Bzth, Chasm, Dante_D, Emhyr var Emreis, Farung, hellbibber, Ildjarn, Infidel, Marek, Mencae77, Occultas, pvlad666, StabWound, sTerLingaz, thenecromancer, Vidyadharov, Vintersorg, Wail, warhead123, wreak,
Aug 22 2023, 09:14:45 Blut Aus Nord - Disharmonium - Nahab (2023)
FLAC
Register
(35) 666days, acerbus, Alexis The Best, AndreFrancis, as71, BERZERK, canadaspaceman, Doooomed, Emhyr var Emreis, ErikGoth, Extreme Brutal, Forest Silence, Fuckhead, Ignativs, isvili, jasonwg11, Lux, Marek, Mencae77, mirotvorets, mort, Mortuusinfernus, Nadja, Nebo, nemx, NOMIDIMON, Occultas, Piob, Requiescat, sabr, sTerLingaz, trabantfan, Wotanwatch, wreak, Абигор,
Jul 25 2023, 09:27:36 Clandestine Blaze - Resacralize The Unknown (2023)
Раньше был транскод всё же.
Добавил флак, заменил ссылки на 320, перенёс в New Releases. Качайте в качестве.
А альбом хороший, запоминающийся.
(19) acerbus, aesteticvice, Ainar, cesar, Chasm, Daale, ent404, frostdomain, goatkvlt, gobblin, Infidel, Lux, Occultas, Premature_Devotion, Rajaat, Vidyadharov, vosmidesijatye, vovenom, Абигор,
Jul 24 2023, 12:45:03 Xasthur - Inevitably Dark (2023)
ЦИТАТА(Occultas @ Jul 24 2023, 13:55:45) *
CD3 ?

Bonus CD
3-1 Segue
3-2 A Mind Of You're Owned
3-3 Behind The Scenes
3-4 Choreographic Tragedies
3-5 This Can't End Well

320:
Register

FLAC:
Register
(4) Nadja, nikolay81, Occultas, vosmidesijatye,
Jul 21 2023, 21:03:25 Clandestine Blaze - Resacralize The Unknown (2023)


*Artist: Clandestine Blaze
*Album: Resacralize The Unknown
*Year: 2023
*Genre: Black Metal
*Country: Finland
*Format: mp3@CBR320kbps
*Size: 106MB

Tracklist:
1. The Birth of the Sun 5:34
2. Tombstone of Christianity 3:44
3. Only the Shadows of This World 3:58
4. Our Cross to Bear 4:31
5. Bring Me the Head 4:47
6. Resacralize the Unknown 4:44
7. Mass Graves of All Eternity 7:13
******************************
Total playing time: 34:31



[more=Extended info]Northern Heritage Records, July 4th.[/more]

[more=Technical info]
Input File: Resacralize The Unknown.mp3
Channels : 2
Sample Rate : 44100
Precision : 16-bit
Duration : 00:04:43.89 = 12519593 samples = 21291.8 CDDA sectors
File Size : 15.0M
Bit Rate : 423k
Sample Encoding: MPEG audio (layer I, II or III)
Comments :
Title=Resacralize The Unknown
Artist=Clandestine Blaze
Album=Resacralize The Unknown
Tracknumber=06/7
Year=2023
Genre=Black Metal
Discnumber=1/1

[/more]

Register


Register
(131) 6666666, 6black6magic6, acerbus, aesteticvice, aleon, Alexis The Best, AlexSmith, ancalagoninfernus, andivi, Antichrist, Aphrax, Aresson, as71, Ash_1980, Baal88, babanguida, BERZERK, biroutios, BlackSwordMaster88, bloodwind, Boozer, Bzth, Carcharoth, cesar, Chasm, Chrisaz84, Condehate, crackhead, Daale, DarkHorde, darksmith, Demonologist, dermarsoran, DMIYUR, doomTemplar, Emhyr var Emreis, ent404, Evgen79, Evilded, Evrom, Farfarello, fftn, frostdomain, gena, gobblin, Gonzalortiz, grimoir, Hell_Is_Here, Henmik, HMHamster, Ignativs, igore2911, Ildjarn, Infidel, judaz, JuicyMaraca, Kazoth, kefka, kim666, kimkayoung, kipelov999, kolar666, kryptor, lafuma, Lamby90, Lanceatum, LEGION69, lopuh21, Lord Noctua, madera, maochen, MAPhilosopher, masterhammer78, Mencae77, Metalass, mirotvorets, Mist13Signifier, MMMMM, Moonshtook, nadin85, Nebo, nemx, Nomadwarfukk, NOMIDIMON, nsmetalhead, Occultas, oldvarg, Orkkh, pentagramburns, Premature_Devotion, pwoods, Radek, Rajaat, rammstein888, recber, Reverend, robertho777, SaintVitus, SancheZZ, Sanctus, Sangreal, SAPOGi, Sarin, satanist666, Scorpi, Sergey, Shnapsregen, SilentNidhogg, smes, smysl, Soulgrinder, ssslash, supremo, Surt, TeamatSE, thenecromancer, VALERY, vasiljev_sergej, VECTOR, Velmi, Victim of fate, Vidyadharov, vosmidesijatye, vovenom, wolfswut, wreak, WX419, Xor, xska, Абигор, Фо,

26 Pages V   1 2 3 > » 
- Lo-Fi Version Support form
Copyrights and abuse reports form
Time is now: 16th April 2024 - 02:31:40