Welcome Guest ( Log In | Register )

История благодарностей участнику Lord_Djaspam ::: Спасибо сказали: 214 раз(а)
Дата поста: В теме: За сообщение: Спасибо сказали:
Aug 1 2021, 09:22:09 The Sullen Route - Акира [single] (2021)


*Artist: The Sullen Route
*Album: Акира [single]
*Year: 2021
*Genre: Doom/Death/Gothic Metal
*Country: Russian Federation
*Format: mp3@CBR320kbps
*Size: 11MB

Tracklist:
01. Акира
******************************
Total playing time: 5:01

Youtube


[more=Extended info]Сингл группы The Sullen Route из выходящего летом трехпесенного EP "АКИРА"[/more]

[more=Technical info]
Input File: 01. АКИРА.mp3
Channels : 2
Sample Rate : 48000
Precision : 16-bit
Duration : 00:05:00.96 = 14446224 samples ~ 22572.2 CDDA sectors
File Size : 12.0M
Bit Rate : 320k
Sample Encoding: MPEG audio (layer I, II or III)
Comments :
Title=АКИРА
Artist=THE SULLEN ROUTE
Album=АКИРА
Tracknumber=01/03
Year=2021
Genre=9

[/more]

Register
(5) caro, Chasm, chipsgott, Olethros, sidJoy,
Jul 6 2021, 06:56:27 Новости DOOM Metal
The Sullen Route летом выпускают EP

[youtube]jp3Mdr0bafU[/youtube]
(1) Chasm,
Mar 1 2021, 06:47:00 Love And Death - Perfectly Preserved (2021)


*Artist: Love And Death
*Album: Perfectly Preserved
*Year: 2021
*Genre: Nu-Metal
*Country: United States
*Format: mp3@CBR320kbps
*Size: 81MB

Tracklist:
1.Infamy
2.Tragedy
3.Down
4.Let Me Love You (Ft. Lacey Sturm)
5.Death of Us
6.Slow Fire
7.The Hunter (Ft. Keith Wallen)
8.Lo Lamento
9.Affliction
10.White Flag (Ft. Ryan Hayes)
******************************
Total playing time: 35:19

Youtube

[more=Extended info]Love and Death — американская рок-группа, основанная гитаристом Korn Брайаном Уэлчем[/more]

[more=Technical info]
Input File: 03.Down.mp3
Channels : 2
Sample Rate : 44100
Precision : 16-bit
Duration : 00:04:00.42 = 10602566 samples = 18031.6 CDDA sectors
File Size : 9.65M
Bit Rate : 321k
Sample Encoding: MPEG audio (layer I, II or III)
Comments :
Title=Down
Artist=Love And Death
Album=Perfectly Preserved
Tracknumber=3/10
Year=2021
Genre=Alternative / Nu-Metal
Discnumber=1/1

[/more]

Register
(6) Bloodn Lord, dermarsoran, gwar, infiltrator, Olethros, Phlebotomized,
Jun 8 2020, 08:36:52 The Sullen Route - Madness Of My Own Design (10Th Anniversary Version) [single] (2020)


*Artist: The Sullen Route
*Album: Madness Of My Own Design (10Th Anniversary Version) [single]
*Year: 2020
*Genre: Doom/Death Metal
*Country: Russian Federation
*Format: mp3@CBR320kbps
*Size: 18MB

Tracklist:
01.Madness of my own design (10th Anniversary Version) 07:44
******************************
Total playing time: 7:44



[more=Extended info]10th Anniversary Version[/more]

[more=Technical info]
Input File: 01 - Madness of my own design (10th Anniversary Version).mp3
Channels : 2
Sample Rate : 44100
Precision : 16-bit
Duration : 00:07:44.08 = 20465752 samples = 34805.7 CDDA sectors
File Size : 18.6M
Bit Rate : 320k
Sample Encoding: MPEG audio (layer I, II or III)
Comments :
Title=Madness of my own design (10th
Artist=The Sullen Route
Album=Madness of my own design (single)
Tracknumber=01/01
Year=2020
Genre=9

[/more]

Register
(10) Chasm, chefo, infiltrator, killingod, kluval, lacrimoza, libertine, Lukittaz, Olethros, Rosen,
Apr 30 2020, 13:40:58 Новости DOOM Metal
ЦИТАТА(Un4given @ Apr 23 2020, 23:22:40) *
Не, Doom:VS – это плохо, но боюсь новый Draconian будет ещё хуже

Видимо из памяти уже выветрились альбомы 2008 года от обеих формаций
Там было все противоположно сову "ПЛОХО"
(2) Deze, infiltrator,
Apr 19 2020, 10:37:37 Katatonia - City Burials (2020)
Настолько все предсказуемо еще ни разу не было во всем их предыдущем творчестве 21.gif
(1) Maestrovs,
Mar 17 2020, 19:12:36 Новости DOOM Metal
Неожиданно Mourning Beloveth с альбомом 25.03.2020


(3) Black Cat, infiltrator, Un4given,
Mar 5 2020, 19:25:01 My Dying Bride - The Ghost Of Orion (2020)
ЦИТАТА(Faust_Vulkan_16 @ Mar 5 2020, 20:47:45) *
...аж вижу как анод лампы "звенит" раскаленный. pray.gif

Не хочу расстраивать, но MDB с 2004 года пишут гитары через цифровые процессоры, так что "ни один анод лампы" не пострадал во время записи bye.gif
(1) Ghostb,
Dec 11 2019, 19:18:49 The River - Vessels Into White Tides (2019)
Беру пиво, пью пиво, и..."Ты неси меня река"... alkash.gif 9.gif предвкушаю погружение на глубину
(1) Metalass,
Nov 15 2019, 17:09:49 October Tide - In Splendor Below (2019)
год заканчивается уже, альбом все такой же чудесный и слушается на одном дыхании.
И риффак из We Died in October так никто не переплюнул в жанре
(1) quicksand,
Sep 26 2019, 19:50:32 The Sullen Route - Поглощение [ep] (2019)


*Artist: The Sullen Route
*Album: Поглощение [ep]
*Year: 2019
*Genre: Doom/Death Metal
*Country: Russian Federation
*Format: mp3@CBR320kbps
*Size: 32MB

Tracklist:
01. Приклонение
02. Поглощение
******************************
Total playing time: 12:57




[more=Extended info]The Sullen Route возвращаются к корням своего звучания с новым EP "Поглощение"[/more]

[more=Technical info]
Input File: 01.Приклонение.mp3
Channels : 2
Sample Rate : 44100
Precision : 16-bit
Duration : 00:03:26.64 = 9112604 samples = 15497.6 CDDA sectors
File Size : 8.27M
Bit Rate : 320k
Sample Encoding: MPEG audio (layer I, II or III)
Comments :
Title=Приклонение
Artist=The Sullen Route
Album=Поглощение
Tracknumber=1/2
Year=2019

[/more]

Register
(12) artscald, Chasm, chefo, kluval, libertine, Olethros, Rosen, Shadechaser, sidJoy, stumpheavyrock, VALERY, wreak,
Sep 1 2019, 08:46:18 The Sullen Route - Madness Of My Own Design (2010)
2010 - Madness of my own design (FLAC) __377mb

Register
(2) Olethros, sidJoy,
Sep 1 2019, 08:44:58 The Sullen Route - Apocalyclinic (2011)
2011 - Apocalyclinic (FLAC)_337mb

Register
(2) Olethros, sidJoy,
Sep 1 2019, 08:42:57 The Sullen Route - Last Day In Utter Diseases (2016)
2018 - Last Day In Utter Diseases [re​-​release] (FLAC) _ 343_mb

Register
(1) sidJoy,
Aug 30 2019, 08:02:53 The Sullen Route - Pulse [single] (2010)
The Sullen Route - Pulse (320 kbps)
Register
(1) sidJoy,
Aug 30 2019, 07:57:07 The Sullen Route - Madness Of My Own Design (2010)
The Sullen Route - Madness Of My Own Design (320 kbps)
karelia
(1) sidJoy,
Aug 30 2019, 07:53:12 The Sullen Route - Apocalyclinic (2011)
The Sullen Route - Apocalyclinic (320 kbps)
karelia
(1) sidJoy,
Aug 6 2019, 14:39:05 Slipknot - We Are Not Your Kind (2019)
ЦИТАТА(vosmidesijatye @ Aug 6 2019, 15:36:44) *
Че ж вам всем надобно то еще от группы?

Поддерживаю, чего вы все хотите...для чего вам это нужно...воимя чего все эти претензии alkash.gif ???
(2) infiltrator, vosmidesijatye,
May 19 2019, 19:08:55 Новости DOOM Metal
а тем временем SHAPE OF DESPAIR дали концерт в Америке
[youtube]5_c6vxTRx0k[/youtube]
(3) Evjenne, infiltrator, Old Vyaine,
Apr 11 2019, 10:55:24 Печальный мелодэт
Souldrainer очень апатичны 20.gif

[youtube]f2ovpoPqacw[/youtube]
(2) June, SyncestrA,
Apr 11 2019, 07:15:55 Печальный мелодэт
как могли забыть - dark tranquillity
(2) Foneg, infiltrator,
Mar 26 2019, 15:14:50 Новости DOOM Metal
Funeral записали альбом, и свежий трек In the fathoms of wit and reason можно прослушать (с 1ч. 1 мин.)

Судя по треку и странице уровня From These Wounds все таки не приходится ждать
(3) Black Cat, Evjenne, infiltrator,
Mar 22 2019, 09:36:47 Новости DOOM Metal
GODTHRYMM песня из дебютного альбома
[youtube]PYt5c6gqOjE[/youtube]
(2) infiltrator, Lux,
Jan 22 2019, 16:41:37 Carnal Forge - Gun To Mouth Salvation (2019)
качёво, качественно реализовано, мега хитов нет, но общую картину/атмосферу хорошо создают. Почему все набросились на них со словами - "третьесорт" или "посредственность" не понятно? Вы господа слишком многого ожидаете от такого рода музыки. Тот же новый альбом Soilwork вызывает гораздо больше противоречивых и, в основном, отрицательных эмоций.
(1) Samaritianin,
Jan 4 2019, 10:54:28 Якорь - Я Не Вернусь (2019)
Вспомнил, вот до чего можно докатиться исполняя в такой манере песни...

[youtube]E4zsYgkRMMA[/youtube]

тут без слез смотреть и слушать невозможно
(3) Deze, infiltrator, nsk2008,

3 Pages V   1 2 3 >
- Lo-Fi Version Support form
Copyrights and abuse reports form
Time is now: 5th August 2021 - 18:02:29