Welcome Guest ( Log In | Register )

История благодарностей участнику amebix ::: Спасибо сказали: 2142 раз(а)
Дата поста: В теме: За сообщение: Спасибо сказали:
Sep 11 2021, 10:21:48 Táltos - Vártunk Már Eleget [ep] (2021)


*Artist: Táltos
*Album: Vártunk Már Eleget [ep]
*Year: 2021
*Genre: Folk/Black Metal
*Country: Hungary
*Format: mp3@CBR320kbps
*Size: 43MB

Tracklist:
01. Vártunk Már Eleget - Igazi Reflektorok 03:20
02. Ritmusa Dobban - Surran A Lélek 03:55
03. Tanulj Tőle 04:24
04. Csak Ülsz 03:21
05. Nyomor - És Lassan Megtelik 03:58
******************************
Total playing time: 18:58



[more=Technical info]
Input File: 01 - Vártunk már eleget - Igazi reflektorok.mp3
Channels : 2
Sample Rate : 44100
Precision : 16-bit
Duration : 00:03:20.65 = 8848797 samples = 15049 CDDA sectors
File Size : 8.03M
Bit Rate : 320k
Sample Encoding: MPEG audio (layer I, II or III)
Comments :
Title=Vártunk már eleget - Igazi reflektorok
Artist=TALTOS
Album=Vártunk már eleget /EP/
Tracknumber=1
Year=2021

[/more]

Register
(13) caro, Cartman223, chipsgott, fuoco, grimoir, gwar, noel666, nsk2008, Olethros, Taakeferd, VALERY, vasiljev_sergej, Wail,
Aug 26 2021, 10:51:43 Bordó Sárkány - A Lány És A Sárkány (2019)


*Artist: Bordó Sárkány
*Album: A Lány És A Sárkány
*Year: 2019
*Genre: Medieval/Folk
*Country: Hungary
*Format: mp3@CBR320kbps
*Size: 99MB

Tracklist:
01. Avaldsnes 04:25
02. A Lány És A Sárkány 04:21
03. Lovacska 03:26
04. Douce Dame Jolie 05:53
05. Ti Magyarok 04:58
06. Ledőlt Egy Fa 03:16
07. Como Poden 03:24
08. La Rosa 05:31
09. Skót 04:06
10. Utolsó Lehelet 02:33
******************************
Total playing time: 41:53




[more=Technical info]
Input File: 02 - A lány és a sárkány.mp3
Channels : 2
Sample Rate : 44100
Precision : 16-bit
Duration : 00:04:21.84 = 11547232 samples = 19638.1 CDDA sectors
File Size : 10.8M
Bit Rate : 329k
Sample Encoding: MPEG audio (layer I, II or III)
Comments :
Title=A lány és a sárkány
Artist=BORDÓ SÁRKÁNY
Album=A lány és a sárkány
Tracknumber=2
Year=2019-01-03
Discnumber=1

[/more]

Register
(6) Amadeus, Cartman223, Forest, gwar, kimkayoung, Olethros,
Aug 21 2021, 14:32:35 Speedraiser - Speedraiser [ep] (2021)


*Artist: Speedraiser
*Album: Speedraiser [ep]
*Year: 2021
*Genre: Speed/Thrash Metal
*Country: Poland
*Format: mp3@CBR320kbps
*Size: 32MB

Tracklist:
01. Midnight Streets 03:04
02. High Hills 03:36
03. Black Witch 03:28
04. Uncatchable 03:53
******************************
Total playing time: 14:01



[more=Technical info]
Input File: 01 - Midnight Streets.mp3
Channels : 2
Sample Rate : 44100
Precision : 16-bit
Duration : 00:03:04.80 = 8149504 samples = 13859.7 CDDA sectors
File Size : 7.39M
Bit Rate : 320k
Sample Encoding: MPEG audio (layer I, II or III)
Comments :
Title=Midnight Streets
Artist=SPEEDRAISER
Album=Speedraiser /EP/
Tracknumber=1
Year=2021

[/more]

Register
(18) aviacademy, boby9052, caro, cesar, gwar, HMHamster, Marek, METALHUNTER, Mogozoz, oldvarg, Olethros, piwimetal, Samaritianin, sergsazan, stumpheavyrock, Wail, wgs73, wreak,
Jul 10 2021, 11:37:35 Apocalypse - Collapse (2020)


*Artist: Apocalypse
*Album: Collapse
*Year: 2020
*Genre: Black/Thrash Metal
*Country: Italy
*Format: mp3@CBR320kbps
*Size: 108MB

Tracklist:
01. Apocalypse 04:22
02. A Game To Die 04:01
03. War And Death 04:26
04. Crushed By Death 04:29
05. Cleansed By Fire 05:10
06. Genocide 05:26
07. Masochist 04:21
08. Behind The Cross 05:27
09. Death And Lust 03:51
10. Collapse 05:56
******************************
Total playing time: 47:29



[more=Technical info]
Input File: 01 - Apocalypse.mp3
Channels : 2
Sample Rate : 44100
Precision : 16-bit
Duration : 00:04:22.42 = 11572590 samples = 19681.3 CDDA sectors
File Size : 10.5M
Bit Rate : 320k
Sample Encoding: MPEG audio (layer I, II or III)
Comments :
Title=Apocalypse
Artist=APOCALYPSE
Album=Collapse
Tracknumber=01
Year=2020

[/more]

Register
(17) bOOLty, caro, cist, Diflock, fuoco, Lukittaz, metala, METALHUNTER, Olethros, sergsazan, SilentNidhogg, stumpheavyrock, supremo, varlam4, vasiljev_sergej, wgs73, wreak,
Jun 5 2021, 12:46:34 Säcrificer - The First Offering [ep] (2021)


*Artist: Säcrificer
*Album: The First Offering [ep]
*Year: 2021
*Genre: Speed/Heavy Metal
*Country: Poland
*Format: mp3@CBR320kbps
*Size: 45MB

Tracklist:
01. Speed Metal Hell 05:15
02. Queen Of Sin 03:19
03. Bad To The Bone 03:04
04. Sacrifice (Bathory cover) 03:41
05. Coven Of The Dead 04:44
******************************
Total playing time: 20:03



[more=Extended info]FLAC-rip.[/more]

[more=Technical info]
Input File: 01 - Speed Metal Hell.mp3
Channels : 2
Sample Rate : 44100
Precision : 16-bit
Duration : 00:05:15.05 = 13893485 samples = 23628.4 CDDA sectors
File Size : 12.6M
Bit Rate : 320k
Sample Encoding: MPEG audio (layer I, II or III)
Comments :
Title=Speed Metal Hell
Artist=SÄCRIFICER
Album=The First Offering /EP/
Tracknumber=1
Year=2021

[/more]

Register
(16) after21allD, bOOLty, BugEyes, caro, chipsgott, craP_cillA, infiltrator, METALHUNTER, Mogozoz, Olethros, piwimetal, Rover, sergsazan, stumpheavyrock, Wail, wreak,
May 18 2021, 09:35:14 Hiinaar - Xix (2019)


*Artist: Hiinaar
*Album: Xix
*Year: 2019
*Genre: Experimental Metal
*Country: Hungary
*Format: mp3@CBR320kbps
*Size: 78MB

Tracklist:
01. A Karom A Szíveken 00:46
02. A Fairy Tale Of A Candy Pachyderm 04:25
03. Lassan A Világ 04:26
04. Black Clockwork 05:27
05. Mind Palace 04:55
06. Judge The Earth 03:39
07. Lakat A Szájon 04:58
08. Like Fire Only Colder 05:14
******************************
Total playing time: 33:50



[more=Technical info]
Input File: 01 - A karom a szíveken.mp3
Channels : 2
Sample Rate : 44100
Precision : 16-bit
Duration : 00:00:46.58 = 2054266 samples = 3493.65 CDDA sectors
File Size : 2.01M
Bit Rate : 345k
Sample Encoding: MPEG audio (layer I, II or III)
Comments :
Title=A karom a szíveken
Artist=HIINAAR
Album=XIX
Tracknumber=1
Year=2019

[/more]

Register
(9) craP_cillA, gwar, HMHamster, metala, mirotvorets, Necromag, Olethros, Sanctus, Vitald,
Apr 3 2021, 09:44:18 Awa - Mention (2017)


*Artist: Awa
*Album: Mention
*Year: 2017
*Genre: Psychedelic Doom Metal/Dark Jazz
*Country: Germany
*Format: mp3@CBR320kbps
*Size: 77MB

Tracklist:
01. Pt. 1 10:17
02. Pt. 2 06:43
03. Pt. 3 16:59
******************************
Total playing time: 33:59



[more=Technical info]
Input File: 01 - Pt. 1.mp3
Channels : 2
Sample Rate : 44100
Precision : 16-bit
Duration : 00:10:17.73 = 27241937 samples = 46329.8 CDDA sectors
File Size : 24.7M
Bit Rate : 320k
Sample Encoding: MPEG audio (layer I, II or III)
Comments :
Title=Pt. 1
Artist=AWA
Album=Mention
Tracknumber=1
Year=2017

[/more]

Register
(10) infiltrator, marilin, Old Vyaine, Olethros, randumbum, sacredserenity, stumpheavyrock, thenecromancer, varlam4, wreak,
Feb 24 2021, 10:29:23 Demysterium - The Temptations Of Humanity And Keys To Life And Death (2018)


*Artist: Demysterium
*Album: The Temptations Of Humanity And Keys To Life And Death
*Year: 2018
*Genre: Dark Ambient
*Country: Serbia
*Format: mp3@CBR320kbps
*Size: 90MB

Tracklist:
01. Ye Who Are Possessed By The Practices Of The Earth 06:50
02. Hands That Touch With Poisonous Untruth 03:10
03. The Chameleon That Crawleth Upon The Cold Stone 03:48
04. Those Are The Eyes That Reflect The Abyss 03:37
05. The Vastness Of The Infinite Cosmos Is But A Piece Of Space 05:15
06. Look Down The Pit Of Injustice And Thou Shall See The Vortex 03:12
07. Life Is What It Is And Is What It Is Not 03:49
08. And Ye Shall Thirst And Your Thirst Shall Never Be Quenched 03:31
09. Withering, The Eternal Passage Of Time 02:24
10. Thou Are Driven Forth To Live And Be Tempted 04:14
******************************
Total playing time: 39:50



[more=Technical info]
Input File: 01 - Ye Who Are Possessed By The Practices Of The Earth.mp3
Channels : 2
Sample Rate : 44100
Precision : 16-bit
Duration : 00:06:50.08 = 18084528 samples = 30756 CDDA sectors
File Size : 16.4M
Bit Rate : 320k
Sample Encoding: MPEG audio (layer I, II or III)
Comments :
Title=Ye Who Are Possessed By The Practices Of The Earth
Artist=DEMYSTERIUM
Album=The Temptations Of Humanity And Keys To Life And Death
Tracknumber=1
Year=2018

[/more]

Register
(2) infiltrator, Olethros,
Feb 20 2021, 18:39:22 Blackweald - 666 Minutes In Hell (2021)


*Artist: Blackweald
*Album: 666 Minutes In Hell
*Year: 2021
*Genre: Dark Ambient
*Country: Hungary
*Format: mp3@CBR320kbps
*Size: 1467MB

Tracklist:
01. Old, Old Death 06:04
02. A Cold Funeral 05:57
03. Coffin Snatcher 16:12
04. The Iron Walls Of Dis 16:58
05. View From Megiddo (1) 03:09
06. Into The Bottomless Pit 23:32
07. Floods And Whirlwinds Of Tempestuous Fire / Antiearth 10:33
08. Rot 06:10
09. Why Hidest Thou Thy Face From Me? / Eerily Howling Crypts 36:22
10. Angela, Dearest Of The Shadows 12:30
11. Oppression 34:07
12. Drown In Styx 03:19
13. An Ancient Draining Room 63:32
14. Wrath Harvest 06:36
15. Sacrifice And Worms 39:24
16. Six-Horse Of Misery 05:11
17. Nonbeing 08:30
18. View From Megiddo (2) 09:26
19. Shadowed By Monstrous Wings 20:53
20. Glimpse Of Arriens 10:09
21. Ceaseless Catacombs 21:07
22. A Long Robe, A Scythe And A Globe 04:34
23. The Clockwork Of Flesh Turns Backwards 24:32
24. As One Great Furnace, Flamed 31:33
25. Hell's Gloomy Monotony 03:15
26. Bull Of Hell 16:57
27. Nonexistence 16:04
28. Pape Satan, Pape Satan Aleppe 16:04
29. He Who Dissolves The Bones 16:07
30. Buried By Time And Dust 04:17
31. 616 09:54
32. Vége a Világnak 07:05
33. View From Megiddo (3) 09:34
34. Vexilla Regis Prodeunt Inferni 49:00
35. As I Gaze Into The Darkness I Hear The Thundering Hoofs Approaching / Dragged Into The Maelstrom / The Fall / Eternity Opens 108:49
******************************
Total playing time: 11:17:24



[more=Technical info]
Input File: 01 - Old, Old Death.mp3
Channels : 2
Sample Rate : 44100
Precision : 16-bit
Duration : 00:06:05.06 = 16099058 samples = 27379.4 CDDA sectors
File Size : 14.7M
Bit Rate : 322k
Sample Encoding: MPEG audio (layer I, II or III)
Comments :
Title=Old, Old Death
Artist=BLACKWEALD
Album=666 Minutes In Hell
Tracknumber=1
Year=2021-11-01
Discnumber=1

[/more]

Register
(5) gnosiis, infiltrator, KKK1488, Marshall, Olethros,
Feb 11 2021, 11:09:48 Bestial Putrefaction - Gore Drenched Barbarism [ep] (2021)
Register
(4) Hell_Is_Here, METALHUNTER, Razorbladeswaltz, sacrut,
Feb 4 2021, 20:43:55 Bonehammer - Black Crust Invasion (2019)


*Artist: Bonehammer
*Album: Black Crust Invasion
*Year: 2019
*Genre: Black/Heavy Metal/Crust
*Country: Argentina
*Format: mp3@CBR320kbps
*Size: 73MB

Tracklist:
01. Dark Pagan Cult 02:44
02. Shadows Of Darkness 02:54
03. Children Of The Lie 01:49
04. Living A Rotting Nightmare 03:22
05. Victims Of War 03:05
06. Invocation 01:26
07. Hammerson 03:03
08. Overture Of Evil 00:28
09. Possessed 03:20
10. Blues Of Perversion 03:40
11. Reborn In Hell 02:42
12. March Ör Die (Motörhead cover) 03:28
******************************
Total playing time: 32:01




[more=Technical info]
Input File: 02 - Shadows Of Darkness.mp3
Channels : 2
Sample Rate : 44100
Precision : 16-bit
Duration : 00:02:54.11 = 7678339 samples = 13058.4 CDDA sectors
File Size : 6.97M
Bit Rate : 320k
Sample Encoding: MPEG audio (layer I, II or III)
Comments :
Title=Shadows Of Darkness
Artist=BONEHAMMER
Album=Black Crust Invasion
Tracknumber=2
Year=2019

[/more]

Register
(18) artscald, craP_cillA, EvgeniusLongus, frituz3, infiltrator, metala, METALHUNTER, Olethros, postal67, Rosen, scorn33, smysl, stumpheavyrock, Taakeferd, varlam4, vasiljev_sergej, wgs73, wreak,
Jan 2 2021, 12:18:14 Great Coven - Viaticum [re-release 2006] (2004)
Register
(1) Buregon,
Oct 25 2020, 14:56:12 Dog Släyer - Sacred Eye [ep] (2018)


*Artist: Dog Släyer
*Album: Sacred Eye [ep]
*Year: 2018
*Genre: Heavy Metal
*Country: China
*Format: mp3@CBR320kbps
*Size: 44MB

Tracklist:
01. Sacred Eye 05:49
02. Nothing's More Delicious Than Revenge 04:16
03. Wish I Could See Tomorrow 06:08
04. Rosebud 03:19
******************************
Total playing time: 19:32



[more=Technical info]
Input File: 01 - Sacred Eye.mp3
Channels : 2
Sample Rate : 44100
Precision : 16-bit
Duration : 00:05:49.61 = 15417581 samples = 26220.4 CDDA sectors
File Size : 14.0M
Bit Rate : 320k
Sample Encoding: MPEG audio (layer I, II or III)
Comments :
Title=Sacred Eye
Artist=DOG SLÄYER
Album=Sacred Eye /EP/
Tracknumber=1
Year=2018

[/more]

Register
(15) after21allD, infiltrator, Lukittaz, METALHUNTER, Mogozoz, Olethros, Paganini, Rosen, Rover, sergsazan, stumpheavyrock, varlam4, Wail, wreak, Yngwarr,
Aug 18 2020, 23:58:56 Tatkraft - Sic Semper Tyrannis (2020)


*Artist: Tatkraft
*Album: Sic Semper Tyrannis
*Year: 2020
*Genre: Black Metal
*Country: Germany
*Format: mp3@CBR320kbps
*Size: 94MB

Tracklist:
01. Einklang 02:06
02. Für Alle Zeiten 04:16
03. Irrlicht 04:28
04. Zerschmetterer 05:18
05. Nachtgedanken 05:09
06. Barbarenblut 05:12
07. Unsren Volkes Alte Weisheit 06:56
08. Instrumental 01:23
09. König Tod 04:52
10. Ausklang 01:31
******************************
Total playing time: 41:11



[more=Technical info]
Input File: 02 - Für Alle Zeiten.mp3
Channels : 2
Sample Rate : 44100
Precision : 16-bit
Duration : 00:04:16.11 = 11294539 samples = 19208.4 CDDA sectors
File Size : 10.2M
Bit Rate : 320k
Sample Encoding: MPEG audio (layer I, II or III)
Comments :
Title=Für Alle Zeiten
Artist=TATKRAFT
Album=Sic Semper Tyrannis
Tracknumber=2
Year=2020

[/more]

Register
(39) 1968_janeart, AlexSmith, alikkon, atavist, Azumin1234, Boozer, caro, cryptal, Druidir, Eisbar, ent404, Golodomor, infiltrator, kim666, kranger, legion01, LordOvDarkness, Moonshtook, multizwilling, murian, nsk2008, older68, Olethros, Orkkh, randumbum, robertho777, Rosen, RUDACHUR, RUSP73, scorpionmk, sethurius, SilentNidhogg, stub888, supremo, VALERY, varlam4, vasiljev_sergej, wreak, Абигор,
Aug 15 2020, 19:24:01 Matakopas - Coming Out Ahead (1987)
Register
(1) Wail,
Jul 31 2020, 15:37:03 Night Fighter - Unholy Sepulchre (2020)


*Artist: Night Fighter
*Album: Unholy Sepulchre
*Year: 2020
*Genre: Speed Metal
*Country: United Kingdom
*Format: mp3@CBR320kbps
*Size: 66MB

Tracklist:
01. Unholy Sepulchre 03:58
02. Hell Thrashing Savagery 03:42
03. Traitor's Grave 03:45
04. Leather Offender 03:21
05. Beerhammer 04:38
06. Barbaric Cruelty 03:52
07. Live Hard Die Hard 03:37
08. High Speed Hell 02:13
******************************
Total playing time: 29:06



[more=Technical info]
Input File: 02 - Hell Thrashing Savagery.mp3
Channels : 2
Sample Rate : 44100
Precision : 16-bit
Duration : 00:03:42.44 = 9809560 samples = 16682.9 CDDA sectors
File Size : 8.90M
Bit Rate : 320k
Sample Encoding: MPEG audio (layer I, II or III)
Comments :
Title=Hell Thrashing Savagery
Artist=NIGHT FIGHTER
Album=Unholy Sepulchre
Tracknumber=2
Year=2020

[/more]

Register
(33) after21allD, andreikun, atavist, aviacademy, boby9052, chipsgott, DTGB, gwar, HMHamster, infiltrator, Leolomb, lunaraurora, Mares, metala, METALHUNTER, Mogozoz, multizwilling, Oldskulthrasher, oldvarg, Olethros, Rosen, Rover, samokot, scorn33, sergsazan, stumpheavyrock, Styx, toly1917, vinnivova, Wail, wgs73, wreak, zhol,
May 4 2020, 19:15:13 Zbb - Holnaptól... (2012)


*Artist: Zbb
*Album: Holnaptól...
*Year: 2012
*Genre: Melodic Progressive Metal/Hard Rock
*Country: Hungary
*Format: mp3@CBR320kbps
*Size: 117MB

Tracklist:
01. Tudom Jól 05:34
02. Ha Valami Fáj 05:00
03. Utolsó Esély 04:23
04. Mondd, Hogy Újra Szép Lesz 04:42
05. Holnaptól 05:03
06. Álarc 05:34
07. Nézz Rám 04:35
08. Utazó 06:43
09. Álmomban még 04:11
10. Vihar Előtt 05:42
******************************
Total playing time: 51:27



[more=Technical info]
Input File: 01 - Tudom jól.mp3
Channels : 2
Sample Rate : 48000
Precision : 16-bit
Duration : 00:05:34.71 = 16065936 samples ~ 25103 CDDA sectors
File Size : 13.4M
Bit Rate : 320k
Sample Encoding: MPEG audio (layer I, II or III)
Comments :
Title=Tudom jól
Artist=ZBB
Album=Holnaptól...
Tracknumber=1
Year=2012

[/more]

Register
(6) infiltrator, metala, Olethros, Rosen, senecazm, varlam4,
Apr 13 2020, 18:54:05 Arsule - Februa (2020)


*Artist: Arsule
*Album: Februa
*Year: 2020
*Genre: Dungeon Synth/Medieval
*Country: France
*Format: mp3@CBR320kbps
*Size: 67MB

Tracklist:
01. Materia Animata 04:33
02. Au Seuil des Abîmes 03:40
03. Alea Jacta Est 02:50
04. Les Neiges gardent ton Âme 03:29
05. Roses Étoiles 03:47
06. Par la Peste 02:53
07. Dernière Bataille 01:33
08. Nouveaux Rivages 03:12
09. Neiges Éternelles 03:30
******************************
Total playing time: 29:27



[more=Technical info]
Input File: 01 - Materia Animata.mp3
Channels : 2
Sample Rate : 44100
Precision : 16-bit
Duration : 00:04:33.07 = 12042167 samples = 20479.9 CDDA sectors
File Size : 10.9M
Bit Rate : 320k
Sample Encoding: MPEG audio (layer I, II or III)
Comments :
Title=Materia Animata
Artist=ARSULE
Album=Februa
Tracknumber=1
Year=2020

[/more]

Register
(3) infiltrator, Raw1488, Svafrlami,
Apr 7 2020, 21:18:06 Fehérholló Őskü És A Tűzmadár Táltos Dobkör - Hollótánc (2008)


*Artist: Fehérholló Őskü És A Tűzmadár Táltos Dobkör
*Album: Hollótánc
*Year: 2008
*Genre: Ritual/Shamanic Folk
*Country: Hungary
*Format: mp3@CBR320kbps
*Size: 132MB

Tracklist:
01. Nagyapám 03:52
02. Farkasnyom a hóban 06:32
03. Hívogató 07:28
04. Turul Nemzetség 06:46
05. Sárkány hátán 02:54
06. Új nap virrad 05:54
07. Ősz 04:52
08. Csillagom, Révészem 05:00
09. Táltoserő 07:00
10. Hollótánc 07:56
******************************
Total playing time: 58:14



[more=Technical info]
Input File: 01 - Nagyapám.mp3
Channels : 2
Sample Rate : 44100
Precision : 16-bit
Duration : 00:03:52.09 = 10235037 samples = 17406.5 CDDA sectors
File Size : 9.61M
Bit Rate : 331k
Sample Encoding: MPEG audio (layer I, II or III)
Comments :
Title=Nagyapám
Artist=FEHÉRHOLLÓ ÕSKÜ ÉS A TÛZMADÁR TÁLTOS DOBKÖR
Album=Hollótánc
Tracknumber=01/10
Year=2008
Discnumber=1/1

[/more]

Register
(8) Angry_Chair, carpathian, dromord, Forest, gwar, infiltrator, Kodel, Olethros,
Feb 23 2020, 18:33:04 Eclipse Of The Sun - Real Rock 'n' Roller (1988)


*Artist: Eclipse Of The Sun
*Album: Real Rock 'n' Roller
*Year: 1988
*Genre: Hard Rock
*Country: Croatia
*Format: mp3@CBR320kbps
*Size: 70MB

Tracklist:
01. Under The Wings Of The Night 04:09
02. Decisive Attack 02:59
03. Bitch Of The Night 04:55
04. Love Games 03:11
05. Downtown Bar 02:57
06. A Real Rock 'n' Roller 03:22
07. We Don't Do It For Money 03:56
08. At The End There's The Blues 05:22
******************************
Total playing time: 30:51



[more=Technical info]
Input File: 01 - Under The Wings Of The Night.mp3
Channels : 2
Sample Rate : 44100
Precision : 16-bit
Duration : 00:04:09.92 = 11021472 samples = 18744 CDDA sectors
File Size : 10.0M
Bit Rate : 320k
Sample Encoding: MPEG audio (layer I, II or III)
Comments :
Title=Under The Wings Of The Night
Artist=ECLIPSE OF THE SUN
Album=Real Rock 'n' Roller
Tracknumber=1
Year=1988

[/more]

Register
(5) after21allD, infiltrator, marilin, Olethros, Wail,
Dec 19 2019, 18:02:41 Mádra - Bittersweet Temptation To Disappear Completely (2019)


*Artist: Mádra
*Album: Bittersweet Temptation To Disappear Completely
*Year: 2019
*Genre: Doom/Black Metal
*Country: Hungary
*Format: mp3@CBR320kbps
*Size: 69MB

Tracklist:
01. Depart Pt. I 02:37
02. Into The Long Fade 09:18
03. Where Once She Stood 08:43
04. Depart Pt. II 09:39
******************************
Total playing time: 30:17



[more=Technical info]
Input File: 01 - Depart Pt. I.mp3
Channels : 2
Sample Rate : 44100
Precision : 16-bit
Duration : 00:02:37.76 = 6957172 samples = 11831.9 CDDA sectors
File Size : 6.31M
Bit Rate : 320k
Sample Encoding: MPEG audio (layer I, II or III)
Comments :
Title=Depart Pt. I
Artist=MÁDRA
Album=Bittersweet Temptation To Disappear Completely
Tracknumber=1
Year=2019

[/more]

Register
(29) adamko, ASkyThatBurns, infiltrator, judaz, Kehl05, Krosis, libertine, metala, morbidangelo, multizwilling, nikolay81, Olethros, Olrak, quarantine, robertho777, Rosen, satanist666, sergsazan, Shadechaser, SilentNidhogg, thenecromancer, tOmV, trabantfan, Tyrone, VALERY, varlam4, vasiljev_sergej, zbysio, zotyo1975,
Nov 24 2019, 18:38:48 Chthonia - Umbra: Veil Of The Moon (2019)


*Artist: Chthonia
*Album: Umbra: Veil Of The Moon
*Year: 2019
*Genre: Dark/Ritual Ambient
*Country: New Zealand
*Format: mp3@CBR320kbps
*Size: 87MB

Tracklist:
01. Key To The Moon (Opening Invocation) 04:04
02. Aktiophis 06:55
03. Irkalla 13:40
04. Queen Of Blood 09:12
05. Key To The Sun (Closing Ceremony) 04:26
******************************
Total playing time: 38:17



[more=Technical info]
Input File: 01 - Key To The Moon (Opening Invocation).mp3
Channels : 2
Sample Rate : 44100
Precision : 16-bit
Duration : 00:04:04.85 = 10798017 samples = 18364 CDDA sectors
File Size : 9.80M
Bit Rate : 320k
Sample Encoding: MPEG audio (layer I, II or III)
Comments :
Title=Key To The Moon (Opening Invocation)
Artist=CHTHONIA
Album=Umbra: Veil Of The Moon
Tracknumber=1
Year=2019

[/more]

Register
(6) Angry_Chair, brian69, dunkelvarg, Hell_Is_Here, marilin, Olethros,
Nov 17 2019, 20:24:25 Agnosy - When Daylight Reveals The Torture (2019)


*Artist: Agnosy
*Album: When Daylight Reveals The Torture
*Year: 2019
*Genre: Crust
*Country: United Kingdom
*Format: mp3@CBR320kbps
*Size: 74MB

Tracklist:
01. Spit Out The Lies 04:39
02. From Hell 04:56
03. When Daylight Reveals The Torture 03:53
04. Scum 03:44
05. No Friends But The Mountains 05:51
06. War Death Famine Plague 03:17
07. Rise Of The Right 05:36
******************************
Total playing time: 31:56



[more=Technical info]
Input File: 01 - Spit Out The Lies.mp3
Channels : 2
Sample Rate : 44100
Precision : 16-bit
Duration : 00:04:39.27 = 12315675 samples = 20945 CDDA sectors
File Size : 11.3M
Bit Rate : 324k
Sample Encoding: MPEG audio (layer I, II or III)
Comments :
Title=Spit Out The Lies
Artist=AGNOSY
Album=When Daylight Reveals The Torture
Tracknumber=1
Year=2019

[/more]

Register
(8) Angry_Chair, JantoHadez, oldvarg, Olethros, Ostinato, sludge666, varlam4, Волос,
Nov 6 2019, 20:16:30 Narkvlt - When The Moon Bled (2019)


*Artist: Narkvlt
*Album: When The Moon Bled
*Year: 2019
*Genre: Black Metal
*Country: Hungary
*Format: mp3@CBR320kbps
*Size: 98MB

Tracklist:
01. When The Moon Bled 06:35
02. In The Lake Of Serenity 05:15
03. Cold Grip 05:01
04. Repulsive Pleasure 05:35
05. Death Of The Sun 04:49
06. Diabolic Midnight Possession 06:36
07. The Haunting 08:41
08. When The Moon Bled Part 2 00:46
******************************
Total playing time: 43:18



[more=Technical info]
Input File: 01 - When The Moon Bled.mp3
Channels : 2
Sample Rate : 44100
Precision : 16-bit
Duration : 00:06:35.06 = 17422102 samples = 29629.4 CDDA sectors
File Size : 15.8M
Bit Rate : 320k
Sample Encoding: MPEG audio (layer I, II or III)
Comments :
Title=When The Moon Bled
Artist=NARKVLT
Album=When The Moon Bled
Tracknumber=1
Year=2019

[/more]

Register
(18) 1968_janeart, AlexSmith, alikkon, atavist, Kehl05, kim666, multizwilling, Olethros, Ostinato, Razorbladeswaltz, rickzammuto, Rosen, Sanctus, SilentNidhogg, stub888, VALERY, varlam4, vasiljev_sergej,
Oct 28 2019, 20:26:16 Windtower - The Eldest One (2019)


*Artist: Windtower
*Album: The Eldest One
*Year: 2019
*Genre: Ambient/Dungeon Synth
*Country: Hungary
*Format: mp3@CBR320kbps
*Size: 60MB

Tracklist:
01. Age Of The Fallen Blades 05:16
02. A Dusty Spellbook Of Ancient Wizardry 05:43
03. Forgotten Melodies From Beyond The Abyssal Gate 05:38
04. The Eldest One 06:35
05. One Last Merry Night 03:48
******************************
Total playing time: 27:00



[more=Technical info]
Input File: 01 - Age Of The Fallen Blades.mp3
Channels : 2
Sample Rate : 44100
Precision : 16-bit
Duration : 00:05:17.00 = 13979876 samples = 23775.3 CDDA sectors
File Size : 12.7M
Bit Rate : 320k
Sample Encoding: MPEG audio (layer I, II or III)
Comments :
Title=Age Of The Fallen Blades
Artist=WINDTOWER
Album=The Eldest One
Tracknumber=1
Year=2019

[/more]

Register
(10) Diflock, Kazoth, korovakaska, Olethros, Raw1488, SSorcerer, TDM, thenecromancer, tOmV, vosmidesijatye,

11 Pages V   1 2 3 > » 
- Lo-Fi Version Support form
Copyrights and abuse reports form
Time is now: 20th September 2021 - 02:54:15