Welcome Guest ( Log In | Register )

История благодарностей участнику amebix ::: Спасибо сказали: 1895 раз(а)
Дата поста: В теме: За сообщение: Спасибо сказали:
May 4 2020, 19:15:13 Zbb - Holnaptól... (2012)


*Artist: Zbb
*Album: Holnaptól...
*Year: 2012
*Genre: Melodic Progressive Metal/Hard Rock
*Country: Hungary
*Format: mp3@CBR320kbps
*Size: 117MB

Tracklist:
01. Tudom Jól 05:34
02. Ha Valami Fáj 05:00
03. Utolsó Esély 04:23
04. Mondd, Hogy Újra Szép Lesz 04:42
05. Holnaptól 05:03
06. Álarc 05:34
07. Nézz Rám 04:35
08. Utazó 06:43
09. Álmomban még 04:11
10. Vihar Előtt 05:42
******************************
Total playing time: 51:27



[more=Technical info]
Input File: 01 - Tudom jól.mp3
Channels : 2
Sample Rate : 48000
Precision : 16-bit
Duration : 00:05:34.71 = 16065936 samples ~ 25103 CDDA sectors
File Size : 13.4M
Bit Rate : 320k
Sample Encoding: MPEG audio (layer I, II or III)
Comments :
Title=Tudom jól
Artist=ZBB
Album=Holnaptól...
Tracknumber=1
Year=2012

[/more]

Register
(5) infiltrator, metala, Olethros, senecazm, varlam4,
Apr 13 2020, 18:54:05 Arsule - Februa (2020)


*Artist: Arsule
*Album: Februa
*Year: 2020
*Genre: Dungeon Synth/Medieval
*Country: France
*Format: mp3@CBR320kbps
*Size: 67MB

Tracklist:
01. Materia Animata 04:33
02. Au Seuil des Abîmes 03:40
03. Alea Jacta Est 02:50
04. Les Neiges gardent ton Âme 03:29
05. Roses Étoiles 03:47
06. Par la Peste 02:53
07. Dernière Bataille 01:33
08. Nouveaux Rivages 03:12
09. Neiges Éternelles 03:30
******************************
Total playing time: 29:27



[more=Technical info]
Input File: 01 - Materia Animata.mp3
Channels : 2
Sample Rate : 44100
Precision : 16-bit
Duration : 00:04:33.07 = 12042167 samples = 20479.9 CDDA sectors
File Size : 10.9M
Bit Rate : 320k
Sample Encoding: MPEG audio (layer I, II or III)
Comments :
Title=Materia Animata
Artist=ARSULE
Album=Februa
Tracknumber=1
Year=2020

[/more]

Register
(3) infiltrator, Raw1488, Svafrlami,
Apr 7 2020, 21:18:06 Fehérholló Őskü És A Tűzmadár Táltos Dobkör - Hollótánc (2008)


*Artist: Fehérholló Őskü És A Tűzmadár Táltos Dobkör
*Album: Hollótánc
*Year: 2008
*Genre: Ritual/Shamanic Folk
*Country: Hungary
*Format: mp3@CBR320kbps
*Size: 132MB

Tracklist:
01. Nagyapám 03:52
02. Farkasnyom a hóban 06:32
03. Hívogató 07:28
04. Turul Nemzetség 06:46
05. Sárkány hátán 02:54
06. Új nap virrad 05:54
07. Ősz 04:52
08. Csillagom, Révészem 05:00
09. Táltoserő 07:00
10. Hollótánc 07:56
******************************
Total playing time: 58:14



[more=Technical info]
Input File: 01 - Nagyapám.mp3
Channels : 2
Sample Rate : 44100
Precision : 16-bit
Duration : 00:03:52.09 = 10235037 samples = 17406.5 CDDA sectors
File Size : 9.61M
Bit Rate : 331k
Sample Encoding: MPEG audio (layer I, II or III)
Comments :
Title=Nagyapám
Artist=FEHÉRHOLLÓ ÕSKÜ ÉS A TÛZMADÁR TÁLTOS DOBKÖR
Album=Hollótánc
Tracknumber=01/10
Year=2008
Discnumber=1/1

[/more]

Register
(7) Angry_Chair, carpathian, dromord, Forest, gwar, infiltrator, Olethros,
Feb 23 2020, 18:33:04 Eclipse Of The Sun - Real Rock 'n' Roller (1988)


*Artist: Eclipse Of The Sun
*Album: Real Rock 'n' Roller
*Year: 1988
*Genre: Hard Rock
*Country: Croatia
*Format: mp3@CBR320kbps
*Size: 70MB

Tracklist:
01. Under The Wings Of The Night 04:09
02. Decisive Attack 02:59
03. Bitch Of The Night 04:55
04. Love Games 03:11
05. Downtown Bar 02:57
06. A Real Rock 'n' Roller 03:22
07. We Don't Do It For Money 03:56
08. At The End There's The Blues 05:22
******************************
Total playing time: 30:51



[more=Technical info]
Input File: 01 - Under The Wings Of The Night.mp3
Channels : 2
Sample Rate : 44100
Precision : 16-bit
Duration : 00:04:09.92 = 11021472 samples = 18744 CDDA sectors
File Size : 10.0M
Bit Rate : 320k
Sample Encoding: MPEG audio (layer I, II or III)
Comments :
Title=Under The Wings Of The Night
Artist=ECLIPSE OF THE SUN
Album=Real Rock 'n' Roller
Tracknumber=1
Year=1988

[/more]

Register
(4) infiltrator, marilin, Olethros, Wail,
Dec 19 2019, 18:02:41 Mádra - Bittersweet Temptation To Disappear Completely (2019)


*Artist: Mádra
*Album: Bittersweet Temptation To Disappear Completely
*Year: 2019
*Genre: Doom/Black Metal
*Country: Hungary
*Format: mp3@CBR320kbps
*Size: 69MB

Tracklist:
01. Depart Pt. I 02:37
02. Into The Long Fade 09:18
03. Where Once She Stood 08:43
04. Depart Pt. II 09:39
******************************
Total playing time: 30:17



[more=Technical info]
Input File: 01 - Depart Pt. I.mp3
Channels : 2
Sample Rate : 44100
Precision : 16-bit
Duration : 00:02:37.76 = 6957172 samples = 11831.9 CDDA sectors
File Size : 6.31M
Bit Rate : 320k
Sample Encoding: MPEG audio (layer I, II or III)
Comments :
Title=Depart Pt. I
Artist=MÁDRA
Album=Bittersweet Temptation To Disappear Completely
Tracknumber=1
Year=2019

[/more]

Register
(28) adamko, ASkyThatBurns, infiltrator, judaz, Kehl05, Krosis, libertine, metala, morbidangelo, multizwilling, nikolay81, Olethros, Olrak, robertho777, Rosen, satanist666, sergsazan, Shadechaser, SilentNidhogg, thenecromancer, tOmV, trabantfan, Tyrone, VALERY, varlam4, vasiljev_sergej, zbysio, zotyo1975,
Nov 24 2019, 18:38:48 Chthonia - Umbra: Veil Of The Moon (2019)


*Artist: Chthonia
*Album: Umbra: Veil Of The Moon
*Year: 2019
*Genre: Dark/Ritual Ambient
*Country: New Zealand
*Format: mp3@CBR320kbps
*Size: 87MB

Tracklist:
01. Key To The Moon (Opening Invocation) 04:04
02. Aktiophis 06:55
03. Irkalla 13:40
04. Queen Of Blood 09:12
05. Key To The Sun (Closing Ceremony) 04:26
******************************
Total playing time: 38:17



[more=Technical info]
Input File: 01 - Key To The Moon (Opening Invocation).mp3
Channels : 2
Sample Rate : 44100
Precision : 16-bit
Duration : 00:04:04.85 = 10798017 samples = 18364 CDDA sectors
File Size : 9.80M
Bit Rate : 320k
Sample Encoding: MPEG audio (layer I, II or III)
Comments :
Title=Key To The Moon (Opening Invocation)
Artist=CHTHONIA
Album=Umbra: Veil Of The Moon
Tracknumber=1
Year=2019

[/more]

Register
(6) Angry_Chair, brian69, dunkelvarg, Hell_Is_Here, marilin, Olethros,
Nov 17 2019, 20:24:25 Agnosy - When Daylight Reveals The Torture (2019)


*Artist: Agnosy
*Album: When Daylight Reveals The Torture
*Year: 2019
*Genre: Crust
*Country: United Kingdom
*Format: mp3@CBR320kbps
*Size: 74MB

Tracklist:
01. Spit Out The Lies 04:39
02. From Hell 04:56
03. When Daylight Reveals The Torture 03:53
04. Scum 03:44
05. No Friends But The Mountains 05:51
06. War Death Famine Plague 03:17
07. Rise Of The Right 05:36
******************************
Total playing time: 31:56



[more=Technical info]
Input File: 01 - Spit Out The Lies.mp3
Channels : 2
Sample Rate : 44100
Precision : 16-bit
Duration : 00:04:39.27 = 12315675 samples = 20945 CDDA sectors
File Size : 11.3M
Bit Rate : 324k
Sample Encoding: MPEG audio (layer I, II or III)
Comments :
Title=Spit Out The Lies
Artist=AGNOSY
Album=When Daylight Reveals The Torture
Tracknumber=1
Year=2019

[/more]

Register
(7) Angry_Chair, oldvarg, Olethros, Ostinato, sludge666, varlam4, Волос,
Nov 6 2019, 20:16:30 Narkvlt - When The Moon Bled (2019)


*Artist: Narkvlt
*Album: When The Moon Bled
*Year: 2019
*Genre: Black Metal
*Country: Hungary
*Format: mp3@CBR320kbps
*Size: 98MB

Tracklist:
01. When The Moon Bled 06:35
02. In The Lake Of Serenity 05:15
03. Cold Grip 05:01
04. Repulsive Pleasure 05:35
05. Death Of The Sun 04:49
06. Diabolic Midnight Possession 06:36
07. The Haunting 08:41
08. When The Moon Bled Part 2 00:46
******************************
Total playing time: 43:18



[more=Technical info]
Input File: 01 - When The Moon Bled.mp3
Channels : 2
Sample Rate : 44100
Precision : 16-bit
Duration : 00:06:35.06 = 17422102 samples = 29629.4 CDDA sectors
File Size : 15.8M
Bit Rate : 320k
Sample Encoding: MPEG audio (layer I, II or III)
Comments :
Title=When The Moon Bled
Artist=NARKVLT
Album=When The Moon Bled
Tracknumber=1
Year=2019

[/more]

Register
(17) 1968_janeart, alikkon, atavist, Kehl05, kim666, multizwilling, Olethros, Ostinato, Razorbladeswaltz, rickzammuto, Rosen, Sanctus, SilentNidhogg, stub888, VALERY, varlam4, vasiljev_sergej,
Oct 28 2019, 20:26:16 Windtower - The Eldest One (2019)


*Artist: Windtower
*Album: The Eldest One
*Year: 2019
*Genre: Ambient/Dungeon Synth
*Country: Hungary
*Format: mp3@CBR320kbps
*Size: 60MB

Tracklist:
01. Age Of The Fallen Blades 05:16
02. A Dusty Spellbook Of Ancient Wizardry 05:43
03. Forgotten Melodies From Beyond The Abyssal Gate 05:38
04. The Eldest One 06:35
05. One Last Merry Night 03:48
******************************
Total playing time: 27:00



[more=Technical info]
Input File: 01 - Age Of The Fallen Blades.mp3
Channels : 2
Sample Rate : 44100
Precision : 16-bit
Duration : 00:05:17.00 = 13979876 samples = 23775.3 CDDA sectors
File Size : 12.7M
Bit Rate : 320k
Sample Encoding: MPEG audio (layer I, II or III)
Comments :
Title=Age Of The Fallen Blades
Artist=WINDTOWER
Album=The Eldest One
Tracknumber=1
Year=2019

[/more]

Register
(9) Diflock, Kazoth, Olethros, Raw1488, SSorcerer, TDM, thenecromancer, tOmV, vosmidesijatye,
Oct 27 2019, 14:52:37 Forest Of Yore - Nature And Solitude (2019)


*Artist: Forest Of Yore
*Album: Nature And Solitude
*Year: 2019
*Genre: Ambient/Dungeon Synth
*Country: Serbia
*Format: mp3@CBR320kbps
*Size: 111MB

Tracklist:
01. Ancientwood 05:23
02. Crimsonstone 04:22
03. Mountains 04:47
04. Starshine 06:01
05. Riverhold 04:57
06. Astralia 02:29
07. Illuminatus 05:29
08. Dawning 03:41
09. Eonia 06:27
10. Trailblazer 05:45
******************************
Total playing time: 49:21



[more=Extended info]FLAC-rip[/more]

[more=Technical info]
Input File: 01 - Ancientwood.mp3
Channels : 2
Sample Rate : 44100
Precision : 16-bit
Duration : 00:05:23.04 = 14245976 samples = 24227.9 CDDA sectors
File Size : 12.9M
Bit Rate : 320k
Sample Encoding: MPEG audio (layer I, II or III)
Comments :
Title=Ancientwood
Artist=FOREST OF YORE
Album=Nature And Solitude
Tracknumber=1
Year=2019

[/more]

Register
(4) Artem_1987, Konst, SSorcerer, tOmV,
Oct 26 2019, 12:09:55 N.A.O.P. - Full Contact (1999)


*Artist: N.A.O.P.
*Album: Full Contact
*Year: 1999
*Genre: Thrash Metal/Crossover
*Country: Netherlands
*Format: mp3@CBR320kbps
*Size: 81MB

Tracklist:
01. No One 02:09
02. Consolation 02:33
03. Where Can You Hide 03:00
04. Day In Day Out 02:35
05. Decisions 01:44
06. Amnesty 02:12
07. T.V. Screens 03:03
08. Fake Security 02:45
09. Crush 02:47
10. White Trash 02:30
11. Time To Take A Break 02:03
12. China Justice 02:15
13. Mobile 03:18
14. Can't Pull Through 02:42
******************************
Total playing time: 35:36

[more=Extended info][youtube]L2GgdGnbWdQ[/youtube][/more]

[more=Technical info]
Input File: 01 - No One.mp3
Channels : 2
Sample Rate : 44100
Precision : 16-bit
Duration : 00:02:09.05 = 5691105 samples = 9678.75 CDDA sectors
File Size : 5.16M
Bit Rate : 320k
Sample Encoding: MPEG audio (layer I, II or III)
Comments :
Title=No One
Artist=N.A.O.P.
Album=Full Contact
Tracknumber=1
Year=1999

[/more]

Register
(13) artscald, billy, Corpuscul, gwar, infiltrator, metala, METALHUNTER, Olethros, Proteus_666, Rosen, varlam4, wgs73, Z28517,
Oct 21 2019, 14:20:07 Rothadás - Rothadás [demo] (2019)


*Artist: Rothadás
*Album: Rothadás [demo]
*Year: 2019
*Genre: Doom/Death Metal
*Country: Hungary
*Format: mp3@CBR320kbps
*Size: 36MB

Tracklist:
01. Hömpölygő Kór 07:55
02. Hantolt Méreg 08:06
******************************
Total playing time: 16:01



[more=Technical info]
Input File: 01 - Hömpölygő kór.mp3
Channels : 2
Sample Rate : 44100
Precision : 16-bit
Duration : 00:07:55.36 = 20963420 samples = 35652.1 CDDA sectors
File Size : 19.0M
Bit Rate : 320k
Sample Encoding: MPEG audio (layer I, II or III)
Comments :
Title=Hömpölygõ kór
Artist=ROTHADÁS
Album=Rothadás /Demo/
Tracknumber=1
Year=2019

[/more]

Register
(18) ahp, artscald, Boozer, Doooomed, fallen, infiltrator, kauyumari, Leshiy666, Olethros, Ostinato, Razorbladeswaltz, Rosen, Sanctus, sergsazan, stumpheavyrock, troll_swamp, vyacheslav, Wail,
Sep 5 2019, 18:07:36 Satan's Cross - Satan's Cross [single] (2014)


*Artist: Satan's Cross
*Album: Satan's Cross [single]
*Year: 2014
*Genre: Black Metal
*Country: Mexico
*Format: mp3@CBR320kbps
*Size: 17MB

Tracklist:
01. Sumerian Night 05:01
02. The Conjuring 03:16
******************************
Total playing time: 8:17



[more=Technical info]
Input File: 01 - Sumerian Night.mp3
Channels : 2
Sample Rate : 44100
Precision : 16-bit
Duration : 00:05:01.46 = 13294430 samples = 22609.6 CDDA sectors
File Size : 12.1M
Bit Rate : 320k
Sample Encoding: MPEG audio (layer I, II or III)
Comments :
Title=Sumerian Night
Artist=SATAN'S CROSS
Album=Satan's Cross /Single/
Tracknumber=1
Year=2014

[/more]

Register
(11) 1968_janeart, artscald, GodDethroned, Olethros, Pinhead666, Rosen, satanist666, spiritualdecay666, Styx, vasiljev_sergej, wreak,
Sep 5 2019, 17:23:06 Mörbid Carnage - The Golden Sin [ep] (2015) (1) Pinhead666,
Aug 27 2019, 17:04:39 Feel The Knife - Stab Your Back [ep] (2019)


*Artist: Feel The Knife
*Album: Stab Your Back [ep]
*Year: 2019
*Genre: Heavy/Thrash Metal
*Country: Argentina
*Format: mp3@CBR320kbps
*Size: 43MB

Tracklist:
01. Season Of The Witch 04:18
02. Dead Black Side 05:02
03. Creeping Alone 03:11
04. Feel The Knife 06:25
******************************
Total playing time: 18:56



[more=Technical info]
Input File: 03 - Creeping Alone.mp3
Channels : 2
Sample Rate : 44100
Precision : 16-bit
Duration : 00:03:11.35 = 8438667 samples = 14351.5 CDDA sectors
File Size : 7.66M
Bit Rate : 320k
Sample Encoding: MPEG audio (layer I, II or III)
Comments :
Title=Creeping Alone
Artist=FEEL THE KNIFE
Album=Stab Your Back /EP/
Tracknumber=3
Year=2019

[/more]

Register
(13) artscald, aviacademy, metala, METALHUNTER, Olethros, Rosen, Rover, Sanctus, sergsazan, stumpheavyrock, vir2al, Wail, wreak,
Aug 25 2019, 19:38:34 Strike Force - Strike Force (1984)


*Artist: Strike Force
*Album: Strike Force
*Year: 1984
*Genre: Melodic Heavy Metal
*Country: Canada
*Format: mp3@CBR320kbps
*Size: 79MB

Tracklist:
01. She's A Killer 03:43
02. Shadow Of The Night 04:19
03. Back On The Street 03:39
04. Step Over The Line 04:37
05. No Good At All 03:20
06. Devil's Daughter 02:52
07. Danger In The Night 03:47
08. Going Away 05:16
09. Time Race 03:33
******************************
Total playing time: 35:06

Preview 1

[more=Extended info][youtube]97pSYgVfRok[/youtube][/more]

[more=Technical info]
Input File: 01 - She\'s A Killer.mp3
Channels : 2
Sample Rate : 44100
Precision : 16-bit
Duration : 00:03:43.93 = 9875225 samples = 16794.6 CDDA sectors
File Size : 8.96M
Bit Rate : 320k
Sample Encoding: MPEG audio (layer I, II or III)
Comments :
Title=She's A Killer
Artist=STRIKE FORCE
Album=Strike Force
Tracknumber=1
Year=1984

[/more]

Register
(17) artscald, eyes0re, fffrost, infiltrator, Mannard, matiasvoltaje, Mogozoz, Olethros, pichileon, postal67, Rosen, Rover, stumpheavyrock, Wail, wgs73, wreak, zhol,
Aug 16 2019, 17:03:31 Bandit - Stand And Deliver [ep] (2018)


*Artist: Bandit
*Album: Stand And Deliver [ep]
*Year: 2018
*Genre: Heavy/Speed Metal
*Country: Finland
*Format: mp3@CBR320kbps
*Size: 55MB

Tracklist:
01. Curse Of The Skeleton 04:37
02. I'm Gonna Steal Your Girlfriend 03:15
03. Rat King 03:49
04. King Of The Night 04:20
05. Stand And Deliver 04:22
06. Get Nuked 03:59
******************************
Total playing time: 24:22



[more=Technical info]
Input File: 01 - Curse Of The Skeleton.mp3
Channels : 2
Sample Rate : 44100
Precision : 16-bit
Duration : 00:04:37.69 = 12246085 samples = 20826.7 CDDA sectors
File Size : 11.1M
Bit Rate : 320k
Sample Encoding: MPEG audio (layer I, II or III)
Comments :
Title=Curse Of The Skeleton
Artist=BANDIT
Album=Stand And Deliver /EP/
Tracknumber=1
Year=2018

[/more]

Register
(17) artscald, Asketto, Beazth, BugEyes, gwar, infiltrator, metalwoman, Mogozoz, Olethros, pedrohell, Rosen, Rover, sergsazan, stumpheavyrock, vir2al, wgs73, wreak,
Aug 7 2019, 19:57:15 Witchcraft - Dotek Zla [ep] (2003)


*Artist: Witchcraft
*Album: Dotek Zla [ep]
*Year: 2003
*Genre: Black Metal
*Country: Czech Republic
*Format: mp3@CBR320kbps
*Size: 32MB

Tracklist:
01. Čarodějův Učeň 04:23
02. Tanec Se Smrtí 02:59
03. Ztracený Rozum 04:13
04. Proti Všem 02:53
******************************
Total playing time: 14:28



[more=Extended info]They changed their name to 'The Witch' from 2007.[/more]

[more=Technical info]
Input File: 01 - Carodejuv Ucen.mp3
Channels : 2
Sample Rate : 44100
Precision : 16-bit
Duration : 00:04:23.48 = 11619380 samples = 19760.9 CDDA sectors
File Size : 10.5M
Bit Rate : 320k
Sample Encoding: MPEG audio (layer I, II or III)
Comments :
Title=Carodejuv Ucen
Artist=WITCHCRAFT
Album=Dotek Zla /EP/
Tracknumber=1
Year=2003

[/more]

Register
(14) artscald, craP_cillA, Ildjarn, kim666, Olethros, Rosen, Saalingurth, satanist666, SilentNidhogg, Svafrlami, VALERY, varlam4, vasiljev_sergej, wreak,
Aug 4 2019, 18:44:23 Plague Spitter - Flesh Abyss [ep] (2019)


*Artist: Plague Spitter
*Album: Flesh Abyss [ep]
*Year: 2019
*Genre: Post-Black/Doom Metal
*Country: Canada
*Format: mp3@CBR320kbps
*Size: 65MB

Tracklist:
01. Dead Water / Chasm 10:30
02. In Suffering / Abyss 08:32
03. Fear Of The Brilliant Sun / Void 09:45
******************************
Total playing time: 28:47



[more=Technical info]
Input File: 02 - In Suffering - Abyss.mp3
Channels : 2
Sample Rate : 44100
Precision : 16-bit
Duration : 00:08:32.98 = 22622330 samples = 38473.4 CDDA sectors
File Size : 20.5M
Bit Rate : 320k
Sample Encoding: MPEG audio (layer I, II or III)
Comments :
Title=In Suffering / Abyss
Artist=PLAGUE SPITTER
Album=Flesh Abyss /EP/
Tracknumber=2
Year=2019

[/more]

Register
(13) artscald, murian, Olethros, Ostinato, robertho777, Rosen, sergsazan, Shadechaser, terron, valafar, VALERY, vasiljev_sergej, wreak,
Jul 31 2019, 18:52:21 Vermin Scourge - Triumphant Savagery [ep] (2019)


*Artist: Vermin Scourge
*Album: Triumphant Savagery [ep]
*Year: 2019
*Genre: Black/Death Metal
*Country: Sweden
*Format: mp3@CBR320kbps
*Size: 37MB

Tracklist:
01. Holocaust Command 03:38
02. Perpetual Bloodlust 02:48
03. Eradication Rites 02:01
04. Scourge Of Tyrants 02:26
05. Volcanic Mastery 05:04
******************************
Total playing time: 15:57



[more=Technical info]
Input File: 01 - Holocaust Command.mp3
Channels : 2
Sample Rate : 44100
Precision : 16-bit
Duration : 00:03:38.48 = 9634836 samples = 16385.8 CDDA sectors
File Size : 8.93M
Bit Rate : 327k
Sample Encoding: MPEG audio (layer I, II or III)
Comments :
Title=Holocaust Command
Artist=VERMIN SCOURGE
Album=Triumphant Savagery /EP/
Tracknumber=1
Year=2019

[/more]

Register
(11) artscald, desekrator, infiltrator, milosdjor, morbidangelo, Pinhead666, Rosen, satanist666, stumpheavyrock, tristan1331, vasiljev_sergej,
Jul 21 2019, 18:45:28 Weald And Woe - Eternal Grave [ep] (2018)


*Artist: Weald And Woe
*Album: Eternal Grave [ep]
*Year: 2018
*Genre: Black Metal
*Country: United States
*Format: mp3@CBR320kbps
*Size: 40MB

Tracklist:
01. Ancient Blood 03:42
02. Forgotten Flesh 05:07
03. Eternal Grave 09:00
******************************
Total playing time: 17:49



[more=Technical info]
Input File: 01 - Ancient Blood.mp3
Channels : 2
Sample Rate : 44100
Precision : 16-bit
Duration : 00:03:42.94 = 9831830 samples = 16720.8 CDDA sectors
File Size : 9.03M
Bit Rate : 324k
Sample Encoding: MPEG audio (layer I, II or III)
Comments :
Title=Ancient Blood
Artist=WEALD AND WOE
Album=Eternal Grave /EP/
Tracknumber=1
Year=2018

[/more]

Register
(13) artscald, GorAtheist, infiltrator, kim666, Olethros, Ostinato, Rosen, satanist666, SilentNidhogg, stub888, VALERY, vasiljev_sergej, wreak,
Jul 6 2019, 18:25:54 Bonfire - Into The Demons Flame (2018)


*Artist: Bonfire
*Album: Into The Demons Flame
*Year: 2018
*Genre: Black/Thrash Metal
*Country: Colombia
*Format: mp3@CBR320kbps
*Size: 83MB

Tracklist:
1. Funerary March 01:07
2. Demons Call 04:56
3. Only Death Is Real 04:03
4. Viva Metal 04:10
5. Black Soul For Rock & Roll 04:27
6. In My Death 05:36
7. Bonfire 03:07
8. Hatred Of Satan 03:35
9. Burn My Coffin 04:46
******************************
Total playing time: 35:47



[more=Technical info]
Input File: 02 - Demons Call.mp3
Channels : 2
Sample Rate : 44100
Precision : 16-bit
Duration : 00:04:56.95 = 13095627 samples = 22271.5 CDDA sectors
File Size : 12.0M
Bit Rate : 324k
Sample Encoding: MPEG audio (layer I, II or III)
Comments :
Title=Demons Call
Artist=BONFIRE
Album=Into The Demons Flame
Tracknumber=2
Year=2018

[/more]

Register
(21) artscald, Asketto, boby9052, Boozer, Diflock, GorAtheist, metala, METALHUNTER, oldvarg, Olethros, Rosen, sergsazan, stumpheavyrock, toly1917, VALERY, varlam4, vasiljev_sergej, wgs73, wreak, WX419, Волос,
Jun 19 2019, 17:11:39 Gravesick - Temple Of The Wicked [ep] (2019)


*Artist: Gravesick
*Album: Temple Of The Wicked [ep]
*Year: 2019
*Genre: Black/Death Metal
*Country: United States
*Format: mp3@CBR320kbps
*Size: 46MB

Tracklist:
1. Coven 03:48
2. The Buried 04:00
3. Temple Of The Wicked 03:18
4. Gate 05:03
5. The Number Of The Beast (Iron Maiden Cover) (Bonus) 04:06
******************************
Total playing time: 20:15



[more=Technical info]
Input File: 01 - Coven.mp3
Channels : 2
Sample Rate : 44100
Precision : 16-bit
Duration : 00:03:48.95 = 10096783 samples = 17171.4 CDDA sectors
File Size : 9.23M
Bit Rate : 322k
Sample Encoding: MPEG audio (layer I, II or III)
Comments :
Title=Coven
Artist=GRAVESICK
Album=Temple Of The Wicked /EP/
Tracknumber=1
Year=2019

[/more]

Register
(11) artscald, lestllk, Olethros, Ostinato, Rosen, satanist666, SilentNidhogg, VALERY, vasiljev_sergej, wgs73, wreak,
Jun 16 2019, 09:12:27 Tryptamyne - Tryptamyne [ep] (2019)


*Artist: Tryptamyne
*Album: Tryptamyne [ep]
*Year: 2019
*Genre: Avant-Garde/Technical Death Metal
*Country: United States
*Format: mp3@CBR320kbps
*Size: 30MB

Tracklist:
01. Supplicants 01:07
02. Heteroskedasticity 01:29
03. Learn 04:38
04. Unlearn 05:46
******************************
Total playing time: 13:00



[more=Technical info]
Input File: 01 - Supplicants.mp3
Channels : 2
Sample Rate : 44100
Precision : 16-bit
Duration : 00:01:07.69 = 2985129 samples = 5076.75 CDDA sectors
File Size : 2.88M
Bit Rate : 341k
Sample Encoding: MPEG audio (layer I, II or III)
Comments :
Title=Supplicants
Artist=TRYPTAMYNE
Album=Tryptamyne /EP/
Tracknumber=1
Year=2019

[/more]

Register
(16) ahp, artscald, Corpuscul, Evilded, FuneralWolf, GorAtheist, Hell_Is_Here, kimkayoung, metala, Olethros, Ostinato, Rosen, SyncestrA, VALERY, wreak, yuratroll,
Jun 5 2019, 19:40:17 Ahriman - Bőrkoporsó [ep] (2016)


*Artist: Ahriman
*Album: Bőrkoporsó [ep]
*Year: 2016
*Genre: Black Metal
*Country: Hungary
*Format: mp3@CBR320kbps
*Size: 54MB

Tracklist:
01. Ébredő Mámorvölgy 06:27
02. Az Ősforrás Koronája 05:18
03. Kígyókürt 04:58
04. Bőrkoporsó 06:54
******************************
Total playing time: 23:37



[more=Technical info]
Input File: 01 - Ébredő mámorvölgy.mp3
Channels : 2
Sample Rate : 44100
Precision : 16-bit
Duration : 00:06:27.71 = 17097879 samples = 29078 CDDA sectors
File Size : 15.6M
Bit Rate : 322k
Sample Encoding: MPEG audio (layer I, II or III)
Comments :
Title=Ébredõ mámorvölgy
Artist=AHRIMAN
Album=Bõrkoporsó /EP/
Tracknumber=1
Year=2016

[/more]

Register
(17) 1968_janeart, Hell_Is_Here, Ildjarn, IlyaDoom, kim666, lestllk, Olethros, Ostinato, Paradayz, Rosen, satanist666, SilentNidhogg, Slavas, stub888, VALERY, vasiljev_sergej, wreak,

11 Pages V   1 2 3 > » 
- Lo-Fi Version Support form
Copyrights and abuse reports form
Time is now: 6th June 2020 - 11:29:52