Welcome Guest ( Log In | Register )

История благодарностей участнику frostdomain ::: Спасибо сказали: 21585 раз(а)
Дата поста: В теме: За сообщение: Спасибо сказали:
May 8 2021, 00:08:26 Voodus - Serpent Seducer Saviour [ep] (2017)
Voodus - Serpent Seducer Saviour (Compilation) (2018) [320]
Register
(1) milosdjor,
May 2 2021, 19:05:54 Savage Aggression - Satan's Strike (2010)
320 [CD Reissue 2013]
Register
(1) stumpheavyrock,
May 2 2021, 05:11:04 Autopsy - Dead As Fuck [live] (2004)
320
Register
(3) kimkayoung, stumpheavyrock, varlam4,
Apr 28 2021, 21:19:46 Shitfucker - I.N.R.I - F.O.A.D. [ep] (2008)
320
Register
(1) METALHUNTER,
Apr 28 2021, 21:17:52 Shitfucker - Sexual Maniac [ep] (2011)
320
Register
(3) METALHUNTER, stumpheavyrock, varlam4,
Apr 28 2021, 21:17:16 Shitfucker - Suck Cocks In Hell (2013)
320
Register
(1) varlam4,
Apr 28 2021, 18:44:49 Maleficio - Under The Black Veil (2006)
320
Register
(1) stumpheavyrock,
Apr 28 2021, 13:00:56 Divine Death - Eurynomos - Prince Of Death [demo] (1994)
320
Register
(1) thenecromancer,
Apr 24 2021, 03:39:32 Gorgasm - Bleeding Profusely (2001)
320
Register
(2) 645320041, ripper33,
Apr 24 2021, 03:38:52 Gorgasm - Destined To Violate (2014)
320
Register
(1) 645320041,
Apr 23 2021, 16:00:42 Laconist - Anticosmic Trance (2016)
Flac tracks
Register
(1) Masteruk,
Apr 22 2021, 20:55:09 Laconist - Aural Deathblow (2011)
320
Register
Flac tracks
Register
(1) Masteruk,
Apr 22 2021, 18:24:47 Epoch Of Unlight - The Continuum Hypothesis (2005)
320
Register
(2) kimkayoung, varlam4,
Apr 22 2021, 18:19:59 Epoch Of Unlight - Caught In The Unlight (2001)
320
Register
(3) kimkayoung, varlam4, warrr,
Apr 21 2021, 06:30:53 Black Altar - Suicidal Salvation [ep] (2013)
320
Register
(1) thenecromancer,
Apr 21 2021, 05:15:56 Vulture Lord - Blasphemous Exorcisms [compilation] (2014)


*Artist: Vulture Lord
*Album: Blasphemous Exorcisms [compilation]
*Year: 2014
*Genre: Black/Thrash Metal
*Country: Norway
*Format: mp3@CBR320kbps
*Size: 100MB

Tracklist:
01 - Bloodstained Ritualknives (3:04)
02 - Awakening the Warhorde (3:41)
03 - Lord of Vice (Deliverance cover) (2:32)
04 - Storming with Vengeance (2:47)
05 - The Rite of Satan (2:52)
06 - Blodhemn (1:19)
07 - Churchburner (1:50)
08 - Disciple of Death (4:46)
09 - Deathfuck (3:10)
10 - Prelude to the Second Holocaust (1:38)
11 - Unholy Bloodlust (3:53)
12 - Storming with Vengeance (2:41)
13 - Hark ! The Hymns of War (3:31)
14 - Riding the Demon (3:32)
15 - Riding the Demon (Rehearsal) (3:27)
******************************
Total playing time: 44:43

[more=Extended info]Track 1: unreleased track (the last Vulture Lord track with Nefas), 2010.
Tracks 2-5: from the "Blasphemy" 7" EP, 2006.
Track 6: bonus track from the LP version of "Profane Prayer", 2003.
Tracks 7-9: unreleased demo tape "Desire for the Dead", 1998.
Tracks 10-14: "Exorcism Of The Holy Ghost" demo tape, 1997.
Track 15: unreleased rehearsal track (the very first Vulture Lord track), 1996.[/more]

[more=Technical info]
Input File: 02. Awakening the Warhorde.mp3
Channels : 2
Sample Rate : 44100
Precision : 16-bit
Duration : 00:03:41.40 = 9763872 samples = 16605.2 CDDA sectors
File Size : 8.91M
Bit Rate : 322k
Sample Encoding: MPEG audio (layer I, II or III)
Comments :
Title=Awakening the Warhorde
Artist=Vulture Lord
Album=Blasphemous Exorcisms
Tracknumber=02
Year=2014
Genre=Black Metal

[/more]

Register
(3) craP_cillA, Occultas, stumpheavyrock,
Apr 21 2021, 04:37:17 Beastcraft - Baptised In Blood And Goatsemen (2007)
320 [Reissue] 2012
Register
(1) Storky,
Apr 21 2021, 04:31:53 Beastcraft - Unpure Invocation Of Alastor Nefas (The Last Live Rites Of Beastcraft) [live] (2013)
320
Register
(3) Lucju, varlam4, Vidyadharov,
Apr 20 2021, 18:26:17 Orcrist - From The Forgotten Forest (2005)
320
Register
(4) caliostro, kimkayoung, thenecromancer, varlam4,
Apr 20 2021, 18:25:59 Orcrist - Primitive Damnation [demo] (2002)
320
Register
(2) kimkayoung, varlam4,
Apr 19 2021, 22:09:51 Moonsorrow - Suden Uni (2001)
320
Register
(1) kimkayoung,
Apr 17 2021, 19:22:10 Mütiilation - Satanist Styrken [demo] (1994)
320
Register
(2) kimkayoung, stumpheavyrock,
Apr 17 2021, 19:04:01 Mütiilation - Black Imperial Blood (Travel) [demo] (1994)
320
Register
(3) kimkayoung, stumpheavyrock, varlam4,
Apr 17 2021, 19:02:17 Mütiilation - Ceremony Of Black Cult [demo] (1993)
mp3@VBR 287 kbps
Register
(6) kim666, kimkayoung, stumpheavyrock, thenecromancer, varlam4, vasiljev_sergej,
Apr 16 2021, 04:18:58 Mütiilation - 1992-2002 Ten Years Of Depressive Destruction [best of/compilation] (2003)
320
Register
(3) stumpheavyrock, varlam4, vasiljev_sergej,

160 Pages V   1 2 3 > » 
- Lo-Fi Version Support form
Copyrights and abuse reports form
Time is now: 14th May 2021 - 10:52:36