Welcome Guest ( Log In | Register )

История благодарностей участнику Whitefish ::: Спасибо сказали: 586 раз(а)
Дата поста: В теме: За сообщение: Спасибо сказали:
Jul 9 2022, 15:38:43 Ştiu Nu Ştiu - New Sun (2022)


*Artist: Ştiu Nu Ştiu
*Album: New Sun
*Year: 2022
*Genre: Post-Punk/Psychedelic Rock
*Country: Sweden
*Format: flac
*Size: 357MB

Tracklist:
01. Styx 5:54
02. Siren 5:52
03. Transcend 4:50
04. New Sun 8:16
05. Nyx 5:11
06. Zero Trust 5:40
07. Visa 4:14
08. Dragons Lair 7:57
******************************
Total playing time: 47:54



Register
(2) Drugoff, yuratroll,
May 6 2022, 12:16:46 JIRM - The Tunnel, The Well, Holy Bedlam (2022)
ЦИТАТА(vosmidesijatye @ May 1 2022, 17:03:48) *
Прекрасный, чарующий, магический, волшебной красоты альбом. Очень проникновенная музыка, настоящий стилевой коктейль, где есть место и психоделик/прогрессив року и металлу и уместной авангардности. Отдельно отмечу шикарный вокал, дополняющий картину всеобщего музыкального пиршества.

Коллектив - одно из приятнейших открытий года 2022. 20.gif



Полностью согласен.
От двух последних треков можно лишиться рассудка.
Я понимаю, что вокал у него пропущен через EQ, но все же.
(2) Kodel, vosmidesijatye,
Apr 21 2022, 22:29:31 Helioss - Contre Ma Lumière (2022)
Это один из самых интересных альбомов за последние года два.
Не лучший, а интересный.

Столько контекста в одном треке закладывали шведы, когда ковали mdm.
Понимаете? Контекста в одной мелодии. Каждой мелодии.

Но французы... французы не могли просто взять и записать качественный блэк/дез, как это делают скандинавы или британцы, о нет.
Это ведь французы. Им нужно было добавить прогрессива, техничности, авангарда, альтернативы, модерна, симфоники, эмбиента, джаза.
Причем все так ненавязчиво, мол, вот тут альтернатива, пока ударник переводит дыхание,
а потом ударник 6-7 минут играя, меняет темп, подстраиваясь то под бас, то под клавиши.

Это альбом, в котором инструменты общаются с друг другом.
Если у Dream Theater это идет как постановка с завязкой и крещендо, то у этих ребят здесь нет ничего и есть все.

И вот хожу по городу, слушаю третий раз альбом, и поражаюсь как он не рассыпается.
Если взять тех же Diablo Swing Orchestra — на второй половине от их авангарда становится душно, устаешь.
Словно они боятся показаться кем-то иным, потерять лицо после стольких лет завоевания статуса и поклонников.

Helioss не боятся ничего. Они рвут материю, затем сшивают ее, затем снова рвут и снова сшивают.
Это не альбом, это труд, результат работы людей.

8,5/10
(6) JPV, megam, mirotvorets, nsk2008, Olrak, WOLAND,
Mar 13 2022, 14:51:10 JIRM - The Tunnel, The Well, Holy Bedlam (2022)


*Artist: JIRM
*Album: The Tunnel, The Well, Holy Bedlam
*Year: 2022
*Genre: Psychedelic Rock, Heavy Psych
*Country: Sweden
*Format: mp3@CBR320kbps
*Size: 123MB

Tracklist:
1. Liquid Covenant 07:00
2. Deeper Dwell 12:48
3. You Fly 7:27
4. Repent in Blood 8:38
5. Carried Away 8:15
6. Pestilence 8:23
******************************
Total playing time: 52:31



[more=Extended info]Carried Away (!)
Spotify[/more]

[more=Technical info]
Input File: 01 - Liquid Covenant.mp3
Channels : 2
Sample Rate : 44100
Precision : 16-bit
Duration : 00:06:59.35 = 18493511 samples = 31451.5 CDDA sectors
File Size : 17.4M
Bit Rate : 332k
Sample Encoding: MPEG audio (layer I, II or III)
Comments :
Title=Liquid Covenant
Artist=JIRM
Album=The Tunnel, The Well, Holy Bedlam
Tracknumber=1/6
Year=2022
Discnumber=1/1

[/more]

Register
(15) Aamiinaa, Ash_1980, BleedingSun, corer, gena, Kodel, Korpse, marilin, metaljosue, mirotvorets, Old Vyaine, Olethros, paganheart, Wail, yuratroll,
Mar 13 2022, 14:44:33 Лучшие метал альбомы 2022 // Best 2022 Metal Releases
JIRM - The Tunnel, the Well, Holy Bedlam
Psychedelic Rock, Heavy Psych — Sweden

{заливаю}
Невероятная вещь. Трек Carried Away оправдывает свое название.

Messa - Close (2022)
Doom Metal - Italy

Итальянцы, после сюрприза с Måneskin, продолжают удивлять.

In Aphelion - Moribund (2022)
Black Metal - Sweden

Vanir - Sagas (2022)
Viking/Folk Metal - Denmark

Это, на удивление, самый интересный фолк-метал за последние года два.

E-L-R - Vexier (2022)
Post-metal - Switzerland

Прекрасное женское волшебство.

Deathbell - A Nocturnal Crossing (2022)
Doom Metal - France

Moonlight Sorcery - Piercing Through The Frozen Eternity [ep] (2022)
Epic Symphonic Black Metal - Finland
(3) metaljosue, Mihalik, vosmidesijatye,
Feb 22 2022, 23:20:30 Новости Black-направления
Black Braid - Barefoot Ghost Dance on Blood Soaked Soil

Думаю полноформатник будет сочным.


[youtube]https://youtu.be/je7Su03SyL4[/youtube]



(1) Occultas,
Feb 4 2022, 23:10:42 Ludovico Einaudi - Underwater (2022)
ЦИТАТА(vosmidesijatye @ Jan 28 2022, 11:58:43) *
Кого ещё из качественного модерн классикал стоит послушать ?



Gabríel Ólafs
(1) lucifix,
Jan 15 2022, 19:26:20 Molybaron - The Mutiny (2021)


*Artist: Molybaron
*Album: The Mutiny
*Year: 2021
*Genre: Groove/Heavy/Progressive Metal
*Country: France
*Format: mp3@CBR320kbps
*Size: 103MB

Tracklist:
1. Animals 5:23
2. Lucifer 3:24
3. Amongst the Boys and the Dead Flowers 4:14
4. Prosperity Gospel 4:15
5. The Lighthouse 4:38
6. Slave to the Algorithm 4:52
7. Something for the Pain 4:10
8. The Hand That Feeds You 4:11
9. Twenty Four Hours 4:55
10. Ordinary Madness 4:44
******************************
Total playing time: 44:46



[more=Technical info]
Input File: 02 - Lucifer.mp3
Channels : 2
Sample Rate : 44100
Precision : 16-bit
Duration : 00:03:23.61 = 8979289 samples = 15270.9 CDDA sectors
File Size : 8.26M
Bit Rate : 324k
Sample Encoding: MPEG audio (layer I, II or III)
Comments :
Title=Lucifer
Artist=Molybaron
Album=The Mutiny
Tracknumber=02
Year=2021
Genre=Alternative Metal

[/more]

Register
(23) artscald, avather, aviacademy, caro, chipsgott, Dante_D, Ice Gnoll, judaz, KLOP, Marek, metala, Olethros, Rover, Sanctus, SAPOGi, serjred, smes, stumpheavyrock, Taakeferd, WOLAND, wreak, Yarri, yuratroll,
Aug 21 2021, 16:16:34 Necronautical - Slain In The Spirit (2021)
подозрительно хорошо
я даже не знаю, что лучше было в этом году: Night Crowned, Yoth Iria или вот эти вот перцы
(1) Andrew,
Aug 4 2021, 21:01:38 King Woman - Celestial Blues (2021)
ЦИТАТА(ent404 @ Jul 30 2021, 23:13:19) *
блеклое подобие CW


Clone Wars?
Continuous Wave?
Cold War?
Civil War?
Colonial Williamsburg?
Country/Western?
Content Warning?
Chemical Week?
Cyber Worlds?
Celtic Woman?
Chemical Weapon?
Cross Wind?
Carnauba Wax?
Cyber Warfare?
Crimson Wave?


(6) 6666666, ent404, lafuma, Old Vyaine, Thiarnan, Winterkalte,
Aug 4 2021, 20:50:59 Bloody Cumshot - Nymphomania (2021)
Хорошо. Разнообразней чем большинство релизов в mdm-духовке crazy.gif
(2) Druidir, Nattfodd,
Jul 8 2021, 23:46:05 Sein - The Denial Of Death [ep] (2021)


*Artist: Sein
*Album: The Denial Of Death [ep]
*Year: 2021
*Genre: Melodic Death Metal
*Country: Italy
*Format: mp3@CBR320kbps
*Size: 52MB

Tracklist:
1. A World of Madness3:18
2. Spiral End3:40
3. Where the Angels Retreat3:24
4. The Birth of Tragedy2:59
5. The Denial of Death3:37
6. Overdone Delusion4:03
******************************
Total playing time: 21:01



[more=Technical info]
Input File: 02. Spiral End.mp3
Channels : 2
Sample Rate : 44100
Precision : 16-bit
Duration : 00:03:40.70 = 9732738 samples = 16552.3 CDDA sectors
File Size : 9.33M
Bit Rate : 338k
Sample Encoding: MPEG audio (layer I, II or III)
Comments :
Title=Spiral End
Artist=Sein
Album=The Denial Of Death
Tracknumber=2/6
Year=2021
Genre=Melodic Death Metal

[/more]

Register
(13) bOOLty, caro, chipsgott, dr-amok, Lukittaz, Marek, Mogozoz, Olethros, Ostinato, TeamatSE, Utugg, wanderer73, wreak,
Dec 21 2020, 16:10:04 Bilwis - Sagenwelt [ep] (2020)


*Artist: Bilwis
*Album: Sagenwelt [ep]
*Year: 2020
*Genre: Atmospheric Black Metal
*Country: Germany
*Format: mp3@CBR320kbps
*Size: 56MB

Tracklist:
1. Der Herr der Berge 4:37
2. Der Bote 3:14
3. Die Greisin 7:08
4. Sagenwelt 5:36
5. Seid Willkommen 1:16
******************************
Total playing time: 21:51



[more=Technical info]
Input File: 2. Der Bote.mp3
Channels : 2
Sample Rate : 44100
Precision : 16-bit
Duration : 00:03:14.86 = 8593370 samples = 14614.6 CDDA sectors
File Size : 8.87M
Bit Rate : 364k
Sample Encoding: MPEG audio (layer I, II or III)
Comments :
Title=Der Bote
Artist=Bilwis
Album=Sagenwelt
Tracknumber=2
Year=2020

[/more]

Register
(14) azar, infiltrator, kim666, Olethros, randumbum, robertho777, Rosen, sergsazan, SilentNidhogg, stub888, VALERY, varlam4, Wail, wreak,
Dec 18 2020, 21:37:39 Lamashtu - Tro (2020)


*Artist: Lamashtu
*Album: Tro
*Year: 2020
*Genre: Progressive Metal/Avant-Garde/Dark
*Country: Sweden
*Format: mp3@CBR128kbps
*Size: 44MB

Tracklist:
1. EN I - Allting återkommer 5:56
2. EN II - Förening/Vi är en 08:18
3. ITU I - Som ett djur 08:32
4. ITU II - Som ett avskräde 05:32
5. TRO I - För evigt 05:49
6. TRO II - Ett vingslag 05:25
7. TRO III - Skapar tårar 07:47
******************************
Total playing time: 47:19



[more=Technical info]
Input File: 1. EN I - Allting återkommer.mp3
Channels : 2
Sample Rate : 44100
Precision : 16-bit
Duration : 00:05:57.08 = 15747360 samples = 26781.2 CDDA sectors
File Size : 5.91M
Bit Rate : 132k
Sample Encoding: MPEG audio (layer I, II or III)
Comments :
Title=EN I - Allting återkommer
Artist=Lamashtu
Album=Tro
Tracknumber=1
Year=2020

[/more]

Register
(12) Cartman223, infiltrator, kimkayoung, metala, mirotvorets, Morgoth, Olethros, Rosen, thenecromancer, VALERY, Wail, yuratroll,
Apr 25 2020, 18:58:03 The Alligator Wine - Demons Of The Mind (2020)


*Artist: The Alligator Wine
*Album: Demons Of The Mind
*Year: 2020
*Genre: Psychedelic Rock/Blues Rock
*Country: Germany
*Format: mp3@CBR320kbps
*Size: 112MB

Tracklist:
1. Shotgun 3:55
2. Crocodile Inn 4:45
3. Voodoo 3:53
4. Ten Million Slaves 6:08
5. The Flying Carousel 4:29
6. Lorane 6:14
7. Dream Eyed Little Girl 4:26
8. Mamãe 3:49
9. Sweetheart On Fire 5:12
10. Shotgun (single edit) 3:16
******************************
Total playing time: 46:07

[more=Technical info]
Input File: 01. Shotgun.mp3
Channels : 2
Sample Rate : 44100
Precision : 16-bit
Duration : 00:03:55.67 = 10392871 samples = 17675 CDDA sectors
File Size : 9.53M
Bit Rate : 323k
Sample Encoding: MPEG audio (layer I, II or III)
Comments :
Title=Shotgun
Artist=The Alligator Wine
Album=Demons Of The Mind
Tracknumber=1
Year=2020

[/more]

Register
(9) BlackTroll, Branis, Darkness, infiltrator, marilin, metala, multizwilling, Olethros, smes,
Apr 25 2020, 18:30:53 Witchskull - A Driftwood Cross (2020)


*Artist: Witchskull
*Album: A Driftwood Cross
*Year: 2020
*Genre: Heavy/Stoner Metal
*Country: Australia
*Format: mp3@CBR320kbps
*Size: 88MB

Tracklist:
1. Black Cathedrals 04:56
2. Baphomet's Child 03:07
3. This Silent Place 03:40
4. The Red Altar 05:47
5. Dresden 05:35
6. March of Winter 04:08
7. Nero Order 05:21
8. A Driftwood Cross 05:55
******************************
Total playing time: 38:29

[more=Technical info]
Input File: 01 - Black Cathedrals.mp3
Channels : 2
Sample Rate : 44100
Precision : 16-bit
Duration : 00:04:56.40 = 13071416 samples = 22230.3 CDDA sectors
File Size : 11.9M
Bit Rate : 321k
Sample Encoding: MPEG audio (layer I, II or III)
Comments :
Title=Black Cathedrals
Artist=Witchskull
Album=A Driftwood Cross
Tracknumber=01
Year=2020
Discnumber=1

[/more]

Register
(14) AHBAnep, Darkness, infiltrator, kolar666, Leshiy666, marilin, Mogozoz, multizwilling, Olethros, Sabbathian, senecazm, Spunkynut, stub888, varlam4,
Feb 29 2020, 12:48:42 Moana - In The Allure (2019)


*Artist: Moana
*Album: In The Allure
*Year: 2019
*Genre: Psychedelic Rock
*Country: Australia
*Format: mp3@CBR320kbps
*Size: 89MB

Tracklist:
1. Smoke That Thunders 04:44
2. Dracula 03:20
3. The Cultess 03:48
4. Scarab 04:12
5. Sister Winter 05:05
6. Blood Moon 03:56
7. Feral Umbilical 03:22
8. E LIX A 04:07
9. Promise 05:58
******************************
Total playing time: 38:32



[more=Technical info]
Input File: 01 - Smoke That Thunders.mp3
Channels : 2
Sample Rate : 44100
Precision : 16-bit
Duration : 00:04:44.80 = 12559768 samples = 21360.1 CDDA sectors
File Size : 11.4M
Bit Rate : 321k
Sample Encoding: MPEG audio (layer I, II or III)
Comments :
Title=Smoke That Thunders
Artist=Moana
Album=In The Allure
Tracknumber=01
Year=2019

[/more]

Register
(3) infiltrator, marilin, Olethros,
Dec 14 2019, 22:38:50 Shadow's Mortuary - Kuoleman Portit (2019)


*Artist: Shadow's Mortuary
*Album: Kuoleman Portit
*Year: 2019
*Genre: Black Metal
*Country: Finland
*Format: mp3@CBR320kbps
*Size: 70MB

Tracklist:
1. Sielun tuhkaa 03:43
2. Ikisodan hurmo 04:01
3. Riipus 04:00
4. Virran viemä, tulen tuoma 02:44
5. Soihdunkantaja 03:35
6. Ruoska 04:41
7. Kuoleman portit 03:44
8. Ouroboros 04:27
******************************
Total playing time: 30:55

[more=Technical info]
Input File: 1. Sielun tuhkaa.mp3
Channels : 2
Sample Rate : 44100
Precision : 16-bit
Duration : 00:03:42.16 = 9797256 samples = 16662 CDDA sectors
File Size : 8.98M
Bit Rate : 324k
Sample Encoding: MPEG audio (layer I, II or III)
Comments :
Title=Sielun tuhkaa
Artist=Shadow's Mortuary
Album=Kuoleman portit
Tracknumber=1
Year=2019

[/more]

Register
(9) gena, Korpse, murian, Ramcheg1981, Rosen, stub888, thenecromancer, tim47, vasiljev_sergej,
Oct 26 2019, 09:00:14 Her Name Is Calla - Animal Choir (2019)


*Artist: Her Name Is Calla
*Album: Animal Choir
*Year: 2019
*Genre: Psychedelic/Post-Rock
*Country: United Kingdom
*Format: mp3@CBR320kbps
*Size: 179MB

Tracklist:
1. Swan 06:07
2. The Dead Rift 04:24
3. Kaleidoscoping 05:51
4. Bleach 04:14
5. A Modern Vesper 05:13
6. A Moment of Clarity 06:07
7. A Rush of Blood 02:09
8. Frontier 06:30
9. Pyre 02:47
10. Vanguard 07:34
11. Deer Trapping 02:00
12. To the Other 06:28
13. Robert and Gerda 08:41
14. Bloodline 08:05
15. In This Patterned Room 02:22
******************************
Total playing time: 1:18:32


Spotify
Apple Music

[more=Technical info]
Input File: 01 - Swan.mp3
Channels : 2
Sample Rate : 44100
Precision : 16-bit
Duration : 00:06:07.22 = 16194534 samples = 27541.7 CDDA sectors
File Size : 14.7M
Bit Rate : 321k
Sample Encoding: MPEG audio (layer I, II or III)
Comments :
Title=Swan
Artist=Her Name is Calla
Album=Animal Choir
Tracknumber=01
Year=2019
Genre=Psychedelic | Post-Rock

[/more]

Register
(4) Brann, gena, Olethros, Tyrone,
Oct 25 2019, 08:06:03 Swans - Leaving Meaning (2019)
За окном туман, словно кто-то разлил молоко, и альбом заиграл иными красками.
Хорошая вещь.

Spotify // Released: November 25
(2) Ghostb, infiltrator,
Oct 24 2019, 19:13:11 Cold In Berlin - Rituals Of Surrender (2019)


*Artist: Cold In Berlin
*Album: Rituals Of Surrender
*Year: 2019
*Genre: Doom Metal/Heavy Psych
*Country: United Kingdom
*Format: mp3@CBR320kbps
*Size: 103MB

Tracklist:
1. The Power 04:43
2. Dark Days 05:19
3. Avalanche 04:25
4. Monsters 05:38
5. Frantic 03:08
6. Temples 05:14
7. Your Body//My Church 03:52
8. Shadowman 04:36
9. Sacred Ground 07:44
******************************
Total playing time: 44:39


Spotify

[more=Technical info]
Input File: 02 - Dark Days.mp3
Channels : 2
Sample Rate : 44100
Precision : 16-bit
Duration : 00:05:19.50 = 14089862 samples = 23962.4 CDDA sectors
File Size : 13.0M
Bit Rate : 325k
Sample Encoding: MPEG audio (layer I, II or III)
Comments :
Title=Dark Days
Artist=Cold In Berlin
Album=Rituals Of Surrender
Tracknumber=2
Year=2019

[/more]

Register
(17) ahp, artscald, Foneg, fuoco, infiltrator, kramer820, KVRT, marilin, metala, Olethros, Rosen, SatanicPanzer, skidnik, stub888, SyncestrA, thenecromancer, VALERY,
Oct 24 2019, 18:45:35 Sandveiss - Saboteur (2019)


*Artist: Sandveiss
*Album: Saboteur
*Year: 2019
*Genre: Stoner Rock
*Country: Canada
*Format: mp3@CBR320kbps
*Size: 88MB

Tracklist:
1. Sands Of Time 04:36
2. Dead Inside 03:39
3. The Masquerade 09:24
4. The Divider 04:47
5. Saboteur 04:39
6. Broken Man's Mind 06:19
7. Burning Ropes 05:30
******************************
Total playing time: 38:54


Spotify
Apple Music

[more=Technical info]
Input File: 1 - Sands of Time.mp3
Channels : 2
Sample Rate : 44100
Precision : 16-bit
Duration : 00:04:36.55 = 12195855 samples = 20741.2 CDDA sectors
File Size : 11.1M
Bit Rate : 321k
Sample Encoding: MPEG audio (layer I, II or III)
Comments :
Title=Sands of Time
Artist=Sandveiss
Album=Saboteur
Tracknumber=1
Year=2019

[/more]

Register
(4) marilin, multizwilling, Olethros, stub888,
Oct 24 2019, 18:29:21 Monkey3 - Sphere (2019)


*Artist: Monkey3
*Album: Sphere
*Year: 2019
*Genre: Psychedelic/Post-Rock
*Country: Switzerland
*Format: mp3@CBR320kbps
*Size: 120MB

Tracklist:
1. Spirals 11:19
2. Axis 06:37
3. Prism 09:10
4. Mass 06:30
5. Ida 04:22
6. Ellipsis 14:13
******************************
Total playing time: 52:11


Spotify
Apple Music

[more=Extended info]Top 10 #2019

"Mass" is just perfect[/more]

[more=Technical info]
Input File: 02. Axis.mp3
Channels : 2
Sample Rate : 44100
Precision : 16-bit
Duration : 00:06:37.32 = 17521856 samples = 29799.1 CDDA sectors
File Size : 16.0M
Bit Rate : 322k
Sample Encoding: MPEG audio (layer I, II or III)
Comments :
Title=Axis
Artist=Monkey3
Album=Sphere
Tracknumber=2
Year=2019
Genre=Rock

[/more]

Register
(8) gena, Kwaad, Lyrch, marilin, Olethros, squall8fr, Tular, xska,
Oct 23 2019, 21:30:00 Alastor - Šumava (2019)


*Artist: Alastor
*Album: Šumava
*Year: 2019
*Genre: Black Metal
*Country: Austria
*Format: mp3@CBR320kbps
*Size: 107MB

Tracklist:
1. Plateau of the past 07:41
2. Of our kind 04:11
3. Variszic ruins 01:50
4. Silva - The wild hunt 04:41
5. No mark by men prevailed 07:37
6. No mans land 04:26
7. There is nothing left but to mourn the fallen 05:05
8. Askese 06:15
9. Northern Firestorm 03:04
10. Ice and Nature 05:29
******************************
Total playing time: 50:19



[more=Technical info]
Input File: 2 - Of our Kind.mp3
Channels : 2
Sample Rate : 44100
Precision : 16-bit
Duration : 00:04:11.65 = 11097941 samples = 18874 CDDA sectors
File Size : 10.1M
Bit Rate : 321k
Sample Encoding: MPEG audio (layer I, II or III)
Comments :
Title=Of our Kind
Artist=Alastor
Album=Šumava
Tracknumber=2
Year=2019

[/more]

Register
(15) Beazth, Brann, dermarsoran, Druidir, kim666, Rosen, scorpionmk, stub888, thenecromancer, tim47, vasiljev_sergej, Wail, wendigo, yuratroll, Волос,
Oct 19 2019, 22:27:48 Conductor - Icarus [ep] (2019)


*Artist: Conductor
*Album: Icarus [ep]
*Year: 2019
*Genre: Atmospheric Sludge
*Country: United States
*Format: mp3@CBR320kbps
*Size: 48MB

Tracklist:
1. Go To The Mast At Dawn 06:43
2. Icarus 08:43
3. Catch Me 07:21
******************************
Total playing time: 22:47


Spotify

[more=Technical info]
Input File: 1 - Go To The Mast At Dawn.mp3
Channels : 2
Sample Rate : 44100
Precision : 16-bit
Duration : 00:06:43.55 = 17796511 samples = 30266.2 CDDA sectors
File Size : 16.1M
Bit Rate : 320k
Sample Encoding: MPEG audio (layer I, II or III)
Comments :
Title=Go To The Mast At Dawn
Artist=Conductor
Album=Icarus
Tracknumber=1
Year=2019

[/more]

Register
(12) artscald, denver, fallen, infiltrator, Noizzy_Dog_FBG, Olethros, Ostinato, Rosen, Sanctus, stub888, stumpheavyrock, VALERY,

5 Pages V   1 2 3 > » 
- Lo-Fi Version Support form
Copyrights and abuse reports form
Time is now: 4th October 2022 - 08:32:48