Welcome Guest ( Log In | Register )

Объявления

* gmail.com упорно продолжает считать почту с нас "unsolicited" и отбивает в том числе и письма активации, поэтому просьба использовать альтернативные почтовые ящики.
------------
* gmail.com continues reject all mail from us as "unsolicited" (activation mails too) therefore please use alternate mail servers.
История благодарностей участнику Konungr ::: Спасибо сказали: 2427 раз(а)
Дата поста: В теме: За сообщение: Спасибо сказали:
Feb 5 2024, 18:25:42 Kerry King - Idle Hands [single] (2024)
Не знаю кто вокалит, но прекрасная песня! Что бы кто не 3,14здел!
(2) isvili, p4B10,
Jan 13 2024, 18:14:57 Dura - Dura (2023)
Зачем в московии названия группам вообще давать? Вот оно одно!
(1) suseka,
Nov 28 2023, 22:20:45 Thrash Attack - Brazen Bull (2023)
Очередное латиноамериканское дерьмо!
(1) AHBAnep,
Sep 5 2023, 19:51:49 Horrid Mass - Formless Dread [demo] (2023)
Звук трохи їбанутий. А так якщо вокалєра дістати з ями то слухати можна.
(1) philfoden,
Sep 1 2023, 17:15:11 Concrete - High Evolution (2023)
Все класно зіграно, але якоїсь родзинки не вистачає!
(1) insufferable,
Apr 17 2023, 17:37:38 Death Pill - Death Pill [ep] (2023)
Ставлю 12 балів! true_black.gif
(1) Samaritianin,
Jan 21 2023, 20:21:55 До Скону - ...And Darkness Was Over The Surface Of The Deep (2023)
Взагалі матеріал мені сподобався, може якоюсь жорсткістю. Obituary прозвучало!
(3) envenomed2, russ777, Varos,
Oct 8 2022, 10:45:43 Dprize - Исход (2022)
И этот Dprize постоянно утверждал, что он абсолютно не знаком с совковой и постсовковой металлической сценой, что как то странно.
(1) BleedingSun,
Oct 8 2022, 08:50:29 Dprize - Исход (2022)
ЦИТАТА(Chasm @ Oct 7 2022, 18:15:01) *
Облога типа под Гьендод). а чел с патлами - это тот который обзоры как раз ведет в очках и кепосике?

Облога типа Никулина и Шуйдина, только намного обо[мат->бан]ее!
(3) BleedingSun, Chasm, Kazoth,
Dec 24 2021, 08:22:39 Carve - Stillborn Revelations (2002)
Register
(3) hell_armageddon, Mist13Signifier, wreak,
Dec 22 2021, 16:11:31 Daemon - The Second Coming (1999)
Register
(3) cancer1974, WOLAND, wreak,
Dec 19 2021, 07:57:12 Cut Up - Wherever They May Rot (2017)
Register
(1) wreak,
Dec 17 2021, 16:47:18 Karnarium - Breaking The Manakles Of Malkuth [demo] (2000)


*Artist: Karnarium
*Album: Breaking The Manakles Of Malkuth [demo]
*Year: 2000
*Genre: Death Metal
*Country: Sweden
*Format: mp3@CBR320kbps
*Size: 39MB

Tracklist:
1. Breaking the Manakles of Malkuth 04:13
2. Rise from the Filth 04:07
3. Dead Parturition 04:46
4. Keeper of Balance 03:20
******************************
Total playing time: 16:26

[more=Technical info]
Input File: 01 Breaking the Manacles of Malkuth.mp3
Channels : 2
Sample Rate : 44100
Precision : 16-bit
Duration : 00:04:13.64 = 11185524 samples = 19023 CDDA sectors
File Size : 10.1M
Bit Rate : 320k
Sample Encoding: MPEG audio (layer I, II or III)
Comments :
Title=Breaking the Manacles of Malkuth
Artist=Karnarium
Album=Breaking the Manacles of Malkuth
Tracknumber=1
Year=2000
Genre=Death Metal

[/more]

Register
(13) andreikun, artscald, Carcharoth, caro, hell_armageddon, Marek, Olethros, Proteus_666, varlam4, Wail, wanderer73, wreak, Xtohar,
Nov 7 2021, 10:16:49 Gutalax - The Shitpendables (2021)
Отменнейшая музыка, хрюкалка и ор прилагаются)!
(1) judaz,
Nov 1 2021, 17:16:57 Райский Ад - Противостояние (1990)
Флаг страны какой-то подозрительный для 90-го года.
(4) ingram, Penetralia, rominow, vobiscum,
Oct 27 2021, 12:24:09 Today Needed
ЦИТАТА(thenecromancer @ Oct 27 2021, 14:14:21) *

По Morbid рабочая ссылка от GorAtheist.
(1) thenecromancer,
Oct 27 2021, 12:01:03 Morbid - December Moon [demo] (1987)
ЦИТАТА(FullofHate @ Apr 8 2020, 12:22:05) *
Культ культом, а по факту "плейшатукилловщина". Звучит прямолишейно и экстремально, но стоит признать очевидный факт, что если бы не воспетый в СМИ Per Yngve Ohlin, впоследствии принявший участие в Mayhem, которые при жизни стали притчей во языцех, сомневаюсь, что применительно к этой записи было бы столько фапа и воршипа. Можно сказать, что материал "хороший" или "нормальный", но не сверх того.

Винилы из памятного тиража 94 года стоят по 500-700 евро. Субъективно, материал мало отличается от работ ровесников, а то и подчас выглядит простоватым. Имхо, без информационных шумов и громких доводов, была бы эта запись переиздана каким-нибудь Dark Symphonies и лежала годами в дистро по 10 евро в обычные дни, а то и со скидкой в пару euro в дни рождественской распродажи.

Не ты догонишь легенду, то легенду навяжут тебе.
Колхоз - дело добровольное, или вступай или расстрел.
(1) spazm,
Oct 21 2021, 13:11:31 Massacre - Resurgence (2021)
Rogga Johansson наверное размножается как агент Смит.
(6) Emm Human, kessler, Metalass, Old Vyaine, plfan93, spazm,
Oct 20 2021, 16:46:14 Blasphemophagher - Nuclear Hell Live - Destroying Rome [demo] (2004)
Register
(2) spazm, thenecromancer,
Oct 20 2021, 16:31:07 Koza Dereza - Tut Tobi J Smerť [demo] (2016)


*Artist: Koza Dereza
*Album: Tut Tobi J Smerť [demo]
*Year: 2016
*Genre: Black/Thrash Metal
*Country: Ukraine
*Format: mp3@CBR320kbps
*Size: 23MB

Tracklist:
1. Tut tobi j smerť 02:59
2. Uvjaznenyj černeć 03:36
3. Žneć (Bathory cover) 02:37
******************************
Total playing time: 9:12



[more=Technical info]
Input File: 01 - Tut tobi j smerť (instrumental).mp3
Channels : 2
Sample Rate : 44100
Precision : 16-bit
Duration : 00:02:59.87 = 7932091 samples = 13490 CDDA sectors
File Size : 7.48M
Bit Rate : 333k
Sample Encoding: MPEG audio (layer I, II or III)
Comments :
Title=Tut tobi j smerť (instrumental)
Artist=Koza Dereza
Album=Tut Tobi J Smerť
Tracknumber=01/03
Year=2016
Genre=Metal

[/more]

Register
(10) artscald, caro, julianotidre, METALHUNTER, SilentNidhogg, stumpheavyrock, Svafrlami, Taakeferd, vasiljev_sergej, wreak,
May 25 2021, 13:30:04 Очень редкие альбомы и демки /Verу Rare Albums & Demos
ЦИТАТА(Morra @ May 22 2021, 18:31:26) *
Обращусь, спасибо
Да черт знает, если говорить об андеграунде российском очень часто получается что по сети раскиданы треки иногда неизвестно откуда и что. благо если теги написаны а так и не известно что за записи. репетиции демо части релизов, подчас нелегко понять.

Вот и на какой хрен эта вся херня нужна? Там что-то раскидано, репетиции, недозаписи, репетиции демо части релизов, еще какая-то муть...Для кого? Зачем!?
(1) Deze,
Dec 20 2020, 17:24:45 Deicide - Legion (1992)
Не могу отделаться от мысли, что Глен Бентон немного пошутил и вдруг появились стили металкор, дэткор еще какая-то херня?
(1) Occultas,
Aug 25 2020, 17:40:18 Burnt Offering - Жатва (2020)
ЦИТАТА(nsk2008 @ Aug 25 2020, 04:33:25) *
В названии альбома пропущена одна буква.

Желательно без этого, а то и в 6 трэке при желании можно лишнюю букву найти.
(1) nsk2008,
Oct 4 2019, 18:23:02 Slayer - Repentless (2015)
В предверии выпуска живого альбома.
[/quote]
Карл Маркс - вечен...
(1) corgoroth,
Dec 8 2018, 18:12:33 Exile - Pleasure Awaits (2018)
Судя по фэйсбуку как-бы играет одна и та же песня, паршивенькая, с оздоровительными перекурами попить водички и бас настроить
(2) DarkHorde, kessler,

17 Pages V   1 2 3 > » 
- Lo-Fi Version Support form
Copyrights and abuse reports form
Time is now: 23rd April 2024 - 09:00:46