Welcome Guest ( Log In | Register )

Объявления

* gmail.com упорно продолжает считать почту с нас "unsolicited" и отбивает в том числе и письма активации, поэтому просьба использовать альтернативные почтовые ящики.
------------
* gmail.com continues reject all mail from us as "unsolicited" (activation mails too) therefore please use alternate mail servers.
История благодарностей участнику Constantinus I ::: Спасибо сказали: 7813 раз(а)
Дата поста: В теме: За сообщение: Спасибо сказали:
Sep 4 2021, 01:40:29 Czarnobog - Night Of Uralic Storm (2021)


*Artist: Czarnobog
*Album: Night Of Uralic Storm
*Year: 2021
*Genre: Black Metal
*Country: Germany
*Format: mp3@CBR320kbps
*Size: 128MB

Tracklist:
1.Chant of Barbarian Shores... (Introduction) 01:58
2.Flight over Scythian Steppes 06:48
3.The Forest Calls Again 04:13
4.Hymn to the Thunder 01:12
5.Under Lunar Spell 05:13
6.Night of Uralic Storm 07:40
7.Call of Astral Blood 10:26
8.Ravens Invoke Old Anger 05:38
9.Funeral of Black Hearts 10:13
10.Under Sarmatian Moon (Outroduction) 02:15
******************************
Total playing time: 55:36



[more=Extended info]FLAC rip[/more]

[more=Technical info]
Input File: Czarnobog - Night of Uralic Storm - 09 Funeral of Black Hearts.mp3
Channels : 2
Sample Rate : 44100
Precision : 16-bit
Duration : 00:10:14.07 = 27080531 samples = 46055.3 CDDA sectors
File Size : 24.7M
Bit Rate : 321k
Sample Encoding: MPEG audio (layer I, II or III)
Comments :
Title=Funeral of Black Hearts
Artist=Czarnobog
Album=Night of Uralic Storm
Tracknumber=9
Year=2021

[/more]

Register
(28) aleon, AlexSmith, canadaspaceman, caro, cesar, Hell_Is_Here, INDARKNESS, kim666, kimkayoung, Marek, MMMMM, Moonshtook, multizwilling, nemx, Olethros, postal67, Razorbladeswaltz, rimfrost, robertho777, SilentNidhogg, stormhatt, supremo, Taakeferd, VALERY, varlam4, vasiljev_sergej, Velmi, wreak,
Jul 7 2021, 09:43:08 Igric - Svet Svetlom Stvorený (2021)


*Artist: Igric
*Album: Svet Svetlom Stvorený
*Year: 2021
*Genre: Pagan Black Metal/Ambient
*Country: Slovakia
*Format: mp3@CBR320kbps
*Size: 113MB

Tracklist:
1.Severka 07:23
2.Nebudeš viac 03:41 instrumental
3.Svet svetlom stvorený 07:47
4.Proti času 06:04
5.Srdce lesnej ríše 05:00
6.Véd 06:35
7.Ponad valom ľadovým 04:11 instrumental
8.Za valom ľadovým 02:35 instrumental
9.Severka (original version) 04:46
******************************
Total playing time: 48:02



[more=Technical info]
Input File: IGRIC - Svet Svetlom Stvorený (2021) - 05 05. Srdce lesnej ríše.mp3
Channels : 2
Sample Rate : 44100
Precision : 16-bit
Duration : 00:05:00.09 = 13233749 samples = 22506.4 CDDA sectors
File Size : 12.2M
Bit Rate : 324k
Sample Encoding: MPEG audio (layer I, II or III)
Comments :
Title=05. Srdce lesnej ríše
Artist=IGRIC
Album=Svet Svetlom Stvorený (2021)
Tracknumber=5
Year=2021

[/more]

Register
(39) Aamiinaa, caro, cryptal, djsema4, Druidir, eternald, Evjenne, FuneralMoth, Ildjarn, isvili, kim666, Ludwig Hagen, MadCarrot, Megakimi, murian, NachtWulf, nemx, nsk2008, Olethros, Olrak, Ostinato, robertho777, Shadechaser, SilentNidhogg, smes, smysl, Storky, supremo, talismanFS, varlam4, vasiljev_sergej, Vranakrik, Wilczygniew Strzygoń, WOLAND, wreak, zargonath, Zenial, Авел, Сварог Барг,
Jul 2 2021, 13:58:52 Igric - Volanie Mesiaca [single] (2007)


*Artist: Igric
*Album: Volanie Mesiaca [single]
*Year: 2007
*Genre: Pagan Black Metal/Ambient
*Country: Slovakia
*Format: mp3@CBR320kbps
*Size: 21MB

Tracklist:
1. Koliada 01:50
2. Volanie mesiaca 07:18
******************************
Total playing time: 9:08



[more=Technical info]
Input File: IGRIC - Igric - Volanie Mesiaca (Single2007) - 02 02-Igric-Volanie Mesiaca.mp3
Channels : 2
Sample Rate : 44100
Precision : 16-bit
Duration : 00:07:18.36 = 19331588 samples = 32876.9 CDDA sectors
File Size : 17.7M
Bit Rate : 323k
Sample Encoding: MPEG audio (layer I, II or III)
Comments :
Title=Volanie Mesiaca
Artist=B - Igric
Album=Volanie Mesiaca [ Single ]
Tracknumber=2
Year=2007
Genre=Pagan Black Metal / Ambient

[/more]

Register
(10) caro, Evjenne, Ildjarn, Ludwig Hagen, Olethros, SilentNidhogg, Svafrlami, varlam4, vasiljev_sergej, wreak,
Jul 2 2021, 13:57:06 Igric - Single 2017 [single] (2017)


*Artist: Igric
*Album: Single 2017 [single]
*Year: 2017
*Genre: Pagan Black Metal/Ambient
*Country: Slovakia
*Format: mp3@CBR320kbps
*Size: 19MB

Tracklist:
1.MMXVII - I. 07:52
******************************
Total playing time: 7:52



[more=Technical info]
Input File: IGRIC - Igric - single 2017 - 01 MMXVII - I..mp3
Channels : 2
Sample Rate : 44100
Precision : 16-bit
Duration : 00:07:53.08 = 20862696 samples = 35480.8 CDDA sectors
File Size : 19.1M
Bit Rate : 323k
Sample Encoding: MPEG audio (layer I, II or III)
Comments :
Title=MMXVII - I.
Artist=B - Igric
Album=Single 2017 [ Single ]
Tracknumber=1
Year=2017
Genre=Pagan Black Metal / Ambient

[/more]

Register
(7) caro, Evjenne, Ildjarn, varlam4, vasiljev_sergej, wreak, Zenial,
Jul 2 2021, 13:55:27 Igric - Severka [single] (2021)


*Artist: Igric
*Album: Severka [single]
*Year: 2021
*Genre: Pagan Black Metal/Ambient
*Country: Slovakia
*Format: mp3@CBR320kbps
*Size: 31MB

Tracklist:
1. Severné vráta 02:01
2. Severka 07:22
3. Nebudeš viac 03:42
******************************
Total playing time: 13:05



[more=Technical info]
Input File: IGRIC - Severka (2021) - 02 Severka.mp3
Channels : 2
Sample Rate : 44100
Precision : 16-bit
Duration : 00:07:22.64 = 19520556 samples = 33198.2 CDDA sectors
File Size : 17.8M
Bit Rate : 322k
Sample Encoding: MPEG audio (layer I, II or III)
Comments :
Title=Severka
Artist=B - Igric
Album=Severka [ Single ]
Tracknumber=2
Year=2021
Genre=Pagan Black Metal / Ambient

[/more]

Register
(12) Bulldozzzzzzer, caro, Evjenne, Ildjarn, Ludwig Hagen, Olethros, Razorbladeswaltz, SilentNidhogg, varlam4, vasiljev_sergej, wreak, Zenial,
Jul 2 2021, 13:53:55 Igric - Pri Zrode Dažboga [demo] (2007)


*Artist: Igric
*Album: Pri Zrode Dažboga [demo]
*Year: 2007
*Genre: Pagan Black Metal/Ambient
*Country: Slovakia
*Format: mp3@CBR320kbps
*Size: 90MB

Tracklist:
01. Pri Zrode Dažboga 05:21
02. Za Dávnych Dní 05:04
03. Spomienky Starého Dubu 04:10
04. Oheň A Telo Jedným Sú´ 05:41
05. The Time Is Coming 06:33
06. Parom Sa Vracia 06:02
******************************
Total playing time: 32:51



[more=Technical info]
Input File: IGRIC - Igric - Pri zrode Daždoga (2007) - 01 1 - Pri zrode Dažboga.mp3
Channels : 2
Sample Rate : 44100
Precision : 16-bit
Duration : 00:05:21.32 = 14170344 samples = 24099.2 CDDA sectors
File Size : 12.9M
Bit Rate : 322k
Sample Encoding: MPEG audio (layer I, II or III)
Comments :
Title=Pri zrode Dažboga
Artist=B - Igric
Album=Pri Zrode Dažboga [ Demo ]
Tracknumber=1
Year=2007
Genre=Pagan Black Metal / Ambient

[/more]

Register
(11) caro, Evjenne, Ildjarn, Olethros, Razorbladeswaltz, SilentNidhogg, Svafrlami, varlam4, vasiljev_sergej, wreak, Zenial,
Jul 2 2021, 13:52:48 Igric - Nárek Dávnych Hviezd [demo] (2008)


*Artist: Igric
*Album: Nárek Dávnych Hviezd [demo]
*Year: 2008
*Genre: Pagan Black Metal/Ambient
*Country: Slovakia
*Format: mp3@CBR320kbps
*Size: 83MB

Tracklist:
1. Nárek dávnych hviezd 08:54
2. Nekonečný chlad 13:35
3. Ozveny paromovej dúbravy 13:25
******************************
Total playing time: 35:54



[more=Technical info]
Input File: IGRIC - Igric - Nárek Dávnych Hviezd (2007) - 03 03-Ozveny Paromovej Dúbravy.mp3
Channels : 2
Sample Rate : 44100
Precision : 16-bit
Duration : 00:13:25.69 = 35530797 samples = 60426.5 CDDA sectors
File Size : 32.4M
Bit Rate : 321k
Sample Encoding: MPEG audio (layer I, II or III)
Comments :
Title=Ozveny Paromovej Dúbravy
Artist=B - Igric
Album=Nárek dávnych hviezd [ Demo ]
Tracknumber=3
Year=2007
Genre=Pagan Black Metal / Ambient

[/more]

Register
(12) caro, Evjenne, Ildjarn, kanashimi165, kim666, Olethros, SilentNidhogg, Svafrlami, varlam4, vasiljev_sergej, wreak, Zenial,
Jul 2 2021, 13:51:17 Igric - Krvi Čin [demo] (2004)


*Artist: Igric
*Album: Krvi Čin [demo]
*Year: 2004
*Genre: Pagan Black Metal/Ambient
*Country: Slovakia
*Format: mp3@CBR320kbps
*Size: 81MB

Tracklist:
01. Perúnov Hnev 07:30
02. Kolovrat 06:23
03. Krvi Čin 05:57
04. Supreme Empire 06:07
05. Súboj 04:14
06. Kolo 04:58
******************************
Total playing time: 35:09



[more=Technical info]
Input File: IGRIC - Krvi Čin (2004) - 03 03 - Krvi Čin.mp3
Channels : 2
Sample Rate : 44100
Precision : 16-bit
Duration : 00:05:57.90 = 15783258 samples = 26842.3 CDDA sectors
File Size : 14.4M
Bit Rate : 322k
Sample Encoding: MPEG audio (layer I, II or III)
Comments :
Title=Krvi Čin
Artist=B - Igric
Album=Krvi Čin [ Demo ]
Tracknumber=3
Year=2004
Genre=Pagan Black Metal / Ambient

[/more]

Register
(12) caro, Evjenne, Ildjarn, kanashimi165, kim666, SilentNidhogg, smysl, Svafrlami, varlam4, vasiljev_sergej, wreak, Zenial,
Jul 1 2021, 11:42:03 Sirin & Krajiny Hmly & Ruiny Vekov - Ešte Jedle Rastú... [split] (2019)


*Artist: Sirin & Krajiny Hmly & Ruiny Vekov
*Album: Ešte Jedle Rastú... [split]
*Year: 2019
*Genre: Pagan Black Metal | Pagan Black Metal | Black Metal
*Country: Slovakia | Slovakia | Slovakia
*Format: mp3@CBR320kbps
*Size: 67MB

Tracklist:
1.Sirin - Pieseň predkov 05:45
2.Ruiny Vekov - Vlasť moja mrie! 05:12
3.Krajiny Hmly - Ponad čierne hory 04:10
4.Sirin - Tisícročná história 04:05
5.Ruiny Vekov - Slzy stromov spomienky skrývajú 04:46
6.Krajiny Hmly - Tatranské štíty večné 05:24
******************************
Total playing time: 29:22



[more=Extended info]CD-rip[/more]

[more=Technical info]
Input File: 01. Pieseň Predkov.mp3
Channels : 2
Sample Rate : 44100
Precision : 16-bit
Duration : 00:05:47.50 = 15324882 samples = 26062.7 CDDA sectors
File Size : 13.9M
Bit Rate : 320k
Sample Encoding: MPEG audio (layer I, II or III)
Comments :
Title=Pieseň Predkov
Artist=Sirin
Album=Ešte Jedle Rastú...
Tracknumber=1/6
Year=2019
Genre=Pagan Black Metal

[/more]

Register
(17) caro, Ildjarn, kim666, kramer820, Lanceatum, Marek, recber, SilentNidhogg, smes, smysl, Storky, VALERY, varlam4, vasiljev_sergej, wreak, Абигор, Сварог Барг,
Jun 27 2021, 15:53:18 Hunferd - Hunferd (2021)
Прости, Абигор, но не это. Если кто-то маскирует отсутствие изобретательности псевдоинтеллектуальной позой, он все равно не может скрыть невероятную скуку, свойственную этой «работе». Обычно вы кладете сюда хорошие вещи, но это не ваш день.
(2) infiltrator, Kwaad,
Jun 26 2021, 21:08:49 Krajiny Hmly - Poza Čierne Hory (2021)
Я отдал этот файл два дня назад, но это не разрешили. Почему? Что модераторы форума предоставят место только для друзей?

Вот мои оригинальные файлы. Кто-нибудь может сказать мне, что с ними не так?

Register

Register
(7) avather, Glioma, kramer820, ripper33, squall8fr, Storky, wreak,
Jun 22 2021, 17:35:22 Krajiny Hmly - Poza Čierne Hory (2021)


*Artist: Krajiny Hmly
*Album: Poza Čierne Hory
*Year: 2021
*Genre: Pagan Black Metal
*Country: Slovakia
*Format: mp3@CBR320kbps
*Size: 91MB

Tracklist:
1.
Intro 01:26
2.
Vo svetle rannej hviezdy 03:58
3.
Šíra nočná obloha 04:37
buy track
4.
Syn pustiny 05:05
5.
Spomienka 05:27
6.
Mohyly 04:06
7.
Poza čierne hory 04:21
8.
Pútnikova pieseň 04:56
9.
o skalách, búrke a večnom plameni 05:31
******************************
Total playing time: 39:27



[more=Extended info]FLAC rip[/more]

[more=Technical info]
Input File: Krajiny Hmly - Poza čierne hory - 05 Spomienka.mp3
Channels : 2
Sample Rate : 44100
Precision : 16-bit
Duration : 00:05:27.39 = 14437767 samples = 24554 CDDA sectors
File Size : 13.2M
Bit Rate : 322k
Sample Encoding: MPEG audio (layer I, II or III)
Comments :
Title=Spomienka
Artist=Krajiny Hmly
Album=Poza čierne hory
Tracknumber=5
Year=2021
Genre=Pagan Black Metal

[/more]

Register
(1) smysl,
May 1 2021, 15:43:07 Sielunvihollinen - Tuhontuoja [demo] (2016)


*Artist: Sielunvihollinen
*Album: Tuhontuoja [demo]
*Year: 2016
*Genre: Black Metal
*Country: Finland
*Format: mp3@CBR320kbps
*Size: 29MB

Tracklist:
1. Kuihtua sinun pitää 03:58
2. Tuhontuoja 04:06
3. Valheiden valtakunta 04:30
******************************
Total playing time: 12:34



[more=Extended info]FLAC rip[/more]

[more=Technical info]
Input File: Sielunvihollinen - Tuhontuoja - 03 Valheiden Valtakunta.mp3
Channels : 2
Sample Rate : 44100
Precision : 16-bit
Duration : 00:04:30.07 = 11910175 samples = 20255.4 CDDA sectors
File Size : 10.9M
Bit Rate : 322k
Sample Encoding: MPEG audio (layer I, II or III)
Comments :
Title=Valheiden Valtakunta
Artist=Sielunvihollinen
Album=Tuhontuoja
Tracknumber=3
Year=2016

[/more]

Register
(20) andivi, caro, Hell_Is_Here, Ildjarn, IncendiaryMight, infiltrator, kim666, Lanceatum, lordbathor, Olethros, Razorbladeswaltz, satanist666, SilentNidhogg, spiritualdecay666, thenecromancer, VALERY, varlam4, vasiljev_sergej, Wail, wreak,
May 1 2021, 15:35:05 Sielunvihollinen - Verentuoja [compilation] (2021)


*Artist: Sielunvihollinen
*Album: Verentuoja [compilation]
*Year: 2021
*Genre: Black Metal
*Country: Finland
*Format: mp3@CBR320kbps
*Size: 72MB

Tracklist:
1. Kuihtua sinun pitää 03:56
2. Tuhontuoja 04:03
3. Valheiden valtakunta 04:27
4. Veren Äänet 05:48
5. Haudan pimeydessä 05:41
6. Kaamos 06:52
******************************
Total playing time: 30:47



[more=Extended info]FLAC rip[/more]

[more=Technical info]
Input File: SIELUNVIHOLLINEN - Verentuoja - 06 Kaamos.mp3
Channels : 2
Sample Rate : 48000
Precision : 16-bit
Duration : 00:06:52.90 = 19819152 samples ~ 30967.4 CDDA sectors
File Size : 16.6M
Bit Rate : 322k
Sample Encoding: MPEG audio (layer I, II or III)
Comments :
Title=Kaamos
Artist=B - Sielunvihollinen
Album=Verentuoja [ Compilation ] FLAC
Tracknumber=6
Year=2021
Genre=Black Metal

[/more]

Register
(26) andeimon, caro, Cyrci, Hell_Is_Here, Ildjarn, infiltrator, isvili, kim666, kimkayoung, Lanceatum, lordbathor, Olethros, Ostinato, Rover, satanist666, smes, spiritualdecay666, stormhatt, supremo, VALERY, varlam4, vasiljev_sergej, Vidder242, Wail, wreak, Нигилист,
May 1 2021, 15:17:55 Sielunvihollinen - Aseenne Nostakaa [single] (2017)


*Artist: Sielunvihollinen
*Album: Aseenne Nostakaa [single]
*Year: 2017
*Genre: Black Metal
*Country: Finland
*Format: mp3@CBR320kbps
*Size: 8MB

Tracklist:
1. Aseenne nostakaa 03:33
******************************
Total playing time: 3:33



[more=Extended info]FLAC rip[/more]

[more=Technical info]
Input File: Sielunvihollinen - Aseenne Nostakaa.mp3
Channels : 2
Sample Rate : 44100
Precision : 16-bit
Duration : 00:03:33.96 = 9435504 samples = 16046.8 CDDA sectors
File Size : 8.64M
Bit Rate : 323k
Sample Encoding: MPEG audio (layer I, II or III)
Comments :
Title=Aseenne Nostakaa
Artist=Sielunvihollinen
Album=Aseenne nostakaa
Tracknumber=1
Year=2017
Genre=Black Metal

[/more]

Register
(17) caro, Hell_Is_Here, Ildjarn, IncendiaryMight, infiltrator, Lanceatum, lordbathor, Okultista, Olethros, Razorbladeswaltz, satanist666, spiritualdecay666, stormhatt, varlam4, vasiljev_sergej, Wail, wreak,
May 1 2021, 15:13:14 Sielunvihollinen - Perkeleen Edessä [live] (2020)


*Artist: Sielunvihollinen
*Album: Perkeleen Edessä [live]
*Year: 2020
*Genre: Black Metal
*Country: Finland
*Format: mp3@CBR320kbps
*Size: 48MB

Tracklist:
1. Intro 01:37
2. Oodi 02:28
3. Tämä Kansa, Tämä Maa 03:48
4. Viimeinen Valonlähde 05:33
5. Syvyydestä 04:01
6. Varoituslaukaus 02:58
******************************
Total playing time: 20:25



[more=Extended info]FLAC rip but the quality is unfortunately lower.[/more]

[more=Technical info]
Input File: Sielunvihollinen - Perkeleen Edessä - 05 Syvyydestä.mp3
Channels : 2
Sample Rate : 48000
Precision : 16-bit
Duration : 00:04:01.95 = 11613456 samples ~ 18146 CDDA sectors
File Size : 9.76M
Bit Rate : 323k
Sample Encoding: MPEG audio (layer I, II or III)
Comments :
Title=Syvyydestä
Artist=B - Sielunvihollinen
Album=Perkeleen Edessä
Tracknumber=5
Year=2020
Genre=Black Metal

[/more]

Register
(11) infiltrator, kimkayoung, lordbathor, Olethros, sacrut, spiritualdecay666, stormhatt, thenecromancer, varlam4, vasiljev_sergej, Wail,
Apr 30 2021, 07:33:20 Mantus - Dark Visions [demo] (2007)
Mantus - Dark Visions [demo] (2007) same properties

Register

Register
(3) dermarsoran, thenecromancer, varlam4,
Apr 29 2021, 22:56:53 Lilyum - Altar Of Fear (2017)
Lilyum - Altar of Fear (2017) 320kbps FLAC rip

Register

Register
(1) varlam4,
Apr 29 2021, 22:49:49 Lilyum - October's Call (2015)


*Artist: Lilyum
*Album: October's Call
*Year: 2015
*Genre: Black Metal
*Country: Italy
*Format: mp3@CBR320kbps
*Size: 78MB

Tracklist:
1. Intro - October's Call 01:32
2. Mother of Flies 07:30
3. Justice Palace 06:54
4. In Too Blue 08:26
5. Nothing 09:37
******************************
Total playing time: 33:59



[more=Extended info]FLAC rip[/more]

[more=Technical info]
Input File: Lilyum - October\'s Call - 04 In Too Blue.mp3
Channels : 2
Sample Rate : 44100
Precision : 16-bit
Duration : 00:08:26.44 = 22334048 samples = 37983.1 CDDA sectors
File Size : 20.4M
Bit Rate : 322k
Sample Encoding: MPEG audio (layer I, II or III)
Comments :
Title=In Too Blue
Artist=Lilyum
Album=October's Call
Tracknumber=4
Year=2015
Genre=Black Metal

[/more]

Register
(17) AlexSmith, atavist, ctulhudagon, infiltrator, kim666, Olethros, Reverend, Rover, sabr, sagratan, satanist666, SilentNidhogg, VALERY, varlam4, vasiljev_sergej, Wail, wreak,
Apr 29 2021, 22:39:50 Lilyum - Glorification Of Death (2014)


*Artist: Lilyum
*Album: Glorification Of Death
*Year: 2014
*Genre: Black Metal
*Country: Italy
*Format: mp3@CBR320kbps
*Size: 103MB

Tracklist:
1. Transgressus Absconditus / Through Gateways Unseen 02:59
2. Christ Will Fall 03:23
3. Mater Pestis 04:53
4. Dark Holocaust 04:19
5. Glorification of Death 05:48
6. Veins of Stone 05:10
7. Torchbearer of the Cadaverous Dawn 05:30
8. Extinction 05:42
9. Necrosis 03:27
10. Todessendung 013 03:45
******************************
Total playing time: 44:56



[more=Extended info]FLAC rip[/more]

[more=Technical info]
Input File: Lilyum - Glorification Of Death - 05 Glorification Of Death.mp3
Channels : 2
Sample Rate : 44100
Precision : 16-bit
Duration : 00:05:47.63 = 15330615 samples = 26072.5 CDDA sectors
File Size : 14.0M
Bit Rate : 321k
Sample Encoding: MPEG audio (layer I, II or III)
Comments :
Title=Glorification Of Death
Artist=Lilyum
Album=Glorification Of Death
Tracknumber=5
Year=2014
Genre=Black Metal

[/more]

Register
(15) AlexSmith, atavist, infiltrator, kim666, Olethros, Reverend, Rover, sabr, satanist666, SilentNidhogg, VALERY, varlam4, vasiljev_sergej, Wail, wreak,
Apr 29 2021, 12:53:58 Mantus - Via Dolorosa Ad Mortem [demo] (2019)


*Artist: Mantus
*Album: Via Dolorosa Ad Mortem [demo]
*Year: 2019
*Genre: Black Metal
*Country: Colombia
*Format: mp3@CBR128kbps
*Size: 43MB

Tracklist:
1. Deep Forests of Eternal Sorcery 04:22
2. Paroxismal Gates of Gnostic Chaos 04:18
3. The Seven Keys 04:03
4. The Curse 04:19
5. Lords of Xibalba 04:20
6. Infernal Cycles of the Enslaver Sun 05:40
7. The Negation 04:07
8. Manifest 05:03
9. Infinite Power 04:03
10. Valley of Tears 05:07
******************************
Total playing time: 45:22

Register
(12) Carcharoth, dermarsoran, Ildjarn, infiltrator, kim666, Morra, Olethros, sacrut, satanist666, thenecromancer, varlam4, vasiljev_sergej,
Apr 25 2021, 17:04:52 Melkor - Ferne (2009)


*Artist: Melkor
*Album: Ferne
*Year: 2009
*Genre: Black Metal
*Country: Germany
*Format: mp3@CBR320kbps
*Size: 144MB

Tracklist:
1. Winter 05:53
2. Durch die Schleier 06:23
3. Gebet 04:22
4. Ferne 08:13
5. Lichtung 05:07
6. Morgentau 07:03
7. Keine Karte kennt den Weg (Zwischenspiel) 01:42
8. Narben 05:38
9. Grabmal 04:23
10. Wachtraum 04:22
11. The Sun denies all Sleep 10:18
******************************
Total playing time: 1:03:24



[more=Extended info]FLAC rip[/more]

[more=Technical info]
Input File: Melkor - Ferne - 02 Durch die Schleier.mp3
Channels : 2
Sample Rate : 44100
Precision : 16-bit
Duration : 00:06:23.42 = 16908954 samples = 28756.7 CDDA sectors
File Size : 15.4M
Bit Rate : 321k
Sample Encoding: MPEG audio (layer I, II or III)
Comments :
Title=Durch die Schleier
Artist=B - Melkor
Album=Ferne
Tracknumber=2
Year=2014
Genre=Black Metal

[/more]

Register
(20) AlexSmith, atavist, caro, Ildjarn, infiltrator, kim666, Korpse, Marek, Michaylo, Olethros, Reverend, robertho777, satanist666, Sergey, SilentNidhogg, Svafrlami, varlam4, vasiljev_sergej, Wail, wreak,
Apr 25 2021, 16:36:49 Melkor - Irrlicht (2014)


*Artist: Melkor
*Album: Irrlicht
*Year: 2014
*Genre: Black Metal
*Country: Germany
*Format: mp3@CBR320kbps
*Size: 143MB

Tracklist:
1. Spiegelwand 06:46
2. Die Welle erneuert sich 09:12
3. Irrlicht 11:47
4. Pangaea 08:26
5. In den welkenden Wäldern 06:49
6. Des Berges Schweigen 05:14
7. Opferlamm 04:27
8. The Great Defender 08:07
******************************
Total playing time: 1:00:48



[more=Extended info]FLAC rip[/more]

[more=Technical info]
Input File: Melkor - Irrlicht - 04 Pangaea.mp3
Channels : 2
Sample Rate : 44100
Precision : 16-bit
Duration : 00:08:26.86 = 22352482 samples = 38014.4 CDDA sectors
File Size : 20.4M
Bit Rate : 322k
Sample Encoding: MPEG audio (layer I, II or III)
Comments :
Title=Pangaea
Artist=Melkor
Album=Irrlicht
Tracknumber=4
Year=2014
Genre=Black Metal

[/more]

Register
(22) AlexSmith, atavist, caro, Ildjarn, infiltrator, kim666, Korpse, Marek, Mencae77, Olethros, Reverend, robertho777, satanist666, Sergey, SilentNidhogg, symphonicadiction, VALERY, varlam4, vasiljev_sergej, Veksha, Wail, wreak,
Nov 13 2020, 07:55:44 Wyrm - Wandering Northwards (2005)
Wyrm - Wandering Northwards (2005) 62Mb VBR 220kbps

Register


Register
(5) kim666, Sergey, vasiljev_sergej, Veggr, wreak,
Nov 5 2020, 15:47:58 Yellow Eyes - Sick With Bloom (2015)
Yellow Eyes - Sick with Bloom (2015)

Register
(9) Cramloth, Ignativs, Purestenchkvlt, Rikardo90, sabr, smes, Tidal, wreak, ZloY_GreY,

30 Pages V   1 2 3 > » 
- Lo-Fi Version Support form
Copyrights and abuse reports form
Time is now: 23rd June 2024 - 01:41:21