Welcome Guest ( Log In | Register )

История благодарностей участнику Evgundel ::: Спасибо сказали: 3645 раз(а)
Дата поста: В теме: За сообщение: Спасибо сказали:
May 25 2020, 17:44:44 Eartheater - Spirit Ascend (2019)
newer links (320):
Register
(1) SatanicPanzer,
May 12 2020, 18:36:41 Crawl - I: Serpents [demo] (2015)


*Artist: Crawl
*Album: I: Serpents [demo]
*Year: 2015
*Genre: Old School Death Metal/Crust
*Country: Sweden
*Format: mp3@CBR320kbps
*Size: 24MB

Tracklist:
1. Undead Rites 03:12
2. Casket Ride 04:01
3. Damnation Through Fire 03:10
******************************
Total playing time: 10:24






[more=Extended info]Released on Cassette Tape/Digital by Bloodsoaked Records.

Martin Sjögren - guitar (Discarnate [Swe])
Ämir Batar - drums (Sanity Assassin, Tormention [Swe], ex-Demonical)
Joakim Mikiver - vocals (One Hour Hell, Tormention [Swe], ex-Caliber 666, ex-Prosperity, ex-Vituperation)
Daniel Gustavsson - bass (Sanity Assassin, Tormention [Swe], ex-Demonical)[/more]

[more=Technical info]
Input File: 01 Undead Rites.mp3
Channels : 2
Sample Rate : 44100
Precision : 16-bit
Duration : 00:03:12.59 = 8492999 samples = 14443.9 CDDA sectors
File Size : 7.78M
Bit Rate : 323k
Sample Encoding: MPEG audio (layer I, II or III)
Comments :
Title=Undead Rites
Artist=Crawl
Album=I: Serpents
Tracknumber=1
Year=2015
Genre=Death Metal/Crust

[/more]

Register
(7) andreikun, BERZERK, Boozer, infiltrator, Olethros, stumpheavyrock, zhol,
May 10 2020, 16:41:35 Cerecloth - This Temple Is A Grave [demo] (2016)
320 kbps:
Register
(2) frostdomain, Wail,
May 8 2020, 09:47:12 Tod Huetet Uebel - Nomen Nescio (2020)
320 kbps:
Register

FLAC (tracks):
Register
(1) NOMIDIMON,
Apr 27 2020, 18:50:38 Withered - Memento Mori (2005)
newer links (VBR):
Register
(1) wolverine,
Apr 26 2020, 18:37:29 Withered - Grief Relic (2016)
320 kbps (scene):
Register
(2) infiltrator, wolverine,
Apr 25 2020, 20:54:08 Vermin Womb - Decline (2016)
more links (320):
Register
(1) varg-38ru,
Apr 24 2020, 14:44:06 Primitive Man - Scorn (2013)


*Artist: Primitive Man
*Album: Scorn
*Year: 2013
*Genre: Blackened Sludge/Doom Metal
*Country: United States
*Format: mp3@CBR320kbps
*Size: 124MB

Tracklist:
1. Scorn 11:44
2. Rags 04:36
3. I Can't Forget 03:23
4. Antietam 09:08
5. Black Smoke 03:11
6. Stretched Thin 02:54
7. Astral Sleep 04:50
8. Lifetime (bonus track) 03:43
9. Innard$ (bonus track) 04:14
10. I Am Above You (bonus track) 06:32
******************************
Total playing time: 54:21






[more=Extended info]Deluxe version available in August 2013 on CD/LP/Digital via Relapse Records.

Line-up:
Ethan L. McCarthy - vocals, guitar
Jonathan Campos - bass
Bennett Kennedy - drums
Isidro Soto - drums (tracks 8, 10)[/more]

[more=Technical info]
Input File: 06 - Stretched Thin.mp3
Channels : 2
Sample Rate : 44100
Precision : 16-bit
Duration : 00:02:54.74 = 7706122 samples = 13105.6 CDDA sectors
File Size : 7.01M
Bit Rate : 321k
Sample Encoding: MPEG audio (layer I, II or III)
Comments :
Title=Stretched Thin
Artist=Primitive Man
Album=Scorn (Deluxe Version)
Tracknumber=6/10
Year=2013-08-20
Genre=Metal
Discnumber=1/1

[/more]

Register
(9) Hell_Is_Here, infiltrator, marilin, Olethros, randumbum, VALERY, varlam4, Wolftribes, wtk.412,
Apr 22 2020, 14:28:14 Primitive Man - P//M [demo] (2013)


*Artist: Primitive Man
*Album: P//M [demo]
*Year: 2013
*Genre: Blackened Sludge/Doom Metal/Drone/Noise
*Country: United States
*Format: mp3@CBR320kbps
*Size: 182MB

Tracklist:
1. 4330 07:46
2. Western Eyes (Portishead cover) 03:45
3. Innard$ 04:15
4. Sweet Leaf (Black Sabbath cover) 06:24
5. They Will Not Even See The Faces Of Their Killers Before They Die 09:21
6. The Holes In The Walls Are Like Holes In My Fucking Head 10:40
7. Decline 14:00
8. Suffering Brings Wisdom (Crowbar cover) 06:32
9. Cum 17:12
10. A Song For Denver 04:00
11. Lean 03:20
******************************
Total playing time: 1:27:18


Preview 2


[more=Extended info]Re-released in 2014 on CS tape by Tartarus Records.

Ethan Lee McCarthy - vocals, guitar, noises, soundscapes
Jonathan Campos - bass (tracks 1, 4, 8)
Isidro Soto - drums (tracks 1, 4, 8)[/more]

[more=Technical info]
Input File: 03 - Innard$.mp3
Channels : 2
Sample Rate : 44100
Precision : 16-bit
Duration : 00:04:14.97 = 11244133 samples = 19122.7 CDDA sectors
File Size : 10.2M
Bit Rate : 321k
Sample Encoding: MPEG audio (layer I, II or III)
Comments :
Title=Innard$
Artist=Primitive Man
Album=P//M
Tracknumber=3/11
Year=2014
Genre=Metal/Noise
Discnumber=1/1

[/more]

Register
(5) gena, infiltrator, marilin, Olethros, varlam4,
Apr 20 2020, 14:58:48 Hessian & Primitive Man - The Abyss Stares Back - Vol. II [split] (2014)


*Artist: Hessian & Primitive Man
*Album: The Abyss Stares Back - Vol. II [split]
*Year: 2014
*Genre: Blackened Sludge/Post-Metal | Sludge/Doom Metal
*Country: Belgium | United States
*Format: mp3@CBR256kbps
*Size: 78MB

Tracklist:
Hessian
1. Inward Dawn 11:11
Primitive Man
2. Unable 09:33
******************************
Total playing time: 20:45







[more=Extended info]Available on LP/Digital through Hypertension Records.

Hessian line-up:
Levy Seynaeve - guitars, backing vocals
Bram Coussement - vocals
Gilles Demolder - bass
Tim Bryon - drums

Primitive Man line-up:
Ethan L. McCarthy - guitar, vocals
Jonathan Campos - bass
Spy Soto - drums[/more]

[more=Technical info]
Input File: 02 Primitive Man - Unable.mp3
Channels : 2
Sample Rate : 44100
Precision : 16-bit
Duration : 00:09:33.13 = 25274857 samples = 42984.5 CDDA sectors
File Size : 32.6M
Bit Rate : 455k
Sample Encoding: MPEG audio (layer I, II or III)
Comments :
Title=Unable
Artist=Primitive Man
Album=The Abyss Stares Back - Vol. II
Tracknumber=2/2
Year=2014

[/more]

Register
(8) Hell_Is_Here, infiltrator, Lanceatum, marilin, randumbum, Tyrone, varlam4, Например,
Apr 18 2020, 15:32:00 Primitive Man & Fister - Primitive Man/Fister [split] (2014)


*Artist: Primitive Man & Fister
*Album: Primitive Man/Fister [split]
*Year: 2014
*Genre: Sludge/Doom Metal | Blackened Sludge/Doom Metal
*Country: United States | United States
*Format: mp3@CBR320kbps
*Size: 77MB

Tracklist:
Primitive Man
1. Lifetime 03:43
2. 4330 07:46
3. I Am Above You 06:32
Fister
4. Life Is Short Life Is Shit And Soon It Will Be Over 06:23
5. Flail 09:09
******************************
Total playing time: 33:35






[more=Extended info]Released on LP/Digital via A389 Recordings.

Primitive Man line-up:
Ethan L. McCarthy - guitar, vocals
Jonathan Campos - bass
Spy Soto - drums

Fister line-up:
Kenny Snarzyk - bass, vocals
Marcus Newstead - guitar, vocals
Kirk Gatterer - drums[/more]

[more=Technical info]
Input File: 03 Primitive Man - I Am Above You.mp3
Channels : 2
Sample Rate : 44100
Precision : 16-bit
Duration : 00:06:32.12 = 17292448 samples = 29408.9 CDDA sectors
File Size : 15.8M
Bit Rate : 321k
Sample Encoding: MPEG audio (layer I, II or III)
Comments :
Title=I Am Above You
Artist=Primitive Man
Album=Primitive Man / Fister
Tracknumber=3/5
Year=2014
Genre=Metal
Discnumber=1/1

[/more]

Register
(9) Boozer, Hell_Is_Here, infiltrator, marilin, randumbum, stumpheavyrock, VALERY, varlam4, wtk.412,
Apr 16 2020, 10:48:18 Primitive Man & Hell - Primitive Man/Hell [split] (2019)


*Artist: Primitive Man & Hell
*Album: Primitive Man/Hell [split]
*Year: 2019
*Genre: Blackened Sludge/Doom Metal | Sludge/Doom Metal
*Country: United States | United States
*Format: mp3@CBR320kbps
*Size: 53MB

Tracklist:
Primitive Man
1. Oily Tears 06:26
2. Pitiful & Loathsome 06:03
Hell
3. Nuumen 09:55
******************************
Total playing time: 22:25







[more=Extended info]Released on vinyl and digitally via Translation Loss Records.

Primitive Man line-up:
Ethan - vocals, guitar
Jon - bass
Joe - drums

Hell line-up:
M.S.W. - everything[/more]

[more=Technical info]
Input File: 02 Primitive Man - Pitiful & Loathsome.mp3
Channels : 2
Sample Rate : 44100
Precision : 16-bit
Duration : 00:00:00.36 = 16008 samples = 27.2245 CDDA sectors
File Size : 15.1M
Bit Rate : 332M
Sample Encoding: MPEG audio (layer I, II or III)
Comments :
Title=Pitiful & Loathsome
Artist=Primitive Man
Album=Primitive Man / Hell
Tracknumber=2/3
Year=2019-19-20
Genre=Metal
Discnumber=1/1

[/more]

Register
(13) ahp, Boozer, gena, Hell_Is_Here, infiltrator, Lanceatum, marilin, Occultas, randumbum, stub888, Tyrone, VALERY, varlam4,
Apr 13 2020, 15:30:49 Subtype Zero - The Astral Awakening (2018)
FLAC (tracks):
Register
(1) samokot,
Apr 5 2020, 11:54:38 Homewrecker - Portrait Of Nothing [ep] (2009)


*Artist: Homewrecker
*Album: Portrait Of Nothing [ep]
*Year: 2009
*Genre: Hardcore/Crust/Powerviolence
*Country: United States
*Format: mp3@CBR256kbps
*Size: 23MB

Tracklist:
1. Intro 01:07
2. Where You Stand 01:31
3. It Repeats 01:34
4. Forget 00:54
5. Bottom Of A Well 01:11
6. Grave Digger 02:00
7. Brain Biter 01:24
8. Portrait Of Nothing 01:23
9. Black Mud 01:51
******************************
Total playing time: 13:01






[more=Extended info]Released by Defiant Hearts Records (7"EP/Digital), and S.B.S. Records (CD).[/more]

[more=Technical info]
Input File: 02. Where You Stand.mp3
Channels : 2
Sample Rate : 44100
Precision : 16-bit
Duration : 00:01:31.85 = 4050409 samples = 6888.45 CDDA sectors
File Size : 2.94M
Bit Rate : 256k
Sample Encoding: MPEG audio (layer I, II or III)
Comments :
Title=Where You Stand
Artist=Homewrecker
Album=Portrait of Nothing
Tracknumber=2
Year=2009
Genre=Hardcore

[/more]

Register
(2) infiltrator, Olethros,
Apr 1 2020, 14:22:26 Homewrecker - Worms & Dirt (2012)
newer links (320):
Register
(1) wendigo,
Mar 30 2020, 17:05:21 Homewrecker - Circle Of Death (2014)
newer links (320):
Register
(1) boby9052,
Mar 27 2020, 13:12:51 Homewrecker - Hell Is Here Now (2018)


*Artist: Homewrecker
*Album: Hell Is Here Now
*Year: 2018
*Genre: Death/Thrash Metal/Crust
*Country: United States
*Format: mp3@CBR320kbps
*Size: 79MB

Tracklist:
1. Burden Of Self 01:56
2. One With Torment 03:14
3. Bound By Validation 02:01
4. Fade To Oblivion 03:06
5. Constant Eyes 03:01
6. Buried In Suffering 02:51
7. Land Of The Damned 03:12
8. Rope Of Skin 03:28
9. Growing From Nothing 02:02
10. Demons In Disguise 02:21
11. Final Rest 02:35
12. Perpetrators 04:19
******************************
Total playing time: 34:11





[more=Extended info]Line-up is:
Matt Barnum - guitar, vocals
Matt Izzi - drums, vocals
Ezra Cook - bass
Carson Ward - guitar

Additional vocals by Anthony Didio
Samples created by Shade[/more]

[more=Technical info]
Input File: 05 Constant Eyes.mp3
Channels : 2
Sample Rate : 44100
Precision : 16-bit
Duration : 00:03:01.28 = 7994272 samples = 13595.7 CDDA sectors
File Size : 7.65M
Bit Rate : 338k
Sample Encoding: MPEG audio (layer I, II or III)
Comments :
Title=Constant Eyes
Artist=Homewrecker
Album=Hell is Here Now
Tracknumber=5/12
Year=2018
Genre=Metal
Discnumber=1/1

[/more]

Register
(14) atavist, boby9052, Corpuscul, Goatlord666, infiltrator, jollo, METALHUNTER, morbidangelo, Olethros, Ostinato, stumpheavyrock, Vladimir, wgs73, wreak,
Mar 26 2020, 14:23:24 Homewrecker - Create Sin [single] (2019)


*Artist: Homewrecker
*Album: Create Sin [single]
*Year: 2019
*Genre: Death/Thrash Metal/Crust
*Country: United States
*Format: mp3@CBR320kbps
*Size: 12MB

Tracklist:
1. Create Sin 03:38
2. Broken Beliefs 01:59
******************************
Total playing time: 5:38





[more=Extended info]Line-up:
Matt Barnum - guitar, vocals
Matt Izzi - drums, vocals
Carson Ward - guitar
Ezra Cook - bass[/more]

[more=Technical info]
Input File: 02-homewrecker-broken_beliefs.mp3
Channels : 2
Sample Rate : 44100
Precision : 16-bit
Duration : 00:01:59.48 = 5268892 samples = 8960.7 CDDA sectors
File Size : 4.92M
Bit Rate : 330k
Sample Encoding: MPEG audio (layer I, II or III)
Comments :
Title=Broken Beliefs
Artist=Homewrecker
Album=Create Sin
Tracknumber=2/2
Year=2019
Genre=Hardcore

[/more]

Register
(5) boby9052, infiltrator, Olethros, Unkle Jonny, wreak,
Mar 14 2020, 11:44:15 Gatecreeper & Homewrecker & Outer Heaven & Scorched - Gatecreeper/Homewrecker/Outer Heaven/Scorched [split] (2016)


*Artist: Gatecreeper & Homewrecker & Outer Heaven & Scorched
*Album: Gatecreeper/Homewrecker/Outer Heaven/Scorched [split]
*Year: 2016
*Genre: Death Metal | Death/Thrash Metal/Crust | Death/Doom Metal | Death Metal
*Country: United States | United States | United States | United States
*Format: mp3@CBR320kbps
*Size: 53MB

Tracklist:
Gatecreeper
1. Carved Into Stone 05:33
Homewrecker
2. Perpetrators Of Annihilation 06:31
Outer Heaven
3. Death Worship 04:48
Scorched
4. Autopsy Incomplete 05:46
******************************
Total playing time: 22:40







[more=Extended info]Released by Melotov Records, Unspeakable Axe Records, and Escapist Records.[/more]

[more=Technical info]
Input File: 01 Gatecreeper - Carved Into Stone.mp3
Channels : 2
Sample Rate : 44100
Precision : 16-bit
Duration : 00:05:33.08 = 14688784 samples = 24980.9 CDDA sectors
File Size : 13.5M
Bit Rate : 324k
Sample Encoding: MPEG audio (layer I, II or III)
Comments :
Title=Carved Into Stone
Artist=Gatecreeper
Album=Gatecreeper / Homewrecker / Outer Heaven / Scorched - Split
Tracknumber=1
Year=2016
Genre=Death Metal

[/more]

Register
(7) AHBAnep, Boozer, infiltrator, Ostinato, VALERY, varlam4, wreak,
Mar 13 2020, 12:12:34 Outer Heaven - Diabolus Vobiscum [ep] (2015)
320 kbps:
Register

FLAC (tracks):
Register
(3) infiltrator, Sanctus, varlam4,
Mar 12 2020, 11:56:45 Outer Heaven - Demo 2013 [demo] (2013)
newer links (320):
Register
(1) varlam4,
Mar 8 2020, 15:38:54 Lord By Fire - Relics [ep] (2010)
newer links (320 kbps):
Register
(1) stumpheavyrock,
Mar 6 2020, 13:29:32 Saturno Grooves - Cosmic Echoes (2020)
FLAC (tracks):
Register
(2) infiltrator, Olethros,
Mar 5 2020, 12:23:20 Saturno Grooves - Cosmic Echoes (2020)


*Artist: Saturno Grooves
*Album: Cosmic Echoes
*Year: 2020
*Genre: Instrumental Psychedelic/Stoner Rock
*Country: Mexico
*Format: mp3@CBR320kbps
*Size: 76MB

Tracklist:
1. Fire Dome 05:04
2. Forever Zero 07:15
3. Cosmic Echoes 08:10
4. Celestial Tunnel 07:25
5. Blind Faith 01:45
6. Dark Matter 02:07
******************************
Total playing time: 31:49






[more=Extended info]Line-up:
Adolfo Solís - drums, vocals and acoustic guitar in "Blind Faith" (ex-Gurú)
José Peyro - guitars, vocals (Sementales Salvajes)
Oscar Cisneros - bass (SonsOfHomie)[/more]

[more=Technical info]
Input File: 02 Forever Zero.mp3
Channels : 2
Sample Rate : 44100
Precision : 16-bit
Duration : 00:07:15.80 = 19218692 samples = 32684.9 CDDA sectors
File Size : 17.6M
Bit Rate : 323k
Sample Encoding: MPEG audio (layer I, II or III)
Comments :
Title=Forever Zero
Artist=Saturno Grooves
Album=Cosmic Echoes
Tracknumber=2
Year=2020
Genre=Stoner Rock

[/more]

Register
(3) infiltrator, marilin, Olethros,
Mar 3 2020, 14:23:08 Saturno Grooves - Solar Hawk (2018)


*Artist: Saturno Grooves
*Album: Solar Hawk
*Year: 2018
*Genre: Instrumental Psychedelic/Stoner Rock
*Country: Mexico
*Format: mp3@CBR320kbps
*Size: 82MB

Tracklist:
1. Beaumont 03:24
2. Seven Hills 04:20
3. Cherna Bong 06:00
4. Solar Hawk 06:22
5. White Sand 07:42
6. Red Sun Arising 06:56
******************************
Total playing time: 34:46






[more=Extended info]Released through L.S.D.R. Records and South American Sludge Records.

Line-up:
Adolfo Solís - drums (ex-Gurú)
José Peyro - guitars (Sementales Salvajes)
Oscar Cisneros - bass (SonsOfHomie)[/more]

[more=Technical info]
Input File: 02 Seven Hills.mp3
Channels : 2
Sample Rate : 44100
Precision : 16-bit
Duration : 00:04:20.38 = 11482582 samples = 19528.2 CDDA sectors
File Size : 10.5M
Bit Rate : 323k
Sample Encoding: MPEG audio (layer I, II or III)
Comments :
Title=Seven Hills
Artist=Saturno Grooves
Album=Solar Hawk
Tracknumber=2
Year=2018
Genre=Instrumental Rock

[/more]

Register
(3) infiltrator, marilin, Olethros,

43 Pages V   1 2 3 > » 
- Lo-Fi Version Support form
Copyrights and abuse reports form
Time is now: 29th May 2020 - 14:28:24