Welcome Guest ( Log In | Register )

История благодарностей участнику Evgundel ::: Спасибо сказали: 4407 раз(а)
Дата поста: В теме: За сообщение: Спасибо сказали:
Apr 21 2021, 09:58:24 Aspirate Coma - Serene Transcendence Through Corporal Disfigurement [demo] (2020)


*Artist: Aspirate Coma
*Album: Serene Transcendence Through Corporal Disfigurement [demo]
*Year: 2020
*Genre: Goregrind/Death Metal
*Country: International
*Format: mp3@CBR320kbps
*Size: 27MB

Tracklist:
1. Malignant Consumption 00:56
2. Funereal Indignity 00:48
3. Coagulating Expellent 01:00
4. Phagocytic Purulator 00:41
5. Precursory Amputation 00:52
6. Aspirate Coma 01:06
7. Decomposing Lividity 00:45
8. Griseal Inquest 01:23
9. Hyperacute Immunology 01:24
10. Transcendisfigurement 00:39
******************************
Total playing time: 9:35




[more=Extended info]Japan/USA deathgrind duo.
Self-released on CDr/Digital.

Brennan - drums
Harlan - guitar, bass, vocals

Guest vocals on track 6 by Sean McGrath and Leon del Muerte.[/more]

[more=Technical info]
Input File: 01 Malignant Consumption.mp3
Channels : 2
Sample Rate : 44100
Precision : 16-bit
Duration : 00:00:56.01 = 2469997 samples = 4200.68 CDDA sectors
File Size : 2.45M
Bit Rate : 349k
Sample Encoding: MPEG audio (layer I, II or III)
Comments :
Title=Malignant Consumption
Artist=Aspirate Coma
Album=Serene Transcendence through Corporal Disfigurement
Tracknumber=1
Year=2020
Genre=Deathgrind

[/more]

Register
(2) infiltrator, varlam4,
Apr 15 2021, 18:37:49 Terror Of The Trees - Devil Worship [ep] (2002)
320 kbps:
Register
(3) stumpheavyrock, wendigo, wgs73,
Apr 11 2021, 21:14:47 Burial - Divinity Through Eradication (2009)
Re-recorded version 2019 (with the new line-up and a new bonus song)!

320 kbps:
Register

FLAC (tracks):
Register
(1) wanderer73,
Mar 30 2021, 12:24:51 Asterion - Gateways To Nihility [ep] (2020)


*Artist: Asterion
*Album: Gateways To Nihility [ep]
*Year: 2020
*Genre: Technical Deathcore
*Country: United States
*Format: mp3@CBR320kbps
*Size: 61MB

Tracklist:
1. Nihlathak Descends (intro) 00:59
2. Invoking Necromancy 02:50
3. Nourishing The Upper Echelons 03:09
4. Succumbing To The Cold Grasp Of Death 03:05
5. Towards The Monarch 03:13
6. As They Lay Gutted 02:56
7. Damned By The Congregation 03:52
8. The Flame Grows Dismal (instrumental) 03:17
9. Gateways To Nihility 03:16
******************************
Total playing time: 26:42





[more=Technical info]
Input File: 03 - Nourishing the Upper Echelons.mp3
Channels : 2
Sample Rate : 44100
Precision : 16-bit
Duration : 00:03:09.51 = 8357171 samples = 14212.9 CDDA sectors
File Size : 7.65M
Bit Rate : 323k
Sample Encoding: MPEG audio (layer I, II or III)
Comments :
Title=Nourishing the Upper Echelons
Artist=Asterion
Album=Gateways to Nihility
Tracknumber=03
Year=2020
Genre=Metal
Discnumber=1

[/more]

Register
(7) chipsgott, infiltrator, Lukittaz, Marek, Olethros, Taakeferd, varlam4,
Mar 29 2021, 10:20:33 Asterion - Inhabit (2015)
newer links (320):
Register
(1) kimkayoung,
Mar 27 2021, 18:37:53 Asterion - Constellations [ep] (2014)
newer links (320):
Register
(1) kimkayoung,
Mar 25 2021, 13:03:21 Barrowlands - Tyndir (2017)
newer links (320):
Register
(2) kimkayoung, MortSathynr,
Mar 23 2021, 15:01:00 Barrowlands - Demo 2012 [demo] (2012)
newer links (320):
Register
(2) kimkayoung, thenecromancer,
Mar 21 2021, 08:49:36 Mary Shelley - Crimson Shadows [compilation] (2012)


*Artist: Mary Shelley
*Album: Crimson Shadows [compilation]
*Year: 2012
*Genre: Atmospheric Black Metal
*Country: United States
*Format: mp3@CBR320kbps
*Size: 114MB

Tracklist:
1. The World Will End In Fire 13:09
2. In The Shadow Of The Mountain 09:21
3. Crimson Dream 07:12
4. Corporeal Requisition 06:31
5. Battered Ships On Open Seas 04:03
6. Palace Of Toil 04:15
7. Beneath 03:58
******************************
Total playing time: 48:33





[more=Extended info]Cascadian Black Metal from Portland, Oregon.
This is compilation of both of their demos.
Released on CS/Digital via Tridroid Records.

Line-up:
David Hollingsworth - vocals, guitar
Dave Lorenz - drums
Chris Beug - vocals, guitar
Joe DePaul - bass
Ray Lorenz - cello[/more]

[more=Technical info]
Input File: 03 Crimson Dream.mp3
Channels : 2
Sample Rate : 44100
Precision : 16-bit
Duration : 00:07:12.17 = 19058565 samples = 32412.5 CDDA sectors
File Size : 17.3M
Bit Rate : 321k
Sample Encoding: MPEG audio (layer I, II or III)
Comments :
Title=Crimson Dream
Artist=Mary Shelley
Album=Crimson Shadows
Tracknumber=3
Year=2012
Genre=Black Metal

[/more]

Register
(14) aleon, ctulhudagon, infiltrator, kim666, metala, murayne, Olethros, randumbum, robertho777, SilentNidhogg, Taakeferd, VALERY, varlam4, vasiljev_sergej,
Mar 18 2021, 10:10:44 Jucifer - District Of Dystopia (2014)
newer links (320):
Register
(2) JantoHadez, stumpheavyrock,
Mar 16 2021, 12:22:10 Inverted Crosses - Inverted Crosses II (2018)


*Artist: Inverted Crosses
*Album: Inverted Crosses II
*Year: 2018
*Genre: Pop/Hard Rock
*Country: United States
*Format: mp3@CBR320kbps
*Size: 73MB

Tracklist:
1. Inverted Crosses 02:43
2. Paid 4 Potions 03:02
3. Satan's School Of Sin 02:34
4. Male Carrier 02:29
5. The Reaper Is A Creeper 04:33
6. Tentacle Pentacle 02:51
7. Gift Goat 03:25
8. Meat Muertita 03:08
9. Sweet Sweet Song Of The Sasquatch 04:09
10. He Fell 4 U 02:59
******************************
Total playing time: 31:56





[more=Extended info]Second album of Uta Plotkin's Satanic pop rock band.

Line-up:
Uta - guitar, lead vocals
Chuck - bass, vocals
Danny - drums, vocals[/more]

[more=Technical info]
Input File: 02 Paid 4 Potions.mp3
Channels : 2
Sample Rate : 44100
Precision : 16-bit
Duration : 00:03:02.66 = 8055218 samples = 13699.4 CDDA sectors
File Size : 7.38M
Bit Rate : 323k
Sample Encoding: MPEG audio (layer I, II or III)
Comments :
Title=Paid 4 Potions
Artist=Inverted Crosses
Album=Inverted Crosses II
Tracknumber=2
Year=2018
Genre=Rock

[/more]

Register
(2) infiltrator, Olethros,
Mar 15 2021, 11:03:24 Inverted Crosses - Inverted Crosses (2017)


*Artist: Inverted Crosses
*Album: Inverted Crosses
*Year: 2017
*Genre: Pop/Hard Rock
*Country: United States
*Format: mp3@CBR320kbps
*Size: 44MB

Tracklist:
1. Bad Habit 02:04
2. Devil's Dirty Chicken Shack 02:19
3. Expose Yourself To Love 02:40
4. Hot Garbage 02:53
5. Cut Him Some Slacks 02:37
6. Knife 2 Ur Balls 03:39
7. Inverted Crosses 02:52
******************************
Total playing time: 19:06





[more=Extended info]Line-up:
Uta - guitar, lead vocals
Chuck - bass, vocals
Danny - drums, vocals[/more]

[more=Technical info]
Input File: 03 Expose Yourself To Love.mp3
Channels : 2
Sample Rate : 44100
Precision : 16-bit
Duration : 00:02:40.01 = 7056353 samples = 12000.6 CDDA sectors
File Size : 6.47M
Bit Rate : 323k
Sample Encoding: MPEG audio (layer I, II or III)
Comments :
Title=Expose Yourself To Love
Artist=Inverted Crosses
Album=Inverted Crosses
Tracknumber=3
Year=2017
Genre=Rock

[/more]

Register
(1) infiltrator,
Mar 7 2021, 10:26:36 Warfather - The Grey Eminence (2016)
newer links (320):
Register
(2) dermarsoran, K-61082,
Mar 5 2021, 10:37:25 Erebus - On The Edge Of Perdition (2011)
FLAC (tracks):
Register

P.S. по стилю тут все еще дэт, но уже с явным уклоном в грув-метал.
(1) Masteruk,
Mar 3 2021, 08:07:57 The Embodiment - Legeon (2006)


*Artist: The Embodiment
*Album: Legeon
*Year: 2006
*Genre: Death/Thrash Metal
*Country: Netherlands
*Format: mp3@CBR320kbps
*Size: 73MB

Tracklist:
1. Second Eleven 03:37
2. The Embodiment 03:09
3. Legeon 06:13
4. Blood Ritual 03:15
5. Dragonhunt 04:16
6. Y2K 03:41
7. I'm Despair 04:12
8. Careless 03:19
******************************
Total playing time: 31:47





[more=Extended info]Self-released on CD/Digital.

Line-up:
Peter Hagen - guitar, vocals (Abrupt Demise, ex-Enraged [Nld])
Erik-Jan Brinker - guitar, backing vocals (ex-KhaoZ)
Martijn van Gene - drums (Dead Man's Walk, Mytox)
Danny van Helden - bass[/more]

[more=Technical info]
Input File: 01 Second Eleven.mp3
Channels : 2
Sample Rate : 44100
Precision : 16-bit
Duration : 00:03:37.27 = 9581695 samples = 16295.4 CDDA sectors
File Size : 8.81M
Bit Rate : 324k
Sample Encoding: MPEG audio (layer I, II or III)
Comments :
Title=Second Eleven
Artist=The Embodiment
Album=Legeon
Tracknumber=1
Year=2006
Genre=Thrash/Death Metal

[/more]

Register
(9) atavist, boby9052, infiltrator, jollo, Olethros, stumpheavyrock, Taakeferd, varlam4, wreak,
Mar 2 2021, 12:36:47 Prostitute Disfigurement - Embalmed Madness (2001)
2004 re-release
320 kbps (+ scans):
Register

2010 re-release
320 kbps (+ scans):
Register

FLAC image (+ scans):
Register
(1) Occultas,
Feb 27 2021, 14:57:34 Prostitute Disfigurement - Descendants Of Depravity (2008)
320 kbps (+ scans):
Register

FLAC image (+ scans):
Register
(1) wreak,
Feb 26 2021, 13:49:44 Prostitute Disfigurement - From Crotch To Crown (2014)
320 kbps:
Register

FLAC (tracks):
Register
(1) vict67,
Feb 23 2021, 19:01:41 Omnious - Mechanics Of The Unseen [ep] (2018)
newer links (320):
Register
(3) kimkayoung, RotAnus, wanderer73,
Feb 15 2021, 19:02:52 Wake & Theories - Wake/Theories [split] (2014)


*Artist: Wake & Theories
*Album: Wake/Theories [split]
*Year: 2014
*Genre: Grindcore/Crust | Death Metal/Grindcore
*Country: Canada | United States
*Format: mp3@VBR274kbps
*Size: 22MB

Tracklist:
Wake:
1. Lowlife 02:55
2. Static 01:22
3. Surrender (His Hero Is Gone cover) 01:15
Theories:
4. Six Spent Shells 02:37
5. Nine To Five 00:21
6. Headless/Heartless (His Hero Is Gone cover) 02:25
******************************
Total playing time: 10:57






[more=Extended info]Released on 7"EP/Digital by 7Degrees Records and Handshake Inc.[/more]

[more=Technical info]
Input File: 02-Wake - Static.mp3
Channels : 2
Sample Rate : 44100
Precision : 16-bit
Duration : 00:01:22.39 = 3633399 samples = 6179.25 CDDA sectors
File Size : 2.96M
Bit Rate : 287k
Sample Encoding: MPEG audio (layer I, II or III)
Comments :
Title=Static
Artist=Wake
Album=Wake / Theories
Tracknumber=2
Year=2014
Genre=Grindcore

[/more]

Register
(7) IncendiaryMight, infiltrator, Lanceatum, Taakeferd, varlam4, wreak, yuratroll,
Feb 13 2021, 19:15:26 Wake - Leeches (2011)


*Artist: Wake
*Album: Leeches
*Year: 2011
*Genre: Grindcore/Crust
*Country: Canada
*Format: mp3@CBR320kbps
*Size: 61MB

Tracklist:
1. Vice 02:37
2. Cult Of War 01:50
3. Vermin 01:13
4. Sloth 01:16
5. The Lies That Bind 01:22
6. Dire 02:43
7. Leeches 02:57
8. Plague Of The Roach 01:01
9. Vigil 01:26
10. Predatory Greed 01:20
11. The Means To The End 01:28
12. Recycle The Sickness 02:18
13. Malefaction 02:00
14. The Aversion Code 02:49
******************************
Total playing time: 26:25





[more=Extended info]Released by Hearing Aids Records and 7Degrees Records.

Sergey Jmourovski - guitar
Jacob Ryan - bass
Tyler Dergousoff - drums
Rob LaChance - guitar
Shane Hawco - vocals

Guitar solo in 'Malefaction' and bass in 'Recycle the Sickness' by Jim Hudson.[/more]

[more=Technical info]
Input File: 05 The Lies That Bind.mp3
Channels : 2
Sample Rate : 44100
Precision : 16-bit
Duration : 00:01:22.26 = 3627842 samples = 6169.8 CDDA sectors
File Size : 3.35M
Bit Rate : 326k
Sample Encoding: MPEG audio (layer I, II or III)
Comments :
Title=The Lies That Bind
Artist=Wake
Album=Leeches
Tracknumber=5/14
Year=2011
Genre=Grindcore
Discnumber=1/1

[/more]

Register
(9) atavist, cesar, infiltrator, Olethros, spazm, varlam4, wgs73, wreak, yuratroll,
Feb 12 2021, 06:53:29 Wake - Surrounded By Human Filth [ep] (2010)


*Artist: Wake
*Album: Surrounded By Human Filth [ep]
*Year: 2010
*Genre: Grindcore/Crust
*Country: Canada
*Format: mp3@CBR320kbps
*Size: 25MB

Tracklist:
1. Emerge (intro) 02:25
2. Defiler 01:44
3. Genderape 00:56
4. Virulent 01:38
5. Cannibal Design 04:30
******************************
Total playing time: 11:14




[more=Extended info]Released on 7"EP/Digital by Hearing Aids Records.

Shayne Baker - vocals
Rob Strawberry - guitar
Sergey Jmourovski - bass, guitar
Tyler Dergousoff - drums[/more]

[more=Technical info]
Input File: 02 Defiler.mp3
Channels : 2
Sample Rate : 48000
Precision : 16-bit
Duration : 00:01:44.06 = 4995072 samples ~ 7804.8 CDDA sectors
File Size : 5.93M
Bit Rate : 456k
Sample Encoding: MPEG audio (layer I, II or III)
Comments :
Title=Defiler
Artist=Wake
Album=Surrounded By Human Filth 7"
Tracknumber=2/5
Year=2010
Genre=Grindcore
Discnumber=1/1

[/more]

Register
(8) infiltrator, Olethros, Tyrone, varlam4, wgs73, wreak, yuratroll, Zhelezjaka,
Feb 9 2021, 19:31:25 Dark Circles - MMXIV (2014)


*Artist: Dark Circles
*Album: MMXIV
*Year: 2014
*Genre: Blackened Crust/Dark Hardcore
*Country: Canada
*Format: mp3@CBR320kbps
*Size: 59MB

Tracklist:
1. Sun Setter 02:42
2. Collapse 03:26
3. Remission 01:57
4. Darkness Perveyor 02:15
5. Interlude (Suffocate) Op.28 No.4 03:46
6. Downcast 01:37
7. Distress 02:24
8. Despair 01:29
9. The Coldest Year / Le Drapeau Noir 06:07
******************************
Total playing time: 25:46







[more=Extended info]Released by: Désordre Ordonné, Doomsday Machine Records, Moment Of Collapse Records, Grains Of Sand Records, 1859 Records, Replenish Records.

Line-up:
Jamie Thomas - guitar, vocals
Frank Lemieux - guitar
Chris Goldsmith - bass, vocals
Marc Tremblay - drums[/more]

[more=Technical info]
Input File: 03 Remission.mp3
Channels : 2
Sample Rate : 44100
Precision : 16-bit
Duration : 00:01:57.95 = 5201551 samples = 8846.18 CDDA sectors
File Size : 4.76M
Bit Rate : 323k
Sample Encoding: MPEG audio (layer I, II or III)
Comments :
Title=Remission
Artist=Dark Circles
Album=MMXIV
Tracknumber=3
Year=2014
Genre=Dark Hardcore/D-Beat

[/more]

Register
(3) infiltrator, Olethros, sludge666,
Feb 2 2021, 12:40:10 Martyred - Exemplifying Their Defeat [ep] (2007)


*Artist: Martyred
*Album: Exemplifying Their Defeat [ep]
*Year: 2007
*Genre: Blackened Death Metal
*Country: United States
*Format: mp3@CBR256kbps
*Size: 25MB

Tracklist:
1. Engineered Lethality 04:22
2. Exemplifying Their Defeat 03:31
3. Anguish Of The Unborn 03:13
4. Unethical Cleansing 02:58
******************************
Total playing time: 14:06




[more=Extended info]Line-up:
Krieg Penny - vocals (ex-Scattered Remains, ex-Slaughter Bought)
Mike DeBord - guitars, vocals
Nathan Fenoglio - bass (Rhome, Wrought Of Obsidian, ex-Hyperion [US, TX])
Eric Park - drums (A Devil's Daydream, Intestinal Fortitude, Rhome, Wrought Of Obsidian, ex-Devourment [US], ex-Exitium [US, OK], ex-Hyperion [US, TX], ex-Scarline, ex-Suture [US, LA])[/more]

[more=Technical info]
Input File: 03-Anguish of the Unborn.mp3
Channels : 2
Sample Rate : 44100
Precision : 16-bit
Duration : 00:03:13.60 = 8537760 samples = 14520 CDDA sectors
File Size : 6.77M
Bit Rate : 280k
Sample Encoding: MPEG audio (layer I, II or III)
Comments :
Title=Anguish of the Unborn
Artist=Martyred
Album=Exemplifying Their Defeat
Tracknumber=3
Year=2007
Genre=Death Metal

[/more]

Register
(13) caro, infiltrator, lldma, Marek, Olethros, randumbum, Rosen, SilentNidhogg, Taakeferd, VALERY, varlam4, vyacheslav, wreak,
Jan 28 2021, 12:30:11 Molasses Barge - Covered In Molasses (2017)


*Artist: Molasses Barge
*Album: Covered In Molasses
*Year: 2017
*Genre: Doom/Stoner Metal/Hard Rock
*Country: United States
*Format: mp3@CBR320kbps
*Size: 76MB

Tracklist:
1. Shylock (Buffalo cover) 06:24
2. Hiding Mask (The Obsessed cover) 03:37
3. Country Girl (Black Sabbath cover) 04:24
4. Love Child (Deep Purple cover) 03:00
5. Not Fragile (Bachman-Turner Overdrive cover) 04:27
6. Evil Hearted You (The Yardbirds cover) 02:45
7. Sinister Purpose (Creedence Clearwater Revival cover) 03:47
8. Built For Speed (Motörhead cover) 04:55
******************************
Total playing time: 33:21






[more=Extended info]Released by Blackseed Records.

Line-up:
Brian "Butch" Balich - vocals
Amy Bianco - bass
Dave Fresch - guitar
Justin Gizzi - guitar
Wayne Massey - drums

Harmony vocals on "Country Girl" by Gero von Dehn. Solo on "Love Child" by Amy Bianco. Additional vocals on "Evil Hearted You" by Justin Gizzi.[/more]

[more=Technical info]
Input File: 02. Hiding Mask (The Obsessed cover).mp3
Channels : 2
Sample Rate : 44100
Precision : 16-bit
Duration : 00:03:37.43 = 9588619 samples = 16307.2 CDDA sectors
File Size : 8.81M
Bit Rate : 324k
Sample Encoding: MPEG audio (layer I, II or III)
Comments :
Title=Hiding Mask (The Obsessed cover)
Artist=Molasses Barge
Album=Covered in Molasses
Tracknumber=2
Year=2017
Genre=Stoner Doom Metal

[/more]

Register
(6) infiltrator, Olethros, Rosen, VALERY, varlam4, wreak,

48 Pages V   1 2 3 > » 
- Lo-Fi Version Support form
Copyrights and abuse reports form
Time is now: 13th May 2021 - 10:28:07