Welcome Guest ( Log In | Register )

История благодарностей участнику Evgundel ::: Спасибо сказали: 5190 раз(а)
Дата поста: В теме: За сообщение: Спасибо сказали:
May 26 2022, 12:03:27 Urðun - Horror & Gore [demo] (2015)
newer links (320):
Register
(1) Carcharoth,
May 22 2022, 08:20:44 Deiquisitor - Downfall Of The Apostates (2018)
newer links (320):
Register
(2) Doooomed, Occultas,
May 19 2022, 13:32:50 Castrensis - Mechanical Apartheid [single] (2017)


*Artist: Castrensis
*Album: Mechanical Apartheid [single]
*Year: 2017
*Genre: Technical Brutal Death Metal
*Country: Denmark
*Format: mp3@CBR320kbps
*Size: 12MB

Tracklist:
1. Mechanical Apartheid 03:07
******************************
Total playing time: 3:07






[more=Extended info]Line-up:
Danni Rask - vocals
Julian May - drums (ex-Bloodrush [Dnk], ex-Cyanid [Dnk], ex-Managarm [Dnk])
Jesper Nielsen - bass (Mareridtskvad, Rotten Ocean)
Simon Larsen - guitar
Lasse Lund - guitar (I Exile, Lund [Dnk], Opposite Extremities, Rotten Ocean, ex-Apatheon, ex-Detest [Dnk], ex-Kolera [Dnk], ex-Spectral Mortuary, ex-Defilementory (live), ex-Fjorsvartnir (live), ex-Rotting Hope (live), ex-The Vision Ablaze (live))[/more]

[more=Technical info]
Input File: 01 Mechanical Apartheid.mp3
Channels : 2
Sample Rate : 44100
Precision : 16-bit
Duration : 00:03:07.18 = 8254506 samples = 14038.3 CDDA sectors
File Size : 7.61M
Bit Rate : 325k
Sample Encoding: MPEG audio (layer I, II or III)
Comments :
Title=Mechanical Apartheid
Artist=Castrensis
Album=Mechanical Apartheid
Tracknumber=1
Year=2017
Genre=Brutal Death Metal

[/more]

Register
(6) artscald, caro, chipsgott, Dante_D, Hell_Is_Here, martintrue,
May 18 2022, 10:13:52 Castrensis - Hierarchies (2015)
newer links (320):
Register
(1) jared_wanted,
May 14 2022, 13:55:50 Sequestrum - The Epitome Of Putridity [demo] (2022)


*Artist: Sequestrum
*Album: The Epitome Of Putridity [demo]
*Year: 2022
*Genre: Death Metal/Goregrind
*Country: Denmark
*Format: mp3@CBR320kbps
*Size: 39MB

Tracklist:
1. Symposium At The Crematorium 03:25
2. Involucrum Osteomyelitis 02:34
3. Tache Noire 03:35
4. Pearls On Offal 02:36
5. The Tea Of The Heart 03:31
******************************
Total playing time: 15:43




[more=Extended info]Released on MC/MCD/Digital by Extremely Rotten Productions.

Line-up:
Andreas Nordgreen - bass, vocals
David Torturdød - guitar, vocals
Frederik Kabukiman Laursen - drums, vocals
Søren Willatzen - guitar, vocals[/more]

[more=Technical info]
Input File: 02 Involucrum Osteomyelitis.mp3
Channels : 2
Sample Rate : 44100
Precision : 16-bit
Duration : 00:02:34.00 = 6791400 samples = 11550 CDDA sectors
File Size : 6.46M
Bit Rate : 335k
Sample Encoding: MPEG audio (layer I, II or III)
Comments :
Title=Involucrum Osteomyelitis
Artist=Sequestrum
Album=The Epitome of Putridity
Tracknumber=2
Year=2022
Genre=Deathgrind

[/more]

Register
(6) Ambercandle, artscald, caro, GorAtheist, Hell_Is_Here, Ignativs,
May 10 2022, 08:37:12 Phrenelith - Chimerian Offspring [ep] (2017)
same bitrate:
Register
(1) Occultas,
May 7 2022, 15:10:00 Errorgod - Errorgod [demo] (2008)
newer links (320):
Register
(3) stumpheavyrock, thenecromancer, wendigo,
May 2 2022, 06:52:19 Udar - The Crisis Deepens [ep] (2017)


*Artist: Udar
*Album: The Crisis Deepens [ep]
*Year: 2017
*Genre: Sludge/Doom/Black Metal
*Country: Poland
*Format: mp3@CBR320kbps
*Size: 83MB

Tracklist:
1. Gargoyle 08:27
2. Hard Liquor 09:21
3. Vanishing Odds 10:05
4. I Wanna Be Your Dog (The Stooges cover) - live at Eufemia 31.08.2016 07:58
******************************
Total playing time: 35:52





[more=Extended info]Line-up:
Ireneusz Kuta - drums (Sun No More)
Filip Gołaszewski - lead guitar
Ryszard Tuora - rhythm guitar, vocals[/more]

[more=Technical info]
Input File: 01 Gargoyle.mp3
Channels : 2
Sample Rate : 44100
Precision : 16-bit
Duration : 00:08:27.09 = 22362669 samples = 38031.8 CDDA sectors
File Size : 20.4M
Bit Rate : 321k
Sample Encoding: MPEG audio (layer I, II or III)
Comments :
Title=Gargoyle
Artist=udar
Album=The Crisis Deepens
Tracknumber=1
Year=2017
Genre=Metal

[/more]

Register
(7) artscald, caro, Dante_D, Mencae77, Olethros, VALERY, Wisserwein,
Apr 29 2022, 18:12:55 Inglorious - Eternal Chaos (2015)
newer links (320):
Register
(1) kim666,
Apr 25 2022, 09:27:11 Angrrsth - Znikąd [ep] (2018)
320 (+ bonus track):
Register
(1) wreak,
Apr 21 2022, 10:37:58 Sheev - Mind Conductor (2021)


*Artist: Sheev
*Album: Mind Conductor
*Year: 2021
*Genre: Progressive Stoner Metal
*Country: Germany
*Format: mp3@CBR320kbps
*Size: 119MB

Tracklist:
1.The Workshop 01:05
2. Well Whined 05:36
3. Saltshifter 05:01
4. Horsemouth 06:15
5. All I Can 07:29
6. Muji Uta Ja 06:34
7. Take You Home 07:32
8. Baby Huey 06:30
9. Snakegosh 07:15
******************************
Total playing time: 53:20

Preview 1




[more=Technical info]
Input File: 02 Well Whined.mp3
Channels : 2
Sample Rate : 44100
Precision : 16-bit
Duration : 00:05:36.58 = 14843178 samples = 25243.5 CDDA sectors
File Size : 13.5M
Bit Rate : 320k
Sample Encoding: MPEG audio (layer I, II or III)
Comments :
Title=Well Whined
Artist=Sheev
Album=Mind Conductor
Tracknumber=2
Year=2021
Genre=Progressive Stoner Metal

[/more]

Register
(7) artscald, caro, chipsgott, csgmnk, Olethros, sludge666, wreak,
Apr 13 2022, 14:11:40 Asurim - Deus-Ex Novus [ep] (2014)


*Artist: Asurim
*Album: Deus-Ex Novus [ep]
*Year: 2014
*Genre: Instrumental Fusion/Progressive Metal
*Country: Australia
*Format: mp3@CBR320kbps
*Size: 38MB

Tracklist:
1. Nethrasz 06:55
2. Deus-Ex Novus 05:24
3. I, Chaoticist 03:36
******************************
Total playing time: 15:56




[more=Extended info]Line-up:
Levi Dale - guitars (Lūmenwood, The Ritual Aura, ex-Obscenium)
Linus Klausenitzer - bass (Alkaloid [Deu], Eternity's End, Fallacy [Deu], Ilusen's Fallacy, Noneuclid, Obsidious [Int], ex-Fall Of Serenity [Deu], ex-King Schlayer, ex-Lisa WHO, ex-Mecallita, ex-Metropole Orkest, ex-Obscura [Deu], ex-Rockbrigade, Christian Muenzner (live), ex-Dawn Of Obliteration (live), ex-Kaoteon (live), ex-Thulcandra [Deu] (live))
Hannes Grossmann - drums (Alkaloid [Deu], Blotted Science, Eternity's End, Howling Sycamore, Shapeshift [Deu], The Fractured Dimension, Triptykon, ex-Devil's Cry, ex-Hate Eternal, ex-Necrophagist, ex-Obscura [Deu], Christian Muenzner (live), Dark Fortress [Deu, BY] (live), Nader Sadek (live), ex-Comaniac (live), ex-Endtyme Inc. (live), ex-Thulcandra [Deu] (live))[/more]

[more=Technical info]
Input File: 02 Deus-Ex Novus.mp3
Channels : 2
Sample Rate : 44100
Precision : 16-bit
Duration : 00:05:24.09 = 14292501 samples = 24307 CDDA sectors
File Size : 13.1M
Bit Rate : 324k
Sample Encoding: MPEG audio (layer I, II or III)
Comments :
Title=Deus-Ex Novus
Artist=Asurim
Album=Deus-Ex Novus
Tracknumber=2
Year=2014
Genre=Fusion / Metal

[/more]

Register
(10) artscald, caro, chipsgott, csgmnk, Dante_D, maxapero, Olethros, varlam4, wreak, Луч,
Apr 8 2022, 09:36:27 The Path Is Clear - The Narrow Way [ep] (2016)


*Artist: The Path Is Clear
*Album: The Narrow Way [ep]
*Year: 2016
*Genre: Psychedelic Doom Metal
*Country: Switzerland
*Format: mp3@CBR320kbps
*Size: 50MB

Tracklist:
1. The Narrow Way 07:39
2. Barren Habitat 07:08
3. Unspoken 06:59
******************************
Total playing time: 21:48





[more=Extended info]The project by Gareth Millsted. Originally from London, UK, now based in Basel, Switzerland.

Line-up:
Gareth Millsted - all instruments, vocals (Lord Vicar, ex-Centurions Ghost, ex-End Of Level Boss, ex-Flood [UK])
Mark Scurr - session bass on track 2 (ex-Centurions Ghost, ex-Mandeville)[/more]

[more=Technical info]
Input File: 03 Unspoken.mp3
Channels : 2
Sample Rate : 44100
Precision : 16-bit
Duration : 00:06:59.68 = 18507888 samples = 31476 CDDA sectors
File Size : 16.9M
Bit Rate : 321k
Sample Encoding: MPEG audio (layer I, II or III)
Comments :
Title=Unspoken
Artist=The Path Is Clear
Album=The Narrow Way
Tracknumber=3
Year=2016
Genre=Doom Metal/Psychedelic

[/more]

Register
(11) artscald, caro, chipsgott, Mencae77, Olethros, VALERY, varlam4, vlad74, Wail, wreak, zhol,
Apr 5 2022, 15:21:46 Slump - Nothing More [single] (2020)


*Artist: Slump
*Album: Nothing More [single]
*Year: 2020
*Genre: Stoner Rock/Metal
*Country: United Kingdom
*Format: mp3@CBR320kbps
*Size: 30MB

Tracklist:
1. Nothing More 06:01
2. Degenerate 05:11
******************************
Total playing time: 11:13





[more=Extended info]Doomy stoner rock from the West Midlands, UK.

Line-up:
David Kabbouri Lara - drums
Olly Lawrence - bass
Matt Noble - vocals, guitar (Alunah)
Joe Rhodes - guitar[/more]

[more=Technical info]
Input File: 02 Degenerate.mp3
Channels : 2
Sample Rate : 44100
Precision : 16-bit
Duration : 00:05:11.61 = 13741781 samples = 23370.4 CDDA sectors
File Size : 12.7M
Bit Rate : 325k
Sample Encoding: MPEG audio (layer I, II or III)
Comments :
Title=Degenerate
Artist=Slump
Album=Nothing More
Tracknumber=2
Year=2020
Genre=Stoner Rock

[/more]

Register
(7) artscald, caro, chipsgott, Dante_D, Olethros, Wail, wreak,
Apr 2 2022, 11:56:31 Obscene Entity - Lamentia (2015)


*Artist: Obscene Entity
*Album: Lamentia
*Year: 2015
*Genre: Death Metal
*Country: United Kingdom
*Format: mp3@CBR320kbps
*Size: 75MB

Tracklist:
1. Planetary Devastation 02:57
2. Hymns Of The Faithless 03:31
3. Black Blood 02:59
4. Euphoric Vanity 04:08
5. Disassembly Of The Ego 02:05
6. Lamentia 04:19
7. Insanity Binds 03:28
8. Shadow Of Nergal 03:20
9. Stripped Of All And Everything 06:07
******************************
Total playing time: 32:59






[more=Extended info]Released on CD and Cassette via Tridroid Records.

Line-up:
Matt Adnett - guitars, vocals (Celestial Sanctuary, Shrines [UK, ENG], ex-Gamarra, Voices [UK, ENG] (live), ex-The King Is Blind (live))
Calum Gibb - bass, vocals (ex-Gamarra)
Luke Braddick - drums (Terra [UK, CAM], Triangle Face, ex-Gamarra, ex-Leviathanne, ex-Black Skies Burn (live))[/more]

[more=Technical info]
Input File: 02 Hymns Of The Faithless.mp3
Channels : 2
Sample Rate : 44100
Precision : 16-bit
Duration : 00:03:31.45 = 9324769 samples = 15858.5 CDDA sectors
File Size : 8.64M
Bit Rate : 327k
Sample Encoding: MPEG audio (layer I, II or III)
Comments :
Title=Hymns Of The Faithless
Artist=Obscene Entity
Album=Lamentia
Tracknumber=2
Year=2015
Genre=Death Metal

[/more]

Register
(11) artscald, caro, Hell_Is_Here, jollo, lordsloth, Marek, Olethros, supremo, Taakeferd, VALERY, wreak,
Mar 30 2022, 14:39:05 Archelon - Tribe Of Suns (2018)
newer links (320):
Register
(3) chipsgott, kimkayoung, varlam4,
Mar 29 2022, 10:59:16 Archelon - II [ep] (2016)


*Artist: Archelon
*Album: II [ep]
*Year: 2016
*Genre: Progressive Sludge/Post-Metal
*Country: United Kingdom
*Format: mp3@CBR320kbps
*Size: 40MB

Tracklist:
1. This Is How The Universe Ends 08:10
2. The Boar (I) 04:14
3. The Boar (II) 04:42
******************************
Total playing time: 17:08




[more=Extended info]Line-up:
Adam Posthill - bass, vocals
Craig Bagshaw - guitar, vocals (ex-Ba'al [UK, SYK])
Stew Geddes - guitar, percussion
TJ Fairfax - drums (ex-A-Sun Amissa)[/more]

[more=Technical info]
Input File: 02 The Boar (I).mp3
Channels : 2
Sample Rate : 44100
Precision : 16-bit
Duration : 00:04:14.21 = 11210705 samples = 19065.8 CDDA sectors
File Size : 10.3M
Bit Rate : 324k
Sample Encoding: MPEG audio (layer I, II or III)
Comments :
Title=The Boar (I)
Artist=Archelon
Album=II
Tracknumber=2
Year=2016
Genre=Post-Metal/Sludge

[/more]

Register
(10) artscald, caro, chipsgott, Dante_D, kimkayoung, Occultas, Olethros, SatanicPanzer, varlam4, wreak,
Mar 28 2022, 09:40:16 Archelon - I [ep] (2015)
newer links (320):
Register
(3) chipsgott, kimkayoung, varlam4,
Mar 26 2022, 11:42:21 Megalodoom - Last Rites [demo] (2017)


*Artist: Megalodoom
*Album: Last Rites [demo]
*Year: 2017
*Genre: Instrumental Doom Metal/Sludge
*Country: United Kingdom
*Format: mp3@CBR320kbps
*Size: 27MB

Tracklist:
1. Snek 06:25
2. The Goddess 04:25
******************************
Total playing time: 10:51




[more=Extended info]The songs recorded live during the band's last rehearsal session.

Line-up:
Chris Marsland - guitar (Antre, ex-Bumsnogger, ex-Dead On A Rival, ex-Jesus Of Spazzareth, ex-Year Of The Flood)
Phil Roberts (R.I.P. 2020) - guitar (ex-Blood Divided, ex-Death Tripper [UK], ex-Def Goldblum, ex-Huffin' Paint, ex-Year Of The Flood)
Barry Chadwick - drums (Antre, Bleakwinter Shrine, ex-Dead On A Rival, ex-Jesus Of Spazzareth, ex-Year Of The Flood)
Tanya Byrne - bass (Bismuth [UK], Dark Mother [UK], Elbrus [UK], Monoliths [UK], Nadir [UK, NTT], ex-A Hundred Black Kites, ex-Diet Pills, ex-Maybeshewill)[/more]

[more=Technical info]
Input File: 02 The Goddess.mp3
Channels : 2
Sample Rate : 44100
Precision : 16-bit
Duration : 00:04:25.37 = 11702641 samples = 19902.5 CDDA sectors
File Size : 10.7M
Bit Rate : 322k
Sample Encoding: MPEG audio (layer I, II or III)
Comments :
Title=The Goddess
Artist=Megalodoom
Album=Last Rites
Tracknumber=2
Year=2017
Genre=Instrumental Doom/Sludge

[/more]

Register
(10) artscald, caro, Dante_D, Grev, Mannard, maochen, Olethros, stumpheavyrock, Terrorizer, vlad74,
Mar 25 2022, 09:18:58 Megalodoom - Tectonic Oblivion [ep] (2014)
newer links (320):
Register
(2) quarantine, stumpheavyrock,
Mar 22 2022, 09:45:57 Grief Symposium - Monolithic Dark Metal [demo] (2021)


*Artist: Grief Symposium
*Album: Monolithic Dark Metal [demo]
*Year: 2021
*Genre: Death/Doom Metal
*Country: United Kingdom
*Format: mp3@CBR320kbps
*Size: 46MB

Tracklist:
1. Among Dead Gods 06:58
2. Temple Of Decay 03:55
3. In The Shadow Of The Sleeping Monarch 09:02
******************************
Total playing time: 19:56




[more=Extended info]Line-up:
SJT - voices & contemplations (ex-Entwined [UK], ex-The King Is Blind)
LJA - riffs & embellishments (ex-Entwined [UK], ex-The King Is Blind, ex-Twelve Tribes [UK])
CSM - bass (New Model Army, ex-Dark Era [UK], ex-Dead Lane Cross, ex-The King Is Blind)
BJM - drums & anvil (Nine Covens, ex-Dead Lane Cross, ex-Death Dealers, ex-Extreme Noise Terror, ex-Raw Noise, ex-The King Is Blind, ex-Vessel [UK], ex-Elimination [UK] (live))

Mark Peter Royce - synths & additional instrumentation
Cecilia Adelaide - additional vocals[/more]

[more=Technical info]
Input File: 01 Among Dead Gods.mp3
Channels : 2
Sample Rate : 44100
Precision : 16-bit
Duration : 00:06:58.01 = 18434153 samples = 31350.6 CDDA sectors
File Size : 16.8M
Bit Rate : 321k
Sample Encoding: MPEG audio (layer I, II or III)
Comments :
Title=Among Dead Gods
Artist=Grief Symposium
Album=Monolithic Dark Metal
Tracknumber=1
Year=2021
Genre=Metal

[/more]

Register
(17) artscald, Brutal, caro, GorAtheist, METALHUNTER, Occultas, quarantine, sergsazan, Shadechaser, sludge666, stumpheavyrock, thenecromancer, VALERY, vyacheslav, Wail, wanderer73, wreak,
Mar 13 2022, 08:39:34 Heretical Sect - Rotting Cosmic Grief [ep] (2019)
FLAC (tracks):
Register
(2) wanderer73, wreak,
Mar 10 2022, 10:05:20 Nerves - Nerves (2013)


*Artist: Nerves
*Album: Nerves
*Year: 2013
*Genre: Experimental/Chaotic Hardcore
*Country: United States
*Format: mp3@CBR320kbps
*Size: 59MB

Tracklist:
1. A Phantasmal Entity, 01:29
2. Appears Shrouded, Through Mire-Dim Light. 04:26
3. Skinned As A Widow-Maker Of Existence 04:07
4. Spilling Fingernails And Bloodsap, 04:46
5. Reifying Hallucinatory Hex. 02:10
6. In These Pools, 04:46
7. The Water Sleeps My Lungs. 03:49
******************************
Total playing time: 25:37




Preview 4

[more=Extended info]An experimental hardcore band from Minneapolis, MN including members of Modulus, Mother's Kiss, Sunless, Trying Henge.

Released on CD/LP by Nightmother, Inc.

Line-up:
Char Nolan - guitar, vocals
Samuel Lewis - guitar, vocals
Mitch Schooler - bass, vocals
Connor Nolan - percussion[/more]

[more=Technical info]
Input File: 04 Spilling Fingernails And Bloodsap,.mp3
Channels : 2
Sample Rate : 44100
Precision : 16-bit
Duration : 00:04:46.63 = 12640427 samples = 21497.3 CDDA sectors
File Size : 11.7M
Bit Rate : 325k
Sample Encoding: MPEG audio (layer I, II or III)
Comments :
Title=Spilling Fingernails and Bloodsap,
Artist=Nerves
Album=Nerves
Tracknumber=4
Year=2013
Genre=Experimental Hardcore/Metal

[/more]

Register
(3) Olethros, sludge666, yuratroll,
Mar 7 2022, 15:53:55 Holy Grove - Ii (2018)
newer links (320):
Register
(1) wreak,
Mar 6 2022, 09:24:44 Holy Grove - Holy Grove (2016)
newer links (320):
Register
(2) quarantine, wreak,

53 Pages V   1 2 3 > » 
- Lo-Fi Version Support form
Copyrights and abuse reports form
Time is now: 28th May 2022 - 21:03:24