Welcome Guest ( Log In | Register )

История благодарностей участнику Evgundel ::: Спасибо сказали: 4572 раз(а)
Дата поста: В теме: За сообщение: Спасибо сказали:
Aug 3 2021, 13:23:11 Undoing The End - Undoing The End [ep] (2006)


*Artist: Undoing The End
*Album: Undoing The End [ep]
*Year: 2006
*Genre: Melodic/Progressive Metal
*Country: New Zealand
*Format: mp3@CBR320kbps
*Size: 56MB

Tracklist:
1. A Mind In Solitude 05:39
2. This Shattered Earth 06:22
3. No Life Left Unfinished 04:52
4. Only A Reflection 08:10
******************************
Total playing time: 25:05




[more=Extended info]Line-up:
Cally Hammond-Tooke - vocals
Mike Wilson - guitar (Lysithea, Miasmata [NZL], Sojourner [Int], ex-Out Of Agony)
Mike Lamb - guitar (Light Field Reverie, Lysithea, Sojourner [Int], ex-Cailleach, ex-Into Avernus, ex-Out Of Agony)
Dan Bent - bass
Isaac Bernhardt - drums[/more]

[more=Technical info]
Input File: 01 A Mind in Solitude.mp3
Channels : 2
Sample Rate : 44100
Precision : 16-bit
Duration : 00:05:39.77 = 14983725 samples = 25482.5 CDDA sectors
File Size : 13.7M
Bit Rate : 323k
Sample Encoding: MPEG audio (layer I, II or III)
Comments :
Title=A Mind in Solitude
Artist=Undoing the End
Album=Undoing the End
Tracknumber=1
Year=2006
Genre=Metal

[/more]

Register
(2) after21allD, Olethros,
Jul 29 2021, 15:29:27 No Haven - Colours Of Nothing [ep] (2016)


*Artist: No Haven
*Album: Colours Of Nothing [ep]
*Year: 2016
*Genre: Black Metal/Crust/Dark Hardcore
*Country: Australia
*Format: mp3@CBR320kbps
*Size: 45MB

Tracklist:
1. - (intro) 00:48
2. Colours Of Nothing 02:54
3. Bleak Vision 02:36
4. Obsolescence 03:15
5. The Collapse 01:08
6. Exile On Barkly St. 04:34
******************************
Total playing time: 15:18






[more=Extended info]Released via Art As Catharsis Records.

Line-up:
Mike Nolan - vocals
Will Robinson - guitars
Angus Harvey - bass
Alex Johnson - drums[/more]

[more=Technical info]
Input File: 02 Colours Of Nothing.mp3
Channels : 2
Sample Rate : 44100
Precision : 16-bit
Duration : 00:02:54.48 = 7694612 samples = 13086.1 CDDA sectors
File Size : 7.08M
Bit Rate : 325k
Sample Encoding: MPEG audio (layer I, II or III)
Comments :
Title=Colours Of Nothing
Artist=No Haven
Album=Colours Of Nothing
Tracknumber=2
Year=2016
Genre=Blackened Hardcore

[/more]

Register
(4) caro, infiltrator, Olethros, sludge666,
Jul 26 2021, 16:00:02 Trespasser - Suffer Alone, Suffer Together [ep] (2017)


*Artist: Trespasser
*Album: Suffer Alone, Suffer Together [ep]
*Year: 2017
*Genre: Metallic Hardcore/Sludge
*Country: Australia
*Format: mp3@CBR320kbps
*Size: 43MB

Tracklist:
1. Unravelled 02:49
2. Withered Hands 02:40
3. Dragged Down 03:51
4. Narrows 03:32
5. Slow Decay 04:34
******************************
Total playing time: 17:28





[more=Extended info]Released via Art As Catharsis Records.

Line-up:
Mat Jack - vocals
Nick Mole - guitar
Mitch Golding - guitar
Alex Johnson - drums
Angus Harvey - bass[/more]

[more=Technical info]
Input File: 01 Unravelled.mp3
Channels : 2
Sample Rate : 44100
Precision : 16-bit
Duration : 00:02:49.07 = 7456119 samples = 12680.5 CDDA sectors
File Size : 6.89M
Bit Rate : 326k
Sample Encoding: MPEG audio (layer I, II or III)
Comments :
Title=Unravelled
Artist=Trespasser
Album=Suffer Alone, Suffer Together
Tracknumber=1
Year=2017
Genre=Hardcore/Metal

[/more]

Register
(5) caro, infiltrator, Marek, Olethros, sludge666,
Jul 21 2021, 18:36:00 Cascades - Cascades (2017)


*Artist: Cascades
*Album: Cascades
*Year: 2017
*Genre: Post-Metal/Sludge/Crust
*Country: Australia
*Format: mp3@CBR320kbps
*Size: 90MB

Tracklist:
1. Whitewater 09:15
2. Ceaseless 08:51
3. Divide 08:00
4. Cold Bloom 03:24
5. Yearn 05:56
******************************
Total playing time: 35:28







[more=Extended info]Released through Art As Catharsis Records.

Line-up:
Sam O. - guitar, voice
Liam - guitar, voice
Sam F. - synthesizers
Max - bass
Toby - drums[/more]

[more=Technical info]
Input File: 02 Ceaseless.mp3
Channels : 2
Sample Rate : 44100
Precision : 16-bit
Duration : 00:08:51.67 = 23446779 samples = 39875.5 CDDA sectors
File Size : 21.4M
Bit Rate : 323k
Sample Encoding: MPEG audio (layer I, II or III)
Comments :
Title=Ceaseless
Artist=Cascades
Album=Cascades
Tracknumber=2
Year=2017
Genre=Metal

[/more]

Register
(7) Buregon, caro, gena, infiltrator, metala, Olethros, Ostinato,
Jul 18 2021, 13:22:56 Othrs - Broken Dialogue (2018)


*Artist: Othrs
*Album: Broken Dialogue
*Year: 2018
*Genre: Instrumental Atmospheric/Post-Black Metal
*Country: Australia
*Format: mp3@CBR320kbps
*Size: 89MB

Tracklist:
1. New Drones 05:29
2. Black Tides 06:21
3. Satellites 04:57
4. We Whir 04:32
5. Pure And Loveless Light 06:30
6. Broken Dialogue 07:24
******************************
Total playing time: 35:14





[more=Extended info]All music written and recorded by M.R. (Spire [Aus]).[/more]

[more=Technical info]
Input File: 01 New Drones.mp3
Channels : 2
Sample Rate : 44100
Precision : 16-bit
Duration : 00:05:29.71 = 14540167 samples = 24728.2 CDDA sectors
File Size : 13.2M
Bit Rate : 321k
Sample Encoding: MPEG audio (layer I, II or III)
Comments :
Title=New Drones
Artist=Othrs
Album=Broken Dialogue
Tracknumber=1
Year=2018
Genre=Metal

[/more]

Register
(9) caro, infiltrator, kim666, mirotvorets, Olethros, Sanctus, SilentNidhogg, supremo, Taakeferd,
Jul 2 2021, 18:49:58 Space Bong - The Death Of Utopia (2009)
320 kbps:
Register
(2) stumpheavyrock, wreak,
Jun 29 2021, 18:16:56 'Neath - The Spiders Sleep (2007)
re-upped (same bitrate):
Register
(3) kimkayoung, wendigo, wreak,
Jun 27 2021, 08:26:52 Defiled - The Vatican Method [ep] (2003)


*Artist: Defiled
*Album: The Vatican Method [ep]
*Year: 2003
*Genre: Death/Thrash/Groove Metal
*Country: Australia
*Format: mp3@CBR320kbps
*Size: 35MB

Tracklist:
1. F.N.P. 03:17
2. In Solitude Adrift 03:16
3. Stranger Within 03:22
4. Depraved Lust 02:26
5. Lack Of Fuckin Respect 02:43
******************************
Total playing time: 15:07




[more=Extended info]Line-up:
Vincent Forgione - vocals
Norman Meyer - guitars
Chris Oliver - bass (ex-Sevidica)
Damien Smith - drums (ex-Desolution, ex-Sevidica)[/more]

[more=Technical info]
Input File: 01 F.N.P..mp3
Channels : 2
Sample Rate : 44100
Precision : 16-bit
Duration : 00:03:17.26 = 8699210 samples = 14794.6 CDDA sectors
File Size : 7.98M
Bit Rate : 324k
Sample Encoding: MPEG audio (layer I, II or III)
Comments :
Title=F.N.P.
Artist=Defiled
Album=The Vatican Method
Tracknumber=1
Year=2003
Genre=Metal

[/more]

Register
(10) caro, infiltrator, Olethros, Proteus_666, stumpheavyrock, Svafrlami, VALERY, varlam4, Wail, wreak,
Jun 26 2021, 09:06:28 Defiled - Pleasurable Decay [ep] (2001)


*Artist: Defiled
*Album: Pleasurable Decay [ep]
*Year: 2001
*Genre: Death Metal
*Country: Australia
*Format: mp3@CBR320kbps
*Size: 46MB

Tracklist:
1. Victim Of Lust 06:21
2. Raped Of Faith 03:43
3. Pleasurable Decay 03:15
4. My Law 04:22
******************************
Total playing time: 17:43




[more=Extended info]Line-up:
Vincent Forgione - vocals
Norman Meyer - guitars
Chris 'Chrust' Oliver - bass (ex-Sevidica)
Damien 'Damo' Smith - drums (ex-Desolution, ex-Sevidica)[/more]

[more=Technical info]
Input File: 02 Raped Of Faith.mp3
Channels : 2
Sample Rate : 44100
Precision : 16-bit
Duration : 00:03:43.73 = 9866273 samples = 16779.4 CDDA sectors
File Size : 9.14M
Bit Rate : 327k
Sample Encoding: MPEG audio (layer I, II or III)
Comments :
Title=Raped Of Faith
Artist=Defiled
Album=Pleasurable Decay
Tracknumber=2
Year=2001
Genre=Metal

[/more]

Register
(12) caro, infiltrator, Marek, Olethros, Proteus_666, Reverend, Svafrlami, Taakeferd, varlam4, vyacheslav, Wail, wreak,
Jun 22 2021, 11:04:57 Austere & Isolation - Bleak... [split] (2008)
re-upped @320:
Register
(3) aleon, Occultas, thenecromancer,
Jun 11 2021, 06:11:22 Christ Denied - Cancer Eradication (2013)
re-upped (320 + scans):
Register
(2) wendigo, wreak,
Jun 8 2021, 12:16:22 Irillion - Fatanyu [ep] (2019)


*Artist: Irillion
*Album: Fatanyu [ep]
*Year: 2019
*Genre: Atmospheric/Raw Black Metal
*Country: Venezuela
*Format: mp3@CBR320kbps
*Size: 31MB

Tracklist:
1. Fatanyu 03:52
2. Belzoond 04:28
3. Meneltarma 04:52
******************************
Total playing time: 13:12






[more=Extended info]Originally from Venezuela, the band is currently based in Mexico.

Line-up:
Jaime Coatl - drums, vocals (Evil Poetry, Helhest, Revolver [Mex])
Rayner Valera - guitars, bass (Revolver [Mex], ex-Cóndor [Col], ex-Necromind)

Cover art: 'El Purgatorio' (1890) by Venezuelan painter Cristóbal Rojas (1858-1890)

Music & lyrics: Rayner Valera[/more]

[more=Technical info]
Input File: 01 Fatanyu.mp3
Channels : 2
Sample Rate : 44100
Precision : 16-bit
Duration : 00:03:52.08 = 10234904 samples = 17406.3 CDDA sectors
File Size : 9.39M
Bit Rate : 324k
Sample Encoding: MPEG audio (layer I, II or III)
Comments :
Title=Fatanyu
Artist=Irillion
Album=Fatanyu
Tracknumber=1
Year=2019
Genre=Metal

[/more]

Register
(8) aleon, infiltrator, SilentNidhogg, VALERY, varlam4, vasiljev_sergej, Wail, wreak,
May 29 2021, 13:22:17 Agusa - Agusa (2017)


*Artist: Agusa
*Album: Agusa
*Year: 2017
*Genre: Instrumental Psychedelic/Progressive Rock
*Country: Sweden
*Format: mp3@CBR320kbps
*Size: 122MB

Tracklist:
1. Landet Längesen 10:29
2. Sorgenfri 05:00
3. Den Förtrollade Skogen 08:33
4. Sagor Från Saaris 09:20
5. Bortom Hemom 10:19
******************************
Total playing time: 43:44






[more=Extended info]Line-up:
Jonas Berge - organ
Tobias Petterson - bass
Jenny Puertas - flute
Tim Wallander - drums & percussion
Mikael Ödesjö - guitar[/more]

[more=Technical info]
Input File: 02. Sorgenfri.mp3
Channels : 2
Sample Rate : 44100
Precision : 16-bit
Duration : 00:05:00.51 = 13252315 samples = 22538 CDDA sectors
File Size : 15.0M
Bit Rate : 400k
Sample Encoding: MPEG audio (layer I, II or III)
Comments :
Title=Sorgenfri
Artist=Agusa
Album=Agusa
Tracknumber=2
Year=2017
Genre=Psychedelic Rock

[/more]

Register
(6) Folkjar, gena, infiltrator, marilin, Olethros, smes,
May 22 2021, 15:27:55 Temple - The Ashes Belong To You (2021)


*Artist: Temple
*Album: The Ashes Belong To You
*Year: 2021
*Genre: Dark Ambient/Drone
*Country: Australia
*Format: mp3@CBR320kbps
*Size: 175MB

Tracklist:
1. Random Tunnel 20:13
2. Apophenia 18:33
3. Near Perfect Horses 15:43
4. Ephemeral 17:16
5. I Cut The Sun 11:38
******************************
Total playing time: 1:23:24




[more=Extended info]Released through Art As Catharsis Records and Bleeemo Music.

Line-up:
Brian O'Dwyer (Adam Simmons vs Brian O'Dwyer, Insufficient Parental Figure, Maps Of Tasmania, MNMM, Random Violence, Running With Scissors, Stoning [Aus], Sun Of Clark, Warpigs [Aus], Gelareh Pour's Garden (live), ZÖJ (live))
Grant Bissett[/more]

[more=Technical info]
Input File: 04 Ephemeral.mp3
Channels : 2
Sample Rate : 44100
Precision : 16-bit
Duration : 00:17:16.26 = 45698890 samples = 77719.2 CDDA sectors
File Size : 41.6M
Bit Rate : 321k
Sample Encoding: MPEG audio (layer I, II or III)
Comments :
Title=Ephemeral
Artist=Temple
Album=The Ashes Belong To You
Tracknumber=4
Year=2021
Genre=Dark Ambient

[/more]

Register
(3) infiltrator, marilin, Olethros,
May 19 2021, 12:17:30 Temple - End Plans (2020)
newer links (320):
Register
(1) quarantine,
May 14 2021, 20:13:41 Temple - Funeral Planet (2020)


*Artist: Temple
*Album: Funeral Planet
*Year: 2020
*Genre: Psychedelic Doom/Stoner Metal
*Country: Sweden
*Format: mp3@CBR320kbps
*Size: 86MB

Tracklist:
1. Sea Of Grief 04:40
2. Magma 06:32
3. Whipped 04:56
4. Changes 04:05
5. Drain 05:16
6. Ashes 05:04
7. Funeral Planet 07:12
******************************
Total playing time: 37:49

Preview 1





[more=Extended info]Released on CD/Vinyl/Digital through Ozium Records.

Line-up:
Otto Molin - vocals, guitar (Silver Devil)
Marcus Ström - drums (Silver Devil)
Erik Bergqvist - bass (Silver Devil)
Jimmy Hedlund - guitar (Wreck [Swe], ex-Falconer, ex-Hellhog, ex-Supreme Majesty, ex-Surfing In Hell)[/more]

[more=Technical info]
Input File: 03 Whipped.mp3
Channels : 2
Sample Rate : 44100
Precision : 16-bit
Duration : 00:04:56.80 = 13088704 samples = 22259.7 CDDA sectors
File Size : 11.9M
Bit Rate : 320k
Sample Encoding: MPEG audio (layer I, II or III)
Comments :
Title=Whipped
Artist=Temple
Album=Funeral Planet
Tracknumber=03
Year=2020
Genre=Stoner Rock

[/more]

Register
(14) aleon, Buregon, caro, chipsgott, HMHamster, infiltrator, marilin, metala, Olethros, Ostinato, pahail, VALERY, Wail, wreak,
Apr 25 2021, 09:44:15 Serpent Column - Invicta [ep] (2018)
newer links (320):
Register
(1) Metalass,
Apr 21 2021, 09:58:24 Aspirate Coma - Serene Transcendence Through Corporal Disfigurement [demo] (2020)


*Artist: Aspirate Coma
*Album: Serene Transcendence Through Corporal Disfigurement [demo]
*Year: 2020
*Genre: Goregrind/Death Metal
*Country: International
*Format: mp3@CBR320kbps
*Size: 27MB

Tracklist:
1. Malignant Consumption 00:56
2. Funereal Indignity 00:48
3. Coagulating Expellent 01:00
4. Phagocytic Purulator 00:41
5. Precursory Amputation 00:52
6. Aspirate Coma 01:06
7. Decomposing Lividity 00:45
8. Griseal Inquest 01:23
9. Hyperacute Immunology 01:24
10. Transcendisfigurement 00:39
******************************
Total playing time: 9:35




[more=Extended info]Japan/USA deathgrind duo.
Self-released on CDr/Digital.

Brennan - drums
Harlan - guitar, bass, vocals

Guest vocals on track 6 by Sean McGrath and Leon del Muerte.[/more]

[more=Technical info]
Input File: 01 Malignant Consumption.mp3
Channels : 2
Sample Rate : 44100
Precision : 16-bit
Duration : 00:00:56.01 = 2469997 samples = 4200.68 CDDA sectors
File Size : 2.45M
Bit Rate : 349k
Sample Encoding: MPEG audio (layer I, II or III)
Comments :
Title=Malignant Consumption
Artist=Aspirate Coma
Album=Serene Transcendence through Corporal Disfigurement
Tracknumber=1
Year=2020
Genre=Deathgrind

[/more]

Register
(4) infiltrator, METALHUNTER, varlam4, wreak,
Apr 20 2021, 18:35:15 Dead In The Dirt - The Blind Hole (2013)
newer links (320):
Register
(1) smes,
Apr 20 2021, 11:19:33 Infernal Coil - Within A World Forgotten (2018)
ЦИТАТА(seightin @ Oct 27 2018, 05:45:01) *
Having a hard time getting these different links. Anyone have a different link that isn't from the same source.

Register
(1) wreak,
Apr 15 2021, 18:37:49 Terror Of The Trees - Devil Worship [ep] (2002)
320 kbps:
Register
(4) METALHUNTER, stumpheavyrock, wendigo, wgs73,
Apr 11 2021, 21:14:47 Burial - Divinity Through Eradication (2009)
Re-recorded version 2019 (with the new line-up and a new bonus song)!

320 kbps:
Register

FLAC (tracks):
Register
(1) wanderer73,
Mar 30 2021, 12:24:51 Asterion - Gateways To Nihility [ep] (2020)


*Artist: Asterion
*Album: Gateways To Nihility [ep]
*Year: 2020
*Genre: Technical Deathcore
*Country: United States
*Format: mp3@CBR320kbps
*Size: 61MB

Tracklist:
1. Nihlathak Descends (intro) 00:59
2. Invoking Necromancy 02:50
3. Nourishing The Upper Echelons 03:09
4. Succumbing To The Cold Grasp Of Death 03:05
5. Towards The Monarch 03:13
6. As They Lay Gutted 02:56
7. Damned By The Congregation 03:52
8. The Flame Grows Dismal (instrumental) 03:17
9. Gateways To Nihility 03:16
******************************
Total playing time: 26:42





[more=Technical info]
Input File: 03 - Nourishing the Upper Echelons.mp3
Channels : 2
Sample Rate : 44100
Precision : 16-bit
Duration : 00:03:09.51 = 8357171 samples = 14212.9 CDDA sectors
File Size : 7.65M
Bit Rate : 323k
Sample Encoding: MPEG audio (layer I, II or III)
Comments :
Title=Nourishing the Upper Echelons
Artist=Asterion
Album=Gateways to Nihility
Tracknumber=03
Year=2020
Genre=Metal
Discnumber=1

[/more]

Register
(9) chipsgott, Hell_Is_Here, infiltrator, Lukittaz, Marek, Olethros, Taakeferd, varlam4, wreak,
Mar 29 2021, 10:20:33 Asterion - Inhabit (2015)
newer links (320):
Register
(1) kimkayoung,
Mar 27 2021, 18:37:53 Asterion - Constellations [ep] (2014)
newer links (320):
Register
(1) kimkayoung,

49 Pages V   1 2 3 > » 
- Lo-Fi Version Support form
Copyrights and abuse reports form
Time is now: 6th August 2021 - 04:35:14