Welcome Guest ( Log In | Register )

Объявления

* gmail.com упорно продолжает считать почту с нас "unsolicited" и отбивает в том числе и письма активации, поэтому просьба использовать альтернативные почтовые ящики.
------------
* gmail.com continues reject all mail from us as "unsolicited" (activation mails too) therefore please use alternate mail servers.
История благодарностей участнику virgin_whore ::: Спасибо сказали: 160 раз(а)
Дата поста: В теме: За сообщение: Спасибо сказали:
Aug 30 2016, 10:51:31 Majesty - Generation Steel (2015)
Тарек обещает новый альбом в начале 2017 или даже раньше. Это альбом будет пинать вашу задницу несравнимо сильнее и многократно, чем предыдущие.
PS также будет снято прикольное кинцо. Минут на 40.
[youtube]watch?v=lCklf-4Tc4s[/youtube]
(1) artscald,
Sep 17 2014, 13:59:02 Necrophobic - Womb Of Lilithu (2013)
А тем временем... группа продолжает деятельность с новым старым вокалистом - им стал Андерс Строкирк, участвовавший в записи дебютного альбома 1993 г.
Цитата из фейсбук:
"WELCOME BACK, ANDERS!

NECROPHOBIC is proud to announce that Anders Strokirk has re-joined the band as their permanent vocalist.
Anders was in the band during the years 1992-1994 and sang on the legendary debut album “The Nocturnal Silence” (1993). The band says:
- Anders voice is both strong and characteristic. We are now ready to play live again and support last autumn’s album release “Womb of Lilithu”.


More news will follow...
"
(1) Dimbaex,
Jan 23 2014, 17:24:21 Omega - The Hell Patrol (2013)
Я нашел FLAC - может кому-то надо:
Register

Сразу предупреждаю, это такой же рип с кассеты, только звук погромче и басов побольше. Интересно как на диске звучит...
(2) artscald, Sepulchreal,
Oct 30 2013, 16:37:11 KAMIJO - Louis - Enketsu No La Vie En Rose (Regular Edition) [single] (2013)


*Artist: KAMIJO
*Album: Louis - Enketsu No La Vie En Rose (Regular Edition) [single]
*Year: 2013
*Genre: Symphonic Power Metal
*Country: Japan
*Format: mp3@CBR320kbps
*Size: 28MB

Tracklist:
1. Louis 〜艶血のラヴィアンローズ〜
2. Grazioso
3. 幻想トリアノン
******************************
Total playing time: 11:55

[more=Extended info]KAMIJO - All instruments and vocals.

[youtube]eSJPJ3Tn4Ec[/youtube]

После "заморозки" деятельности группы VERSAILLES, их вокалист KAMIJO (Yuuji Kamijo) начал сольную деятельность. Это его дебютный сингл.[/more]

[more=Technical info]
Input File: 03 е№»жѓігѓ€гѓЄг‚ўгѓЋгѓі.mp3
Channels : 2
Sample Rate : 44100
Precision : 16-bit
Duration : 00:04:21.07 = 11513143 samples = 19580.2 CDDA sectors
File Size : 10.7M
Bit Rate : 328k
Sample Encoding: MPEG audio (layer I, II or III)
Comments :
Title=е№»жѓігѓ€гѓЄг‚ўгѓЋгѓі
Artist=KAMIJO
Album=Louis 〜艶血のラヴィアンローズ〜
Tracknumber=3
Year=2013
Genre=JRock

[/more]

Register
(3) caro, gwynnbleid, wreak,
Oct 30 2013, 16:09:54 SPARESPINE - 燃えるからだとひきかえに (Moeru Karada To Hikikaeni) (2011)


*Artist: SPARESPINE
*Album: 燃えるからだとひきかえに (Moeru Karada To Hikikaeni)
*Year: 2011
*Genre: Power Metal
*Country: Japan
*Format: ogg@500kbps
*Size: 250MB

Tracklist:
01.始まりの夜
02.裏切りの灯火
03.偽りの葬列
04.決意の雫
05.野薔薇
06.剣と華
07.騎士団
08.悪魔憑き
09.燃えるからだとひきかえに
10.復讐の狼煙
11.いつかこの空の下で
******************************
Total playing time: 1:09:58

[more=Extended info]Tami Iwashita - all instruments and producing
Uco - vocals

http://www.youtube.com/watch?v=q2rAIHaQoHI

!!!Исключительно для почитателей японского любительского павера типа Dragon Guardian (не особо похоже, но просто не знаю с чем сравнить, сам такое не слушаю).!!![/more]

Register
(5) caro, enlosmares, GlebKKK, gwynnbleid, wreak,
Oct 30 2013, 14:36:15 Timeless Rage - Forecast [ep] (2013)


*Artist: Timeless Rage
*Album: Forecast [ep]
*Year: 2013
*Genre: Symphonic Power Metal
*Country: Germany
*Format: mp3@CBR320kbps
*Size: 41MB

Tracklist:
1. Forecast 04:39
2. Beg Us for Die 04:53
3. Breathless 04:08
4. Dreams of Desert 04:23
******************************
Total playing time: 18:03

[more=Extended info]Состав на этом альбоме:
Falko Wegner - Vocals
Simon Korherr - Bass, Vocals (backing)
Michael Benk - Guitars, Vocals (backing)
Anna Keil - Keyboards
Klaus Buchfink - Drums, Vocals (backing)
Sebastian Kunze - Guitars, Vocals (backing)


[youtube]J8GX6oZ29hg[/youtube][/more]

[more=Technical info]
Input File: 02. Beg us for Die.mp3
Channels : 2
Sample Rate : 44100
Precision : 16-bit
Duration : 00:04:52.39 = 12894531 samples = 21929.5 CDDA sectors
File Size : 11.7M
Bit Rate : 320k
Sample Encoding: MPEG audio (layer I, II or III)
Comments :
Title=Beg us for Die
Artist=Timeless Rage
Album=Forecast
Tracknumber=2

[/more]

Register
(7) caro, garretje, gwynnbleid, Mogozoz, Rhoads, socrates9, wreak,
Oct 25 2013, 13:53:53 Hell - Human Remains (2011)
ЦИТАТА(vosmidesijatye @ May 10 2013, 01:14:19) *
Невразумителньый альбом. Пережёвывние трусов КД в который раз. Сделанное безграмотно - вокалист не впечатляет, музыка - сера. Есть куда более достойные последователи Короля. Этих же - в пень.

Последователя "короля"? hmm.gif
1. MERCYFUL FATE и HELL начинали в одно и то же время (1981-1982). Обе группы тогда же, можно сказать одновременно, начали использовать устрашающий грим и спецэффекты.
2. На данном альбоме сыграны заново демо-записи группы в период с 1982 по 1986 год.
3. Таким образом, кто чей последователь — еще доказать надо.
Но кому и зачем?
(1) Rodin,
Oct 25 2013, 10:13:41 Claymore - Lament Of Victory (2013)
17.gif
какая барышня на вокале... внушительная.
(1) satanist666,
Oct 24 2013, 16:12:50 Rhapsody of Fire - From Chaos To Eternity (2011)
ЦИТАТА(vosmidesijatye @ Feb 28 2013, 01:40:35) *
Офигительный альбом! Более жесткий. сконцентрированный, неоклассически-шредовый, чего я меньше всего ожидал. Но тем не менее это так! Напор и агрессия, скрещенная с офигительными мелодиями просто разламывает тебе черепушку. Отменный альбом, рекомендую всем любителям и нелюбителям подобного. Страшно, что будет с группой - Турилли то ушел fear.gif

А что с ней может такого случиться? Вот:
http://www.youtube.com/watch?v=VyXdj8pYbJ8

Правда по короткому анонсу много не скажешь... Могу предположить одно - экспериментов не будет, т.е. материал если не лучше былой рапсодии, то и не хуже. И что важно - Фабио никуда не делся.

... и чегой то вставить видео не выходит - как это правильно делать?
(1) vosmidesijatye,
Oct 14 2013, 15:40:06 Hyborian Steel - An Age Undreamt Of... (2009)
Нашел рабочие ссылки (128 kbps):
Register
- rusfolder
Register
- deposit
Скачал четыре рипа из разных источников - везде одно и то же, спектры показывают 128 kbps. Возможно и правда первоисточник такой.
(1) FILDV,
Sep 19 2012, 14:07:32 Krossburst - Speed Metal Chaos Legiöns [demo] (2011)


*Artist: Krossburst
*Album: Speed Metal Chaos Legiöns [demo]
*Year: 2011
*Genre: Speed Metal
*Country: Italy
*Format: mp3@CBR128kbps
*Size: 16MB

Tracklist:
1. Intro + Erszebet 04:54
2. Call of the Conquerer 03:38
3. Day of Judgement 03:41
4. Legions of Chaos 04:58
******************************
Total playing time: 17:11

[more=Extended info]Current line-up:
Dirty Mike - Vocals, Bass (2011-present)

Black Sodomagikkk - Drums (2011-present)

Mark Damage - Guitars (2011-present)
(Walpurgis Night, ex-Iron Curtain)

Overdose - Guitars (2011-present)

Очередные молодые фанаты Venom и Bulldozer, на этот раз из Италии.
Мне очень понравилось, надеюсь что одной демкой не ограничатся...[/more]

Register
(10) Ariox, avkruchinin, Genuine Thrashiac, Hellstriker, marilin, metala, neoatheist, satanist666, varlam4, Wolftribes,
Sep 19 2012, 13:50:53 Black Empire & Kratornas & Nakkiga & Xerión - Four Concentric Ways Of The Ancient Cult [split] (2007)


*Artist: Black Empire & Kratornas & Nakkiga & Xerión
*Album: Four Concentric Ways Of The Ancient Cult [split]
*Year: 2007
*Genre: Black/Thrash Metal | Black Metal/Grindcore | Black Metal | Black Metal
*Country: Mexico | Philippines | Spain | Spain
*Format: mp3@CBR320kbps
*Size: 127MB

Tracklist:
Black Empire:
1. Necroprayers 03:47
2. Iron Breed 03:49
3. Inferno 04:36
Kratornas:
4. Deathwings 05:21
5. The Fourth Seal 03:58
6. Tribal Satan 01:27
Nakkiga:
7. Pryrates 09:06
8. Du Svardenbyrd Espaten Enigma 07:51
Xerión:
9. Invocacion 00:56
10. Sanguenta Lúa De Outono 06:44
11. Profecia I 04:04
******************************
Total playing time: 51:39

[more=Extended info]CD version by Satanic Records (Mexico). Limited to 1000 hand-numbered copies and included a bonus track from each band:

Black Empire (Mex)
3. Inferno (Bonus)
Kratornas
6 Tribal Satan (Bonus)
Nakkiga
8. Du Svardenbyrd Espaten Enigma (Bonus)
Xerión:
11. Profecia I (Bonus)


Input File: 02. Black Empire - Iron Breed.mp3
Channels : 2
Sample Rate : 44100
Precision : 16-bit
Duration : 00:03:49.51 = 10121391 samples = 17213.2 CDDA sectors
File Size : 9.18M
Bit Rate : 320k
Sample Encoding: MPEG audio (layer I, II or III)
Comments :
Title=Iron Breed
Artist=Black Empire
Album=Four Concentric Ways of the Ancient Cult
Tracknumber=2
Year=2007
Genre=Black Metal

[/more]

Register
(41) AceQuorthon, Angeldemon617, artscald, canadaspaceman, Carcharoth, ddarkthrone, dermarsoran, dimmannius, General, Hell_Is_Here, igore2911, IncendiaryMight, Kazoth, kim666, Lanceatum, marilin, olav, Ominus_Nergal, pfk505, randumbum, Reverend, rom666, RotAnus, RUSP73, satanas189, satanath, satanist666, Sathana, Sergey, smes, smysl, Styx, thenecromancer, Thunderbird, tont, varlam4, vasiljev_sergej, waldemardr, Wolftribes, wreak, Госпромнадзор,
Sep 18 2012, 18:15:21 Nefastoreth - In Tenebris Radiorum (2007)
Here`s a correct link for mediafire!
Правильная ссылка
Register
(1) Necromag,
Sep 18 2012, 14:14:20 Nefastoreth - In Tenebris Radiorum (2007)


*Artist: Nefastoreth
*Album: In Tenebris Radiorum
*Year: 2007
*Genre: Black Metal
*Country: Italy
*Format: mp3@CBR128kbps
*Size: 58MB

Tracklist:
1.Ab Aeterno 04:17
2.Ancient Circles 04:54
3.Vortex 04:31
4.Pensiero Antiumano 06:50
5.Elke 07:32
6.Nel Mio Cuore 08:43
7.God's Mummification 03:38
8.Last Battle On Earth 09:51
******************************
Total playing time: 50:16

[more=Extended info]Self-relised, april 2007
Recorded and produced in HAGALL Studio by Namter and Gladio.
Hagall & Algiz Art
Band info[/more]

Register
(9) ancientlair, Darkthronefoad, General, kefka, maringlen, satanist666, tont, varlam4, Wolftribes,
Sep 16 2012, 17:14:09 Obsessör - Blitzkrieg Battalion (2011)
ЦИТАТА(slack @ Sep 16 2012, 17:38:40) *
Спектр как раз говорит, что это 128, как максимум. А разница будет. И большая.

Разобрался. К сожалению, Вы правы. Ну что делать, другого качества я не нашел. Если кто выложит с хор. битрейтом, обязательно скачаю.
(1) slack,
Sep 12 2012, 09:45:29 Obsessör - Blitzkrieg Battalion (2011)


*Artist: Obsessör
*Album: Blitzkrieg Battalion
*Year: 2011
*Genre: Thrash Metal
*Country: Germany
*Format: mp3@CBR160kbps
*Size: 97MB

Tracklist:
1. Blitzkrieg Battalion
2. Steel Attack
3. Angelfuck Infantry
4. Fistfights for Satan
5. Storming Death's Revenge
6. Apokalyptik Raids
7. Satanik Metal Overkill
8. Blessed By Torment
9. Sodomy In Hell
10. Barbed Wire Blasphemy
11. Curse Of The Ritual
******************************
Total playing time: 41:55

[more=Extended info]INFO
Album is limited to 100 copies.

Размер большой, т.к. увы, это транскод. Реальный битрейт более всего похож на 160 kbps
Спектр:[/more]

Register
(8) avkruchinin, marilin, MeathookSeed, satanas189, Sathana, slack, varlam4, Wolftribes,
Sep 12 2012, 09:25:21 Obsessör - Black Thrashing Blasphemy [ep] (2009)


*Artist: Obsessör
*Album: Black Thrashing Blasphemy [ep]
*Year: 2009
*Genre: Thrash Metal
*Country: Germany
*Format: mp3@CBR320kbps
*Size: 47MB

Tracklist:
1. Black Thrashing Blasphemy
2. Metal Onslaught
3. Merciless Avenger
4. Hellish Command
5. Obsessör
6. Evil Rites of Witchery
******************************
Total playing time: 20:07

[more=Extended info]INFO
Kremator (Bass)
McBreu (Drums)
Genozide Richard (Guitars)
Nekroschwanz (Vocals)

God sent his Angels of Fate to prevent the Release of this Dirty Piece of Satanic Metal, but he failed.......
After so many delays, Blitzkrieg Battalion is ready to strike......
Four Hellhounds ov Hades are possessed by the Ancient Spirit of Old Tyrants Blood and invoke the Satanik Metal Overkill......
This is pure Black Thrashing Blasphemy and a Fucking Fist in the Face
of every modern Nu Metal Maggot......
Beware, this is Metal Supremacy.....

OLD SCHOOL AS FUCK!!

Какие громкие слова! Скажу проще - грязный звук, угар и драйв.


Input File: 02. Metal Onslaught.mp3
Channels : 2
Sample Rate : 44100
Precision : 16-bit
Duration : 00:02:56.87 = 7799879 samples = 13265.1 CDDA sectors
File Size : 7.09M
Bit Rate : 321k
Sample Encoding: MPEG audio (layer I, II or III)
Comments :
Title=Metal Onslaught
Artist=Obsessor
Album=Black Thrashing Blasphemy
Tracknumber=2/6
Year=2009
Genre=144[/more]

Register
(20) AHBAnep, artscald, Boozer, Constantinus I, DarkHorde, jpvalentim, marilin, MeathookSeed, MEmethuselah, METALHUNTER, pichileon, RUSP73, satanas189, Sathana, Thrasher, varlam4, wgs73, Wolftribes, wreak, ZA670,
Aug 28 2012, 16:59:59 Die Hard - Nihilistic Vision (2009)
Нашел на ифолдере:
Register

 ! 

[hide][/hide] links!
 
(5) andreikun, AngelSlayerSoul, AwaitingDawn, marilin, VALERY,
May 12 2012, 17:34:10 Bestial Possession - Duros, Ebrios, Y Lujuriosos (2009)
Поскольку все ссылки умерли, я нашел еще:
Register

битрейт вроде тот же
(6) avkruchinin, CRUNCH, LVXXVL, Patrick, varlam4, wgs73,
Mar 31 2011, 16:20:12 Blackhorned - Dark Season (2010)
ЦИТАТА(resurgam @ Dec 23 2010, 07:51:01) *
что, один все сам сделал?, для блэк трэша нехарактерно

Уже не сам. С 2009 года у него новый состав - http://www.metal-archives.com/band.php?id=14356
(1) resurgam,
Sep 26 2010, 12:58:04 Exorcist - Nightmare Theatre (1985)
Угарный материал! metaler.gif
В составе трое участников из VIRGIN STEELE: Дефеис-вокал, Пурсино-гитара, Айвазян-ударные pray.gif
(1) smes,
Aug 22 2010, 14:41:56 Venom - Hell (2008)
ЦИТАТА(lucifix @ Jul 31 2010, 14:14:00) *
Antony "Antton" Lant - Drums Не сын ли это Cronos'a ?

Не сын. Братец.
(1) drbutcher,

- Lo-Fi Version Support form
Copyrights and abuse reports form
Time is now: 22nd June 2024 - 00:00:54