Welcome Guest ( Log In | Register )

Объявления

* gmail.com упорно продолжает считать почту с нас "unsolicited" и отбивает в том числе и письма активации, поэтому просьба использовать альтернативные почтовые ящики.
------------
* gmail.com continues reject all mail from us as "unsolicited" (activation mails too) therefore please use alternate mail servers.
История благодарностей участнику yuratroll ::: Спасибо сказали: 1054 раз(а)
Дата поста: В теме: За сообщение: Спасибо сказали:
May 20 2024, 17:41:11 Poleis - The Voice Of The Sun (2024)
(3) Evrom, isvili, rickzammuto,
May 2 2024, 19:40:38 Vanitas Dei - Chapter I: Apocryphus (2024)
По стилю ближе к Avantgarde Black Metal
(1) Andrew,
Apr 29 2024, 20:02:02 Malevich - Trembling And Dowsed [ep] (2024)


*Artist: Malevich
*Album: Trembling And Dowsed [ep]
*Year: 2024
*Genre: Progressive Post-Metal/Sludge
*Country: United States
*Format: mp3@CBR320kbps
*Size: 38MB

Tracklist:
1.Irène Jacob 04:48
2.Red to Gold 02:59
3.I Can Hear It Constantly, Without Relent 04:26
4.Inalienable 03:54
******************************
Total playing time: 16:07



[more=Technical info]
Input File: 01 - Irène Jacob.mp3
Channels : 2
Sample Rate : 48000
Precision : 16-bit
Duration : 00:04:48.26 = 13836672 samples ~ 21619.8 CDDA sectors
File Size : 11.8M
Bit Rate : 326k
Sample Encoding: MPEG audio (layer I, II or III)
Comments :
Title=Irène Jacob
Artist=Malevich
Album=Trembling and Dowsed
Year=2024

[/more]

Register
(9) artscald, as71, Dante_D, Grev, HMHamster, Ignativs, metaljosue, mirotvorets, ZamanFu,
Apr 29 2024, 19:54:19 Rivers Of Nihil - Criminals [ep] (2024)


*Artist: Rivers Of Nihil
*Album: Criminals [ep]
*Year: 2024
*Genre: Progressive/Technical Death Metal
*Country: United States
*Format: mp3@CBR320kbps
*Size: 31MB

Tracklist:
1. Criminals 04:23
2. Hellbirds 04:34
3. The Sub-Orbital Blues 04:20
******************************
Total playing time: 13:17



[more=Technical info]
Input File: 01 - Criminals.mp3
Channels : 2
Sample Rate : 48000
Precision : 16-bit
Duration : 00:04:23.40 = 12643200 samples ~ 19755 CDDA sectors
File Size : 10.6M
Bit Rate : 323k
Sample Encoding: MPEG audio (layer I, II or III)
Comments :
Title=Criminals
Artist=Rivers of Nihil
Album=Criminals
Year=2024

[/more]

Register
(22) Aresson, artscald, Bannanik, BlackSwordMaster88, cast_iron, dcatagua, DeathDragon, Ecastell72, Ignativs, infozahist, kimkayoung, MarCa RA84, Marek, metaljosue, nikolay81, Old Vyaine, p4B10, Reverend, smysl, sumeriarising, wanderer73, Winner,
Apr 15 2024, 16:07:09 Svoid - Neptunian (2024)


*Artist: Svoid
*Album: Neptunian
*Year: 2024
*Genre: Blackened Gothic Metal/Post-Punk
*Country: Hungary
*Format: mp3@CBR320kbps
*Size: 103MB

Tracklist:
1.Neptunian Genesis 04:29
2.Light Years from Now 04:09
3.Samvega - Nekkhamma 04:48
4.Twilight Draws Nigh 04:15
5.The Shell 04:36
6.All Torn Apart 03:37
7.In Sacred Magic 03:22
8.Clavicula Nox 01:13
9.Moonwise Journey 03:58
10.Black Hole District 03:21
11.Infinity of the Elements 05:49
******************************
Total playing time: 43:37



[more=Extended info]Звучит как Tribulation + поздний Secrets Of The Moon[/more]

[more=Technical info]
Input File: 01 - Neptunian Genesis.mp3
Channels : 2
Sample Rate : 48000
Precision : 16-bit
Duration : 00:04:29.66 = 12943872 samples ~ 20224.8 CDDA sectors
File Size : 11.0M
Bit Rate : 326k
Sample Encoding: MPEG audio (layer I, II or III)
Comments :
Title=Neptunian Genesis
Artist=SVOID
Album=Neptunian
Year=2024

[/more]

Register
(12) aleon, artscald, Cartman223, Hell_Is_Here, infozahist, kovlasz, metala, obituarydark, postal67, VALERY, Velemysl, wreak,
Apr 11 2024, 16:45:07 Marghöfða Dýrið - Djöfladýrkun Undir Jökli [ep] (2017)



T Guitars, Bass, Vocals
See also: 0, Carpe Noctem, Grafir, Misþyrming, Naðra, ex-Sól án Varma, ex-Dysthymia
(4) rickzammuto, Sanctus, thenecromancer, Wail,
Mar 23 2024, 10:18:46 Order Of Nosferat - The Absence Of Grace (2024)
(1) dermarsoran,
Mar 21 2024, 20:37:45 Neverfading - Evercraving (2023)
(1) stub888,
Mar 18 2024, 14:37:41 Ad Astra - Harvest (2024)
(1) Old Vyaine,
Mar 15 2024, 14:22:46 Sacrificial Vein - Black Terror Genesis (2024)


*Artist: Sacrificial Vein
*Album: Black Terror Genesis
*Year: 2024
*Genre: Avant-Garde Black/Death Metal
*Country: United States
*Format: mp3@CBR320kbps
*Size: 112MB

Tracklist:
1.The Blood of the Wicked Shall Entomb the Earth 05:45
2.Throne of Perversion 06:19
3.Rites of Malignancy 05:22
4.Apparition 05:23
5.The Unbearable Stench of Malediction 04:25
6.Cruciatum Aeternum 05:40
7.Abjection 03:48
8.Wombs of Depravation 06:54
9.Nil 03:22
******************************
Total playing time: 46:58



[more=Extended info]For fans of: Blut aus Nord, Schammasch, Aosoth[/more]

[more=Technical info]
Input File: Sacrificial Vein - Black Terror Genesis - 01 The Blood of the Wicked Shall Entomb the Earth.mp3
Channels : 2
Sample Rate : 44100
Precision : 16-bit
Duration : 00:05:45.10 = 15218734 samples = 25882.2 CDDA sectors
File Size : 13.9M
Bit Rate : 322k
Sample Encoding: MPEG audio (layer I, II or III)
Comments :
Title=The Blood of the Wicked Shall Entomb the Earth
Artist=Sacrificial Vein
Album=Black Terror Genesis
Tracknumber=1
Year=2024

[/more]

Register
(26) 6black6magic6, aesteticvice, AlexSmith, alikkon, Altkiller, artscald, BlackTroll, Evrom, guidanner, HelenVaughan, Hell_Is_Here, isvili, MC_Callister, metala, NOMIDIMON, Purestenchkvlt, SilentNidhogg, skidnik, smysl, VALERY, Velmi, void03, Weikai, wreak, XxNachtmahRxX, Zer0,
Mar 14 2024, 14:13:42 Udåd - Udåd (2024)

The first offering from Udåd, courtesy of Mork’s Thomas Eriksen. Primitive, raw and real Norwegian Black Metal.
(1) suseka,
Mar 13 2024, 16:04:30 Unhealthy Dreams - Doloris Corpus [ep] (2007)
Register
(2) aleon, vadikmetallic,
Mar 8 2024, 17:11:05 Peste Noire - Livre II - Dieppe [ep] (2024)


*Artist: Peste Noire
*Album: Livre II - Dieppe [ep]
*Year: 2024
*Genre: Experimental/Folk/Black Metal
*Country: France
*Format: mp3@CBR320kbps
*Size: 68MB

Tracklist:
01 Morbus sancti Viti
02 Dieppe
******************************
Total playing time: 29:41



[more=Technical info]
Input File: 01 Morbus sancti Viti.mp3
Channels : 2
Sample Rate : 44100
Precision : 16-bit
Duration : 00:16:34.23 = 43845367 samples = 74567 CDDA sectors
File Size : 39.8M
Bit Rate : 320k
Sample Encoding: MPEG audio (layer I, II or III)
Comments :
Title=Morbus sancti Viti
Artist=Peste Noire
Album=Dieppe - Livre II
Tracknumber=1/2
Year=2024
Genre=Black Metal

[/more]

Register
(55) 29A666, acerbus, Alexis The Best, Aphrax, Aresson, BlackSwordMaster88, BlackTroll, Boozer, Branis, bugmenot88, Cartman223, clublen, CryptOn, dermarsoran, dromord, Druidir, Emhyr var Emreis, ent404, Falx, gena, Grev, heinz88, HMHamster, kimkayoung, KVRT, Lanceatum, Leolomb, Lord Noctua, lucifix, Lux, Metalass, milosdjor, nadin85, nemx, paganheart, Paradayz, Pinhead666, rammmirez, Rattenkonig, recber, Reverend, rimfrost, smysl, squall8fr, Strygaldwir, supremo, thenecromancer, the_cleanser, VALERY, vlad74, VVR, waffenss, Wail, Xor, zoog,
Mar 7 2024, 15:00:38 Haman - Sanctum Sanctorum [ep] (2017)
(1) dermarsoran,
Mar 7 2024, 14:09:41 Primitive Punishment - Subterranean Excruciation (2024)
(2) AHBAnep, rominow,
Mar 3 2024, 18:07:26 Монах - Монах [ep] (2019)
(1) dermarsoran,
Feb 14 2024, 20:34:03 Gnolpths - Nodt Vemn Rogten [ep] (2022)
(1) stub888,
Feb 3 2024, 16:21:04 Astral Spectre - Ars Notoria (2024)
(1) Evrom,
Feb 1 2024, 08:33:07 The Meads Of Asphodel - Tomb Songs From A Dying Bedlamite [ep] (2024)


*Artist: The Meads Of Asphodel
*Album: Tomb Songs From A Dying Bedlamite [ep]
*Year: 2024
*Genre: Experimental Black Metal
*Country: United Kingdom
*Format: mp3@CBR320kbps
*Size: 78MB

Tracklist:
1. In The Beginning... (Intro) 00:45
2. I Have Cancer but at Least I will Die in a Whores Bed 03:21
3. Infested by Fleas 05:17
4. Time Kills 04:12
5. Tomorrow Was Never Here 02:15
6. Jew Killer (Quasi-Live) 05:08
7. Creed of Abraham (Quasi-Live) 06:04
******************************
Total playing time: 27:02



[more=Technical info]
Input File: cover.png
Channels : 1
Sample Rate : 12000
Precision : 16-bit
Duration : 00:00:04.86 = 58368 samples ~ 364.8 CDDA sectors
File Size : 5.05M
Bit Rate : 8.31M
Sample Encoding: MPEG audio (layer I, II or III)

[/more]

Register
(32) AlexSmith, Altkiller, andeimon, artscald, BERZERK, BlackSwordMaster88, Boozer, Demonologist, dermarsoran, dulak, Evrom, goferest, Grev, judaz, metala, nemx, Old Vyaine, oldvarg, Ostinato, Paradayz, Reverend, SaintVitus, SilentNidhogg, skogtroll, smysl, Soulgrinder, Strygaldwir, supremo, VALERY, vasiljev_sergej, VVR, wreak,
Jan 28 2024, 11:10:02 Cognizance - Phantazein (2024)
Deathcore нету. Отличный Technical Death Metal
(1) Genuine Thrashiac,
Jan 25 2024, 13:11:53 Exocrine - Legend (2024)
ЦИТАТА(cesar @ Jan 25 2024, 13:42:01) *
Слушать просто невозможно, увы
Звук, как будто на диктофон писали

digital хорошо звучит
(1) cesar,
Jan 20 2024, 11:52:40 Egribor - Neurossicism [ep] (2024)

Atmospheric Black Metal from Moscow
(5) dermarsoran, mishasha, rickzammuto, smysl, Weikai,
Jan 8 2024, 09:41:46 Hauntologist - Hollow (2024)
(5) ent404, Evrom, kimkayoung, Mihalik, rominow,
Dec 26 2023, 16:29:38 Bull Of Apis Bull Of Bronze - The Fractal Ouroboros (2023)
(1) Evrom,
Dec 24 2023, 17:42:48 Yoth Iria - Embracing The Mexican Shadows [live] (2023)
(1) BlackSwordMaster88,

8 Pages V   1 2 3 > » 
- Lo-Fi Version Support form
Copyrights and abuse reports form
Time is now: 24th July 2024 - 13:53:10