Welcome Guest ( Log In | Register )

История благодарностей участнику Gelukas ::: Спасибо сказали: 46544 раз(а)
Дата поста: В теме: За сообщение: Спасибо сказали:
Mar 18 2022, 14:52:17 Dark Mordor & Undesirable - Symbol Alfa And Omega/Fascinated Disharmony [split] (1996)
Register
(4) METALHUNTER, thenecromancer, wreak, Xtohar,
Mar 14 2022, 10:30:33 Wolfram - Sál Času (1995)
Register
(2) METALHUNTER, Xtohar,
Jan 28 2022, 08:25:33 Scarscythe - See You In Hell [ep] (2011)


*Artist: Scarscythe
*Album: See You In Hell [ep]
*Year: 2011
*Genre: Melodic Death Metal
*Country: Portugal
*Format: mp3@CBR128kbps
*Size: 20MB

Tracklist:
1. Buried Memories 04:30
2. See You in Hell 03:32
3. Hidden Scars 03:18
4. Devil's Prayer 04:20
5. One of Your Kind 04:10
******************************
Total playing time: 19:50




[more=Technical info]
Input File: 02. See You in Hell.mp3
Channels : 2
Sample Rate : 44100
Precision : 16-bit
Duration : 00:03:32.04 = 9351096 samples = 15903.2 CDDA sectors
File Size : 3.48M
Bit Rate : 131k
Sample Encoding: MPEG audio (layer I, II or III)
Comments :
Title=See You in Hell
Artist=Scarscythe
Album=See You in Hell
Tracknumber=2
Year=2011
Genre=9

[/more]

Register
(1) Olethros,
Jan 28 2022, 08:14:42 Forgotten Scream - Hourglass (2021)


*Artist: Forgotten Scream
*Album: Hourglass
*Year: 2021
*Genre: Melodic Death Metal/Metalcore
*Country: Serbia
*Format: mp3@CBR320kbps
*Size: 134MB

Tracklist:
1. Hourglass 05:00
2. Another Scar 04:01
3. Rise 04:36
4. Beyond the Horizon 03:52
5. Solace 04:47
6. Curse 04:50
7. Against the Waves 03:30
8. Overhate 03:43
9. Inspiration 04:32
10. Shattered 04:06
11. Cold-blooded 04:03
12. While the Surface Decays 04:20
13. Devastated 06:35
******************************
Total playing time: 57:55




[more=Technical info]
Input File: 02. Another Scar.mp3
Channels : 2
Sample Rate : 44100
Precision : 16-bit
Duration : 00:04:02.01 = 10672817 samples = 18151 CDDA sectors
File Size : 9.83M
Bit Rate : 325k
Sample Encoding: MPEG audio (layer I, II or III)
Comments :
Title=Another Scar
Artist=Forgotten Scream
Album=Hourglass
Tracknumber=2
Year=2021
Genre=9

[/more]

Register
(8) artscald, caro, chipsgott, Mogozoz, Olethros, sergsazan, VALERY, wreak,
Jan 28 2022, 08:10:30 Gravior - Remedy [ep] (2021)


*Artist: Gravior
*Album: Remedy [ep]
*Year: 2021
*Genre: Melodic/Blackened Death Metal
*Country: Russian Federation
*Format: mp3@CBR320kbps
*Size: 44MB

Tracklist:
1. Last Sunshine 03:41
2. Сёстры Печали 04:22
3. Пленник 03:38
4. Тени 04:03
5. Remedy 03:06
******************************
Total playing time: 18:50




[more=Technical info]
Input File: 02 Сёстры Печали.mp3
Channels : 2
Sample Rate : 44100
Precision : 16-bit
Duration : 00:04:22.23 = 11564519 samples = 19667.5 CDDA sectors
File Size : 10.6M
Bit Rate : 324k
Sample Encoding: MPEG audio (layer I, II or III)
Comments :
Title=Сёстры Печали
Artist=Gravior
Album=Remedy
Tracknumber=2
Year=2021
Genre=9

[/more]

Register
(10) artscald, caro, chipsgott, Marek, nospeedlimit, Olethros, Shadechaser, VALERY, Wotanwatch, wreak,
Jan 28 2022, 07:59:28 Fire Delusion - Two Shapes And Shadows [ep] (2021)


*Artist: Fire Delusion
*Album: Two Shapes And Shadows [ep]
*Year: 2021
*Genre: Melodic Death Metal
*Country: France
*Format: mp3@CBR320kbps
*Size: 31MB

Tracklist:
1. Vessel 05:42
2. Two Shapes and Shadows 07:32
******************************
Total playing time: 13:14



[more=Technical info]
Input File: 02 Two Shapes and Shadows.mp3
Channels : 2
Sample Rate : 44100
Precision : 16-bit
Duration : 00:07:32.99 = 19976771 samples = 33974.1 CDDA sectors
File Size : 18.2M
Bit Rate : 322k
Sample Encoding: MPEG audio (layer I, II or III)
Comments :
Title=Two Shapes and Shadows
Artist=Fire Delusion
Album=Two Shapes and Shadows EP
Tracknumber=2
Year=2021
Genre=9

[/more]

Register
(1) Olethros,
Jan 28 2022, 07:52:36 Far Beyond Empire - Sleepwalking Society (2021)


*Artist: Far Beyond Empire
*Album: Sleepwalking Society
*Year: 2021
*Genre: Melodic Groove/Death Metal
*Country: Brazil
*Format: mp3@CBR320kbps
*Size: 85MB

Tracklist:
1. Scarecrow 03:29
2. Dying Sun 03:39
3. Capital 03:20
4. Who Watches The Watcher 03:51
5. Blindfolded 03:20
6. Inner Advice 03:49
7. Resilient 03:37
8. The Betrayer 03:20
9. Finding Sins 03:42
10. Freedom 03:34
******************************
Total playing time: 35:41




[more=Technical info]
Input File: 02. Dying Sun.mp3
Channels : 2
Sample Rate : 44100
Precision : 16-bit
Duration : 00:03:39.44 = 9677436 samples = 16458.2 CDDA sectors
File Size : 8.88M
Bit Rate : 324k
Sample Encoding: MPEG audio (layer I, II or III)
Comments :
Title=Dying Sun
Artist=Far Beyond Empire
Album=Sleepwalking Society
Tracknumber=2
Year=2021
Genre=9
Discnumber=1/1

[/more]

Register
(7) artscald, caro, kimkayoung, Mogozoz, Olethros, VALERY, wreak,
Jan 28 2022, 07:47:27 Empire Of Disease - Silence Is Violence [ep] (2019)


*Artist: Empire Of Disease
*Album: Silence Is Violence [ep]
*Year: 2019
*Genre: Melodic Death Metal/Metalcore
*Country: Spain
*Format: mp3@CBR320kbps
*Size: 55MB

Tracklist:
1. Social Dementia 06:12
2. War Machines 04:10
3. Golden Empire 03:38
4. Wasted Your Time 06:02
5. Silence Is Violence 03:02
******************************
Total playing time: 23:04




[more=Technical info]
Input File: 02. War Machines.mp3
Channels : 2
Sample Rate : 44100
Precision : 16-bit
Duration : 00:04:10.00 = 11025000 samples = 18750 CDDA sectors
File Size : 10.5M
Bit Rate : 335k
Sample Encoding: MPEG audio (layer I, II or III)
Comments :
Title=War Machines
Artist=Empire of Disease
Album=Silence Is Violence (EP)
Tracknumber=2
Year=2019
Genre=9

[/more]

Register
(9) artscald, caro, chipsgott, Mogozoz, Olethros, sergsazan, VALERY, wreak, zhol,
Jan 28 2022, 07:40:39 Continuum Of Xul - Promo Mmxix [demo] (2019)


*Artist: Continuum Of Xul
*Album: Promo Mmxix [demo]
*Year: 2019
*Genre: Death Metal
*Country: Italy
*Format: mp3@CBR320kbps
*Size: 26MB

Tracklist:
1. The True Vassago 03:13
2. Conjuration Through Obscurity 03:32
3. Visions from the Darkside (Morbid Angel cover) 04:11
******************************
Total playing time: 10:56




[more=Technical info]
Input File: 02 Conjuration Through Obscurity.mp3
Channels : 2
Sample Rate : 44100
Precision : 16-bit
Duration : 00:03:32.83 = 9385979 samples = 15962.5 CDDA sectors
File Size : 8.88M
Bit Rate : 334k
Sample Encoding: MPEG audio (layer I, II or III)
Comments :
Title=Conjuration Through Obscurity
Artist=Continuum of Xul
Album=Promo MMXIX
Tracknumber=02
Year=2019
Genre=22

[/more]

Register
(4) Carcharoth, Olethros, SyncestrA, thenecromancer,
Jan 26 2022, 14:53:07 Legion Sacra - Umbral Y Desolación (2019)


*Artist: Legion Sacra
*Album: Umbral Y Desolación
*Year: 2019
*Genre: Melodic Death/Thrash Metal
*Country: Peru
*Format: mp3@CBR128kbps
*Size: 35MB

Tracklist:
1. Tras el umbral 05:16
2. Considéranos muertos 04:29
3. Roal (Arde el tiempo sagrado) 05:39
4. 1929 (Después de la marcha del lobo) 03:03
5. Agonía danzante 05:21
6. Anagathon 04:16
7. Pesadilla sin final 04:59
8. Mundo de miseria 03:59
9. Outro 00:56
******************************
Total playing time: 37:58




[more=Technical info]
Input File: 02 Considéranos Muertos.mp3
Channels : 2
Sample Rate : 44100
Precision : 16-bit
Duration : 00:04:26.68 = 11760676 samples = 20001.1 CDDA sectors
File Size : 4.27M
Bit Rate : 128k
Sample Encoding: MPEG audio (layer I, II or III)
Comments :
Artist=Legion Sacra
Album=Umbral y Desolación
Year=2019
Genre=9

[/more]

Register
(4) boby9052, Olethros, sergsazan, stumpheavyrock,
Jan 26 2022, 12:46:59 Legion Sacra - Semper Eadem (2014)


*Artist: Legion Sacra
*Album: Semper Eadem
*Year: 2014
*Genre: Melodic Death/Thrash Metal
*Country: Peru
*Format: mp3@CBR128kbps
*Size: 32MB

Tracklist:
1. Intro: El llanto de Kirán 00:53 instrumental
2. Estrella eterna 03:33
3. Vientos oscuros 04:22
4. Entre sombras (Melodía inmortal) 04:23
5. Cósmicas guerras 02:57
6. Misiones de muerte 04:53
7. Sol desolador 03:50
8. Lamentos 06:08
9. Deseo mortal 03:14
10. Outro: Semper eadem 00:56 instrumental
******************************
Total playing time: 35:09




[more=Technical info]
Input File: 2.- Estrella Eterna.mp3
Channels : 2
Sample Rate : 44100
Precision : 16-bit
Duration : 00:03:34.09 = 9441501 samples = 16057 CDDA sectors
File Size : 3.43M
Bit Rate : 128k
Sample Encoding: MPEG audio (layer I, II or III)
Comments :
Artist=Legion Sacra
Album=Semper Eadem
Year=2014
Genre=9

[/more]

Register
(4) boby9052, Olethros, sergsazan, stumpheavyrock,
Sep 17 2021, 09:22:13 Absurd Conflict - Point Of Crisis (2007)
Re-up:
Register


ЦИТАТА(helldawn @ Sep 2 2021, 23:21:07) *
reup please smile3.gif

(2) helldawn, Wail,
Sep 17 2021, 09:21:16 Absurd Conflict - 10 Years Of Depression And Beers [compilation] (2009)
Re-up:
Register


ЦИТАТА(helldawn @ Sep 2 2021, 23:20:33) *
reup please smile3.gif

(2) AvantKitty1, Wail,
Aug 27 2021, 08:03:55 Xskull8 - From Sin To Sinners (2021)


*Artist: Xskull8
*Album: From Sin To Sinners
*Year: 2021
*Genre: Alternative Metal
*Country: Slovenia
*Format: mp3@CBR320kbps
*Size: 87MB

Tracklist:
1. Your Final Act
2. Same Fools
3. Light It Up
4. Wet Bed
5. A Minute 4 Tomorrow
6. Leaves Are Falling
7. Little Miss Perfect
8. Engine Of Doom
9. Queen Of The Night
10. My Worst Enemy
******************************
Total playing time: 38:12



[more=Technical info]
Input File: 04 - Light It Up.mp3
Channels : 2
Sample Rate : 44100
Precision : 16-bit
Duration : 00:03:04.22 = 8123882 samples = 13816.1 CDDA sectors
File Size : 7.36M
Bit Rate : 320k
Sample Encoding: MPEG audio (layer I, II or III)
Comments :
Title=Light It Up
Artist=Xskull8
Album=From Sin to Sinners
Tracknumber=4
Year=2021
Genre=Alternative Metal

[/more]

Register
(3) Cartman223, gwar, Olethros,
Aug 27 2021, 07:33:04 Shadow Of Corvus - Separation (2021)


*Artist: Shadow Of Corvus
*Album: Separation
*Year: 2021
*Genre: Melodic Death Metal
*Country: United States
*Format: mp3@CBR320kbps
*Size: 94MB

Tracklist:
1. The Flood of Pestilence 02:23
2. Phantoms of the Mire 04:11
3. The Legend: Mvt I - Arise 03:27
4. Virtues 03:32
5. Night 03:42
6. Separation 06:22
7. The Legend: Mvt II - Forest of the Fallen 05:17
8. Ovanför 03:37
9. Path of Red 04:24
10. The Legend: Mvt III - Blood of Our Sunset 03:27
******************************
Total playing time: 40:22




[more=Technical info]
Input File: 02. Phantoms of the Mire.mp3
Channels : 2
Sample Rate : 44100
Precision : 16-bit
Duration : 00:00:00.25 = 11069 samples = 18.8248 CDDA sectors
File Size : 10.2M
Bit Rate : 324M
Sample Encoding: MPEG audio (layer I, II or III)
Comments :
Title=Phantoms of the Mire
Artist=Shadow of Corvus
Album=Separation
Tracknumber=2
Year=2021
Genre=9
Discnumber=1

[/more]

Register
(13) BugEyes, caro, cesar, chipsgott, infozahist, Mogozoz, Olethros, sergsazan, stumpheavyrock, supremo, VALERY, wreak, zhol,
Aug 10 2021, 07:36:08 Entardecer - Days Not Lived In A Letter [ep] (2020)


*Artist: Entardecer
*Album: Days Not Lived In A Letter [ep]
*Year: 2020
*Genre: Atmospheric Black Metal
*Country: Brazil
*Format: mp3@CBR320kbps
*Size: 52MB

Tracklist:
1. I Hope Start Over 05:00 instrumental
2. If the Sky Was Cloudy 07:41 instrumental
3. Too Late to Regrets 04:18 instrumental
4. Happy Times 05:37
******************************
Total playing time: 22:36




[more=Technical info]
Input File: 02 If the Sky Was Cloudy.mp3
Channels : 2
Sample Rate : 44100
Precision : 16-bit
Duration : 00:07:41.90 = 20369614 samples = 34642.2 CDDA sectors
File Size : 18.5M
Bit Rate : 321k
Sample Encoding: MPEG audio (layer I, II or III)
Comments :
Title=If the Sky Was Cloudy
Artist=Entardecer
Album=Days Not Lived in a Letter
Tracknumber=2
Year=2020
Genre=9

[/more]

Register
(10) caro, kim666, Mencae77, Olethros, sergsazan, SilentNidhogg, supremo, Taakeferd, VALERY, varlam4,
Aug 10 2021, 07:30:30 Death Chaos - Prologue In Death & Chaos [ep] (2016)


*Artist: Death Chaos
*Album: Prologue In Death & Chaos [ep]
*Year: 2016
*Genre: Old School Death Metal
*Country: Brazil
*Format: mp3@CBR320kbps
*Size: 71MB

Tracklist:
1. You Die I Smile 06:12
2. Death Division 06:39
3. House of Madness 05:50
4. Erased Sky 06:23
5. You Are Not You 05:38
******************************
Total playing time: 30:42




[more=Technical info]
Input File: 2 - Death Division.mp3
Channels : 2
Sample Rate : 44100
Precision : 16-bit
Duration : 00:06:38.21 = 17560885 samples = 29865.5 CDDA sectors
File Size : 16.1M
Bit Rate : 324k
Sample Encoding: MPEG audio (layer I, II or III)
Comments :
Title=Death Division
Artist=Death Chaos
Album=Prologue in Death & Chaos
Tracknumber=2
Year=2016
Genre=Metal
Discnumber=1

[/more]

Register
(16) andreikun, caro, denver, Hell_Is_Here, Marek, METALHUNTER, Olethros, sergsazan, stumpheavyrock, Taakeferd, THROWER666, Tino, VALERY, varlam4, vyacheslav, Xtohar,
Aug 10 2021, 07:17:46 Dark Paramount - Adhuc Perversa (2020)


*Artist: Dark Paramount
*Album: Adhuc Perversa
*Year: 2020
*Genre: Black Metal
*Country: Brazil
*Format: mp3@CBR128kbps
*Size: 29MB

Tracklist:
1. Fillis Daemonium Pestilentiae 02:33
2. Oh! Sir Remphan, Dark Paramount 06:34
3. Wolferian Metempsychosis 06:40
4. Gehenna 06:16
5. Noite de Sabá 04:54
6. Black Phallus 04:48
******************************
Total playing time: 31:45




[more=Technical info]
Input File: 03 Wolferian Metempsychosis.mp3
Channels : 2
Sample Rate : 44100
Precision : 16-bit
Duration : 00:06:40.57 = 17665225 samples = 30042.9 CDDA sectors
File Size : 6.41M
Bit Rate : 128k
Sample Encoding: MPEG audio (layer I, II or III)
Comments :
Artist=Dark Paramount
Album=Adhuc Perversa
Year=2020
Genre=9

[/more]

Register
(5) artscald, kim666, Olethros, thenecromancer, Wail,
Aug 6 2021, 12:33:03 Neurotic Machinery - Cognitive Dissonance (2017)


*Artist: Neurotic Machinery
*Album: Cognitive Dissonance
*Year: 2017
*Genre: Progressive Death Metal
*Country: Czech Republic
*Format: mp3@CBR320kbps
*Size: 84MB

Tracklist:
1. Cage 04:09
2. Depraved 03:24
3. Where the End Begins 03:52
4. Traitor 04:29
5. Echoes 03:05
6. Distance 03:12
7. Ire 04:18
8. Solace 03:47
9. Noise 04:15
******************************
Total playing time: 34:31




[more=Technical info]
Input File: 02 Depraved.mp3
Channels : 2
Sample Rate : 44100
Precision : 16-bit
Duration : 00:03:25.54 = 9064402 samples = 15415.6 CDDA sectors
File Size : 8.35M
Bit Rate : 325k
Sample Encoding: MPEG audio (layer I, II or III)
Comments :
Title=Depraved
Artist=Neurotic Machinery
Album=Cognitive Dissonance
Tracknumber=2
Year=2017
Genre=Metal
Discnumber=1

[/more]

Register
(16) caro, chipsgott, Hell_Is_Here, kimkayoung, Marek, METALHUNTER, MMMMM, Olethros, samokot, supremo, Taakeferd, VALERY, varlam4, vyacheslav, wreak, yuratroll,
Aug 6 2021, 12:28:59 Neurotic Machinery - Causality Principle (2015)


*Artist: Neurotic Machinery
*Album: Causality Principle
*Year: 2015
*Genre: Progressive Death Metal
*Country: Czech Republic
*Format: mp3@CBR320kbps
*Size: 84MB

Tracklist:
1. Equillibrium 4.2 03:48
2. Man Who Wasn't There 04:52
3. Infinity 04:52
4. Adrift 04:32
5. The Apallic Syndrome 04:30
6. Prozaic Night 01:18
7. Descend 04:19
8. All of Us 04:31
9. Schizoid Witness 04:03
******************************
Total playing time: 36:45




[more=Technical info]
Input File: 03 Infinity.mp3
Channels : 2
Sample Rate : 44100
Precision : 16-bit
Duration : 00:04:52.92 = 12917728 samples = 21968.9 CDDA sectors
File Size : 11.7M
Bit Rate : 320k
Sample Encoding: MPEG audio (layer I, II or III)
Comments :
Title=Infinity
Artist=Neurotic Machinery
Album=Causality Principle
Tracknumber=3/9
Year=2015
Genre=22

[/more]

Register
(15) caro, chipsgott, Hell_Is_Here, kimkayoung, Marek, metala, METALHUNTER, Olethros, supremo, Taakeferd, VALERY, varlam4, vyacheslav, wreak, yuratroll,
Aug 6 2021, 12:15:11 Elysium - Labyrinth Of Fallen Angels (2019)


*Artist: Elysium
*Album: Labyrinth Of Fallen Angels
*Year: 2019
*Genre: Symphonic Gothic/Folk Metal
*Country: Italy
*Format: mp3@CBR320kbps
*Size: 100MB

Tracklist:
1. Black Hole
2. Evanescent
3. Before the End
4. Turn Around
5. Fight for All Your Love
6. Close to You
7. Siren
8. Higher State of Consciousness
9. Nobody Knows
10. Here I Am
******************************
Total playing time: 43:49




[more=Technical info]
Input File: 02 - Evanescent.mp3
Channels : 2
Sample Rate : 44100
Precision : 16-bit
Duration : 00:03:37.12 = 9574904 samples = 16283.9 CDDA sectors
File Size : 8.72M
Bit Rate : 321k
Sample Encoding: MPEG audio (layer I, II or III)
Comments :
Title=Evanescent
Artist=Elysium
Album=Labyrinth of Fallen Angels
Tracknumber=2
Year=2019
Genre=Symphonic / Folk / Gothic Rock (Female Vox)
Discnumber=1

[/more]

Register
(20) ace73pq, Alpha_Prime, Bregon, caro, Cartman223, chipsgott, gwar, gwynnbleid, kimkayoung, Mogozoz, oldvarg, Olethros, quarantine, sergsazan, supremo, Taakeferd, VALERY, varlam4, wreak, zhol,
Aug 4 2021, 13:49:55 Moral Insanity - Hatred (2000)


*Artist: Moral Insanity
*Album: Hatred
*Year: 2000
*Genre: Melodic Death Metal
*Country: Czech Republic
*Format: mp3@CBR320kbps
*Size: 116MB

Tracklist:
1. Intro 01:43 (instrumental)
2. Hatred 04:22
3. Re-Inkarnation 04:31
4. Fallen Angel 04:42
5. Flight to the Light 06:39
6. I'm Immortal 07:46
7. The Animals 03:38
8. Why Me? (Paranoia) 02:52
9. Secret of Life 04:41
10. Slave of Dreams 05:33
11. The Voice of Conscious 04:22
******************************
Total playing time: 50:49


Bandzone

[more=Technical info]
Input File: 02 Hatred.mp3
Channels : 2
Sample Rate : 44100
Precision : 16-bit
Duration : 00:04:22.35 = 11569503 samples = 19676 CDDA sectors
File Size : 10.5M
Bit Rate : 320k
Sample Encoding: MPEG audio (layer I, II or III)
Comments :
Artist=Moral Insanity
Album=Hatred
Tracknumber=2
Year=2000
Genre=9

[/more]

Register
(14) caro, fr47, METALHUNTER, Mogozoz, Olethros, sergsazan, stumpheavyrock, Svafrlami, Taakeferd, VALERY, varlam4, wanderer73, wreak, zhol,
Aug 4 2021, 08:58:49 Necrocock - Bipolární Noci (2021)


*Artist: Necrocock
*Album: Bipolární Noci
*Year: 2021
*Genre: Experimental/Post-Metal/Post-Rock
*Country: Czech Republic
*Format: mp3@CBR224kbps
*Size: 75MB

Tracklist:
1. Za starou saunou
2. Bipolární noci
3. Mimika
4. Zabil jsem posvátnýho hulmana
5. Cassiopeia
6. Vakace
7. Hádej, kde jsme včera byli
8. Jídelní hudba pro princeznu Karolínku
9. Únos
10. Když se dívky bojí
11. Jack staví dům
12. Saigon lady
******************************
Total playing time: 46:19


Bandzone

[more=Technical info]
Input File: 02 Bipolární noci.mp3
Channels : 2
Sample Rate : 44100
Precision : 16-bit
Duration : 00:03:58.69 = 10526405 samples = 17902 CDDA sectors
File Size : 6.73M
Bit Rate : 225k
Sample Encoding: MPEG audio (layer I, II or III)
Comments :
Title=bipolarni noci
Artist=Necrocock
Album=Bipol?rn? noci
Tracknumber=2
Year=2021
Genre=12

[/more]

Register
(10) aleon, Buregon, cancer1974, Chasm, Constantinus I, mirotvorets, Mist13Signifier, obituarydark, UlvhedinGrom, Wail,
Jun 30 2021, 12:45:00 Within Temptation - Shed My Skin [ep] (2021)


*Artist: Within Temptation
*Album: Shed My Skin [ep]
*Year: 2021
*Genre: Symphonic/Alternative Metal
*Country: Netherlands
*Format: mp3@CBR320kbps
*Size: 57MB

Tracklist:
1. Shed My Skin 04:30
2. The Purge 04:16
3. Entertain You 03:31
4. Shed My Skin 04:30 instrumental
5. The Purge 04:21 instrumental
6. Entertain You 03:31 instrumental
******************************
Total playing time: 24:39




[more=Technical info]
Input File: 01 - Shed My Skin.mp3
Channels : 2
Sample Rate : 44100
Precision : 16-bit
Duration : 00:04:30.00 = 11907000 samples = 20250 CDDA sectors
File Size : 10.9M
Bit Rate : 324k
Sample Encoding: MPEG audio (layer I, II or III)
Comments :
Title=Shed My Skin
Artist=Within Temptation/Annisokay
Album=Shed My Skin
Tracknumber=1
Year=2021-25-06
Genre=9
Discnumber=1

[/more]

Register
(25) after21allD, Aresson, boby9052, djsema4, GorAtheist, gwar, gwynnbleid, Hell_Is_Here, HMHamster, Kasper969, kimkayoung, Lanceatum, Metalass, Olethros, Reverend, Rover, sergsazan, Shadechaser, talismanFS, terron, thenecromancer, varlam4, wreak, yuratroll, Сварог Барг,
Jun 11 2021, 06:58:06 Blood Prophecy - In Your Chaos (2021)


*Artist: Blood Prophecy
*Album: In Your Chaos
*Year: 2021
*Genre: Melodic Death Metal
*Country: Japan
*Format: mp3@CBR320kbps
*Size: 77MB

Tracklist:
1. In Your Chaos 01:23 (instrumental)
2. The World on the Fire 03:56
3. I Feel Regret 04:54
4. Selfishness 05:11
5. Enthrone of Tyrant 04:03
6. Phobia 05:16
7. Deep Darkness of Spirit 06:02
8. Gone with the Wind 02:25 (instrumental)
******************************
Total playing time: 33:10




[more=Technical info]
Input File: Blood Prphecy - In Your Chaos - 02 The World On The Fire.mp3
Channels : 2
Sample Rate : 44100
Precision : 16-bit
Duration : 00:03:56.08 = 10411172 samples = 17706.1 CDDA sectors
File Size : 9.53M
Bit Rate : 323k
Sample Encoding: MPEG audio (layer I, II or III)
Comments :
Title=The World On The Fire
Artist=Blood Prphecy
Album=In Your Chaos
Tracknumber=2
Year=2021
Genre=9

[/more]

Register
(19) chipsgott, gwynnbleid, HMHamster, infiltrator, Lukittaz, metalwoman, Mogozoz, Olethros, sergsazan, Taakeferd, talismanFS, VALERY, varlam4, Wail, wanderer73, wn129aa, wreak, zhol, Сварог Барг,

251 Pages V   1 2 3 > » 
- Lo-Fi Version Support form
Copyrights and abuse reports form
Time is now: 24th May 2022 - 19:01:02