Welcome Guest ( Log In | Register )

История благодарностей участнику Gelukas ::: Спасибо сказали: 43470 раз(а)
Дата поста: В теме: За сообщение: Спасибо сказали:
Yesterday, 14:39:50 Abominable Putridity - Non Infinite Sequence [single] (2020)


*Artist: Abominable Putridity
*Album: Non Infinite Sequence [single]
*Year: 2020
*Genre: Brutal Death Metal
*Country: Russian Federation
*Format: mp3@CBR320kbps
*Size: 7MB

Tracklist:
1. Non Infinite Sequence 02:58
******************************
Total playing time: 2:58




[more=Technical info]
Input File: 01 - Non Infinite Sequence.mp3
Channels : 2
Sample Rate : 44100
Precision : 16-bit
Duration : 00:02:58.48 = 7871012 samples = 13386.1 CDDA sectors
File Size : 7.29M
Bit Rate : 327k
Sample Encoding: MPEG audio (layer I, II or III)
Comments :
Title=Non Infinite Sequence
Artist=Abominable Putridity
Album=Non Infinite Sequence
Tracknumber=1/1
Year=2020
Genre=Slamming Brutal Death Metal
Discnumber=1/1

[/more]

Register
(5) ALEXSATHANAS, maochen, morbidangelo, Olethros, varlam4,
Yesterday, 13:44:51 Sectesy - Jesus Christ Superlunch [ep] (2019)


*Artist: Sectesy
*Album: Jesus Christ Superlunch [ep]
*Year: 2019
*Genre: Death Metal
*Country: Czech Republic
*Format: mp3@CBR320kbps
*Size: 53MB

Tracklist:
1. The Last Thrills of Humanity
2. Ominous Throbbing
3. By My Own Hand (Cemetary cover)
4. Convulsive Headless Wading
******************************
Total playing time: 22:35




[more=Technical info]
Input File: 02 Omnious Throbbing.mp3
Channels : 2
Sample Rate : 44100
Precision : 16-bit
Duration : 00:07:01.49 = 18587797 samples = 31611.9 CDDA sectors
File Size : 17.1M
Bit Rate : 324k
Sample Encoding: MPEG audio (layer I, II or III)
Comments :
Artist=Sectesy
Album=Jesus Christ Superlunch
Tracknumber=2
Year=2019
Genre=9

[/more]

Register
(2) morbidangelo, Olethros,
Yesterday, 13:35:16 Bowelfuck - Fragments (2017)


*Artist: Bowelfuck
*Album: Fragments
*Year: 2017
*Genre: Grindcore
*Country: Czech Republic
*Format: mp3@CBR320kbps
*Size: 67MB

Tracklist:
1. Why 01:39
2. War Inside 01:34
3. Casket 01:34
4. Strict 01:28
5. Thread 01:51
6. I'm Not 01:33
7. Explosion 00:26
8. Better 01:48
9. Fragments 00:52
10. Trapped 01:57
11. Wasteland 01:54
12. Redemption 02:02
13. Illusion 00:54
14. Now Is the Time 01:52
15. I'm Stuck 01:46
16. Two Fields - Three Days 02:25
******************************
Total playing time: 25:35




[more=Technical info]
Input File: 02. War Inside.mp3
Channels : 2
Sample Rate : 44100
Precision : 16-bit
Duration : 00:01:34.00 = 4145400 samples = 7050 CDDA sectors
File Size : 4.34M
Bit Rate : 369k
Sample Encoding: MPEG audio (layer I, II or III)
Comments :
Title=War Inside
Artist=Bowelfuck
Album=Fragments
Tracknumber=02
Year=2017
Genre=grind

[/more]

Register
(5) atavist, jollo, KKK1488, Olethros, wgs73,
Yesterday, 13:31:55 Bowelfuck - Decades (2020)


*Artist: Bowelfuck
*Album: Decades
*Year: 2020
*Genre: Grindcore
*Country: Czech Republic
*Format: mp3@CBR320kbps
*Size: 59MB

Tracklist:
1. Deceades 01:52
2. Personal Genocide 01:29
3. Scattered 01:23
4. Blame On You 01:16
5. Shame On You 00:57
6. Dodser 01:13
7. Listen 01:52
8. Snitch 01:27
9. Distasteful 01:29
10. Lobotomobile 01:57
11. Set On The Board 01:59
12. Nap 02:17
13. Hitman 01:54
14. Majesty 01:34
15. Problem Solved 00:35
******************************
Total playing time: 23:14




[more=Technical info]
Input File: 02. Personal Genocide.mp3
Channels : 2
Sample Rate : 44100
Precision : 16-bit
Duration : 00:01:29.16 = 3932132 samples = 6687.3 CDDA sectors
File Size : 3.94M
Bit Rate : 353k
Sample Encoding: MPEG audio (layer I, II or III)
Comments :
Title=Personal Genocide
Artist=Bowelfuck
Album=Decades
Tracknumber=02
Year=2020
Genre=grind

[/more]

Register
(5) atavist, jollo, KKK1488, Olethros, wgs73,
Yesterday, 12:59:41 G.O.D. - 180 Dba: Dawn Of A New World (2016)


*Artist: G.O.D.
*Album: 180 Dba: Dawn Of A New World
*Year: 2016
*Genre: Speed/Thrash Metal
*Country: Honduras
*Format: mp3@CBR128kbps
*Size: 42MB

Tracklist:
1. Countdown to Armageddon 03:53 (instrumental)
2. New World Devastation 07:53
3. Cyber Assassin 06:16
4. Dark Inheritance 05:43
5. War Disciples 06:08
6. Unleash the Virus 03:40
7. Signs of the Apocalypse 05:28
8. Symbiogenesis 06:35
******************************
Total playing time: 45:36




[more=Technical info]
Input File: 2.- New World Devastation.mp3
Channels : 2
Sample Rate : 44100
Precision : 16-bit
Duration : 00:07:54.98 = 20946794 samples = 35623.8 CDDA sectors
File Size : 7.58M
Bit Rate : 128k
Sample Encoding: MPEG audio (layer I, II or III)
Comments :
Artist=G.O.D.
Album=180 DBA: Dawn of a New World
Tracknumber=2
Year=2016
Genre=9

[/more]

Register
(3) stumpheavyrock, wgs73, Z28517,
Yesterday, 09:53:17 Necrocock - Křivoklátské Martyrium (2018)


*Artist: Necrocock
*Album: Křivoklátské Martyrium
*Year: 2018
*Genre: Experimental/Post-Metal/Post-Rock
*Country: Czech Republic
*Format: mp3@CBR224kbps
*Size: 110MB

Tracklist:
1. Zrození Nemodlenky (intro)
2. Forenzní hypnotizér
3. Stoupám k Oupoři
4. Boromějka narkotizérka
5. Hraju na hydraulofon
6. Zvíkovecké harmonium
7. U buližníkových skal
8. V luhu
9. Pátrám pod Amalínem
10. Otýlie hárá
11. V sakrální ložnici
12. Smrt v hospodě U šesti trampů
13. Početí
14. Nemodlenka létá
15. Sluneční pokoj
16. Zpívej, zpívej studánko
17. Liščí neděle
******************************
Total playing time: 1:07:18


Bandzone

[more=Technical info]
Input File: 02 Forenzní hypnotizér.mp3
Channels : 2
Sample Rate : 44100
Precision : 16-bit
Duration : 00:04:05.80 = 10839780 samples = 18435 CDDA sectors
File Size : 7.03M
Bit Rate : 229k
Sample Encoding: MPEG audio (layer I, II or III)
Comments :
Title=forezni hypnotizer
Artist=Necrocock
Album=Křivoklátské martyrium
Tracknumber=2
Year=2018
Genre=9

[/more]

Register
(1) Olethros,
Mar 30 2020, 13:46:38 Dopamine - Dying Away In The Deep Fall (2019)


*Artist: Dopamine
*Album: Dying Away In The Deep Fall
*Year: 2019
*Genre: Black Metal/Depressive Rock/Shoegaze
*Country: China
*Format: mp3@CBR320kbps
*Size: 273MB

Tracklist:
Disc 1 - Dying Away in the Deep Fall:
1. Intro 02:07 (instrumental)
2. Incised by Water | 水棱 07:17
3. Night of Confusion I | 迷夜 Pt.I 07:03
4. Night of Confusion II | 迷夜 Pt.II 07:47
5. Melting | 溶解 06:12
6. Dying Away in the Deep Fall | 逝於深秋 09:23

Disc 2 - Dying Away in the Deep Fall (Instrumental):
1. Intro 02:07
2. Incised by Water | 水棱 07:17
3. Night of Confusion I | 迷夜 Pt.I 07:03
4. Night of Confusion II | 迷夜 Pt.II 07:14
5. Melting | 溶解 06:12
6. Dying Away in the Deep Fall | 逝於深秋 09:23

Disc 3 - Dying Away in the Deep Fall - Demo:
1. I: 水棱 07:24 (instrumental)
2. II: 迷夜 Pt.I 07:05 (instrumental)
3. III: 迷夜 Pt.II 07:45 (instrumental)
4. IV: 溶解 09:05
5. V: 逝於深秋 09:03 (instrumental)
******************************
Total playing time: 1:59:27




[more=Technical info]
Input File: 103 Night of Confusion I 迷夜 Pt.I.mp3
Channels : 2
Sample Rate : 44100
Precision : 16-bit
Duration : 00:07:03.50 = 18676218 samples = 31762.3 CDDA sectors
File Size : 16.9M
Bit Rate : 320k
Sample Encoding: MPEG audio (layer I, II or III)
Comments :
Title=Night Of Confusion I
Artist=Dopamine
Album=Dying Away In The Deep Fall
Tracknumber=3
Year=2019
Genre=9

[/more]

Register
(5) craP_cillA, infiltrator, KKK1488, morbidangelo, Olethros,
Mar 30 2020, 13:21:43 Holokastrial - Echoes From The Devil Vallry (2019)


*Artist: Holokastrial
*Album: Echoes From The Devil Vallry
*Year: 2019
*Genre: Death Metal
*Country: China
*Format: mp3@CBR128kbps
*Size: 41MB

Tracklist:
1. Intro 00:32
2. Altar of Death 05:20
3. Dark Portal 04:59
4. Echoes from the Devil Vallry 06:26
5. Horror of Abomination 04:03
6. Superion Trial 05:02
7. Plague of Truth, Gate to Another World 04:48
8. Override of the Overture (Dismember cover) 04:51
9. Nightclub King 04:29
******************************
Total playing time: 40:30




[more=Technical info]
Input File: 02. Altar of Death.mp3
Channels : 2
Sample Rate : 44100
Precision : 16-bit
Duration : 00:05:20.74 = 14144766 samples = 24055.7 CDDA sectors
File Size : 5.63M
Bit Rate : 140k
Sample Encoding: MPEG audio (layer I, II or III)
Comments :
Title=Altar Of Death
Artist=Holokastrial
Album=Echoes From The Devil Vallry
Tracknumber=2
Year=2019
Genre=9

[/more]

Register
(4) infiltrator, jollo, morbidangelo, Olethros,
Mar 30 2020, 13:08:23 Hate & Deceit - Collateral Damage (2019)


*Artist: Hate & Deceit
*Album: Collateral Damage
*Year: 2019
*Genre: Modern Metal
*Country: Denmark
*Format: mp3@CBR320kbps
*Size: 159MB

Tracklist:
1. Flee My Dream 05:50
2. Embarrassingly Sober 08:14
3. To Blacken the World 05:59
4. Collateral Damage 04:09
5. Shatter 05:19
6. All or Nothing 05:07
7. Hollow Eyes 04:21
8. Abnormality 07:09
9. Duskfall 07:08
10. No Man's Land 04:06
11. Slowly We'll Fall 04:23
12. These Darkest of Days 06:51
******************************
Total playing time: 1:08:36




[more=Technical info]
Input File: 02. Embarrassingly Sober.mp3
Channels : 2
Sample Rate : 44100
Precision : 16-bit
Duration : 00:08:14.55 = 21809831 samples = 37091.5 CDDA sectors
File Size : 20.0M
Bit Rate : 324k
Sample Encoding: MPEG audio (layer I, II or III)
Comments :
Title=Embarrassingly Sober
Artist=Hate & Deceit
Album=Collateral Damage
Tracknumber=2/12
Year=2019
Genre=9

[/more]

Register
(4) infiltrator, infozahist, Olethros, zhol,
Mar 30 2020, 12:54:11 Icon Of Destruction - Earth Spasms [ep] (2019)


*Artist: Icon Of Destruction
*Album: Earth Spasms [ep]
*Year: 2019
*Genre: Symphonic/Melodic Death Metal
*Country: France
*Format: mp3@CBR320kbps
*Size: 41MB

Tracklist:
1. The Eyeless 03:17
2. Earth Spasms 03:27
3. Cities Asleep 03:12
4. Take My Soul 03:59
5. Under the Darkened Sky 03:30
******************************
Total playing time: 17:25




[more=Technical info]
Input File: 02. Earth Spasms.mp3
Channels : 2
Sample Rate : 44100
Precision : 16-bit
Duration : 00:03:27.97 = 9171565 samples = 15597.9 CDDA sectors
File Size : 8.52M
Bit Rate : 328k
Sample Encoding: MPEG audio (layer I, II or III)
Comments :
Title=Earth Spasms
Artist=Icon Of Destruction
Album=Earth Spasms
Tracknumber=2
Year=2019
Genre=9

[/more]

Register
(7) infiltrator, infozahist, kimkayoung, morbidangelo, Olethros, soulflesh, zhol,
Mar 30 2020, 11:27:32 Hercólubus - Hercólubus [single] (2019)


*Artist: Hercólubus
*Album: Hercólubus [single]
*Year: 2019
*Genre: Melodic Death Metal
*Country: Peru
*Format: mp3@CBR320kbps
*Size: 22MB

Tracklist:
1. Hercólubus 05:41
2. Comprender la luz 04:01
******************************
Total playing time: 9:42




[more=Technical info]
Input File: 01. Hercólubus.mp3
Channels : 2
Sample Rate : 44100
Precision : 16-bit
Duration : 00:05:41.41 = 15056313 samples = 25606 CDDA sectors
File Size : 13.8M
Bit Rate : 323k
Sample Encoding: MPEG audio (layer I, II or III)
Comments :
Title=Hercólubus
Artist=Hercolubus
Album=Hercólubus
Tracknumber=1
Year=2019
Genre=Metal

[/more]

Register
(4) chipsgott, infiltrator, morbidangelo, Olethros,
Mar 30 2020, 11:23:25 Fracture - Medusa [ep] (2019)


*Artist: Fracture
*Album: Medusa [ep]
*Year: 2019
*Genre: Modern Melodic Death Metal
*Country: Germany
*Format: mp3@CBR320kbps
*Size: 31MB

Tracklist:
1. Awake To Fail
2. For Beyond Slavery
3. Medusa
******************************
Total playing time: 13:26




[more=Technical info]
Input File: 01. Awake to Fail.mp3
Channels : 2
Sample Rate : 44100
Precision : 16-bit
Duration : 00:05:15.08 = 13895028 samples = 23631 CDDA sectors
File Size : 12.7M
Bit Rate : 323k
Sample Encoding: MPEG audio (layer I, II or III)
Comments :
Title=Awake to Fail
Artist=Fracture
Album=Medusa
Tracknumber=1
Year=2019
Genre=9

[/more]

Register
(5) chipsgott, infiltrator, Olethros, zhol, Сварог Барг,
Mar 30 2020, 11:16:25 Ethereal Exile - Soul Beyond Time (2020)


*Artist: Ethereal Exile
*Album: Soul Beyond Time
*Year: 2020
*Genre: Melodic Death Metal
*Country: Poland
*Format: mp3@CBR128kbps
*Size: 30MB

Tracklist:
1. Infinity Mirror 04:08
2. The Hermit 04:32
3. Scarlet Queen 04:56
4. Tears of Rage 05:04
5. Six Day Mark 04:33
6. Chains of Destiny 04:15
7. Lucid Birth of Night 04:43
******************************
Total playing time: 32:11




[more=Technical info]
Input File: 02 - The Hermit.mp3
Channels : 2
Sample Rate : 44100
Precision : 16-bit
Duration : 00:04:32.99 = 12038683 samples = 20474 CDDA sectors
File Size : 4.44M
Bit Rate : 130k
Sample Encoding: MPEG audio (layer I, II or III)
Comments :
Title=The Hermit
Artist=Ethereal Exile
Album=Soul Beyond Time
Tracknumber=2/7
Year=2020
Genre=9

[/more]

Register
(4) infiltrator, morbidangelo, Olethros, zhol,
Mar 30 2020, 11:12:11 Devonian - Witchcraft [ep] (2020)


*Artist: Devonian
*Album: Witchcraft [ep]
*Year: 2020
*Genre: Modern Melodic Metal
*Country: Australia
*Format: mp3@CBR320kbps
*Size: 42MB

Tracklist:
1. Collateral Damage 04:43
2. Crush 04:09
3. Abyssus 04:35
4. Witchcraft 04:43
******************************
Total playing time: 18:10




[more=Technical info]
Input File: 01. Collateral Damage.mp3
Channels : 2
Sample Rate : 44100
Precision : 16-bit
Duration : 00:04:43.16 = 12487180 samples = 21236.7 CDDA sectors
File Size : 11.4M
Bit Rate : 323k
Sample Encoding: MPEG audio (layer I, II or III)
Comments :
Title=Collateral Damage
Artist=Devonian
Album=Witchcraft
Tracknumber=1
Year=2020
Genre=9

[/more]

Register
(6) chipsgott, infiltrator, nospeedlimit, Olethros, zhol, Сварог Барг,
Mar 30 2020, 07:56:34 Datara - The Climb [ep] (2019)


*Artist: Datara
*Album: The Climb [ep]
*Year: 2019
*Genre: Progressive/Groove Metal
*Country: United States
*Format: mp3@CBR320kbps
*Size: 62MB

Tracklist:
1. The Climb 03:40
2. Concussion 04:13
3. Belphegor's Prime 05:30
4. Perseveration 05:38
5. 4D 02:25
6. Ride of the Septimoors 04:34
******************************
Total playing time: 26:00



[more=Technical info]
Input File: 02. Concussion.mp3
Channels : 2
Sample Rate : 44100
Precision : 16-bit
Duration : 00:04:14.01 = 11201621 samples = 19050.4 CDDA sectors
File Size : 10.5M
Bit Rate : 330k
Sample Encoding: MPEG audio (layer I, II or III)
Comments :
Title=Concussion
Artist=Datara
Album=The Climb
Tracknumber=2/6
Year=2019
Genre=9

[/more]

Register
(6) chipsgott, infiltrator, morbidangelo, Olethros, RotAnus, Vladimir,
Mar 30 2020, 07:49:38 Amhortex - Esclavos Por Herencia [ep] (2019)


*Artist: Amhortex
*Album: Esclavos Por Herencia [ep]
*Year: 2019
*Genre: Thrash/Death/Groove Metal
*Country: Argentina
*Format: mp3@CBR320kbps
*Size: 37MB

Tracklist:
1. Apología a la destrucción 04:37
2. Esclavos por herencia 03:59
3. When the World Burns 04:34
4. Rastros del ayer 02:58
******************************
Total playing time: 16:08




[more=Technical info]
Input File: 02 - Esclavos Por Herencia.mp3
Channels : 2
Sample Rate : 44100
Precision : 16-bit
Duration : 00:03:59.69 = 10570285 samples = 17976.7 CDDA sectors
File Size : 9.67M
Bit Rate : 323k
Sample Encoding: MPEG audio (layer I, II or III)
Comments :
Title=Esclavos Por Herencia
Artist=Amhortex
Album=Esclavos Por Herencia
Tracknumber=2
Year=2019-08-15
Genre=Metal
Discnumber=1

[/more]

Register
(5) infiltrator, ironjuan, morbidangelo, Olethros, varlam4,
Mar 30 2020, 07:46:02 Sold - Empty Words [ep] (2020)


*Artist: Sold
*Album: Empty Words [ep]
*Year: 2020
*Genre: Melodic Metalcore
*Country: Estonia
*Format: mp3@CBR320kbps
*Size: 35MB

Tracklist:
1. Empty Words
2. Perverted Values
3. I Feel No Pain
4. A Man-Made Machine
******************************
Total playing time: 14:47




[more=Technical info]
Input File: 01 - Empty Words.mp3
Channels : 2
Sample Rate : 44100
Precision : 16-bit
Duration : 00:03:38.42 = 9632410 samples = 16381.6 CDDA sectors
File Size : 8.74M
Bit Rate : 320k
Sample Encoding: MPEG audio (layer I, II or III)
Comments :
Title=Empty Words
Artist=Sold
Album=Empty Words
Tracknumber=1
Year=2020
Genre=9

[/more]

Register
(5) chipsgott, infiltrator, Olethros, terron, zhol,
Mar 30 2020, 07:41:46 Shredding Skin - Influential Primitive [ep] (2020)


*Artist: Shredding Skin
*Album: Influential Primitive [ep]
*Year: 2020
*Genre: Death/Groove Metal
*Country: International
*Format: mp3@CBR320kbps
*Size: 49MB

Tracklist:
1. In a Moment 04:41
2. Massive Action 03:25
3. Milestone 04:21
4. Primal 03:27
5. Triumph 05:30
******************************
Total playing time: 21:24




[more=Technical info]
Input File: 02. Massive Action.mp3
Channels : 2
Sample Rate : 44100
Precision : 16-bit
Duration : 00:03:25.12 = 9045968 samples = 15384.3 CDDA sectors
File Size : 8.27M
Bit Rate : 323k
Sample Encoding: MPEG audio (layer I, II or III)
Comments :
Title=Massive Action
Artist=Shredding Skin
Album=Influential Primitive
Tracknumber=02
Year=2020
Genre=9
Discnumber=1

[/more]

Register
(5) cesar, chipsgott, infiltrator, morbidangelo, Olethros,
Mar 30 2020, 07:37:58 Ani Lo. Projekt - A Time Called Forever (2020)


*Artist: Ani Lo. Projekt
*Album: A Time Called Forever
*Year: 2020
*Genre: Symphonic/Progressive Metal
*Country: Bulgaria
*Format: mp3@CBR320kbps
*Size: 118MB

Tracklist:
1. Break My Chains 04:52
2. A Time Called Forever 05:47
3. Bleed 04:27
4. End Up in Sorrow 05:16
5. The Letter 03:53
6. Back to You 03:23
7. Cold Death 04:07
8. Feel Inside 03:13
9. Fly with Me 05:13
10. Don't Leave 03:19
11. My Misery 03:53
12. Walk Alone 04:15
******************************
Total playing time: 51:38




[more=Technical info]
Input File: 02. A Time Called Forever.mp3
Channels : 2
Sample Rate : 44100
Precision : 16-bit
Duration : 00:05:47.14 = 15308742 samples = 26035.3 CDDA sectors
File Size : 13.9M
Bit Rate : 320k
Sample Encoding: MPEG audio (layer I, II or III)
Comments :
Title=A Time Called Forever
Artist=Ani Lo. Projekt
Album=A Time Called Forever
Tracknumber=2
Year=2020-03-20
Genre=9
Discnumber=1

[/more]

Register
(16) ace73pq, Alpha_Prime, aviacademy, BladeOvDarkness, chipsgott, dimitriusk, infiltrator, kimkayoung, morbidangelo, nospeedlimit, Olethros, Olrak, postal67, valera2010, varlam4, Сварог Барг,
Mar 30 2020, 07:33:13 The Virtuosity Effect - Celestial Apocalypse (2020)


*Artist: The Virtuosity Effect
*Album: Celestial Apocalypse
*Year: 2020
*Genre: Instrumental Progressive Metal
*Country: United States
*Format: mp3@CBR320kbps
*Size: 100MB

Tracklist:
1. A Twisted Reflection 05:08
2. Reign of Terror 08:32
3. The Gray Ones 04:05
4. Beyond Infinity 05:32
5. Intergalactic Conquest Suite 08:17
6. Starfall and Sunfire 05:03
7. Celestial Apocalypse 06:10
******************************
Total playing time: 42:47




[more=Technical info]
Input File: 02. Reign of Terror.mp3
Channels : 2
Sample Rate : 44100
Precision : 16-bit
Duration : 00:08:32.19 = 22587491 samples = 38414.1 CDDA sectors
File Size : 20.9M
Bit Rate : 326k
Sample Encoding: MPEG audio (layer I, II or III)
Comments :
Title=Reign of Terror
Artist=The Virtuosity Effect
Album=Celestial Apocalypse
Tracknumber=2/7
Year=2020
Genre=9

[/more]

Register
(6) chipsgott, dimitriusk, infiltrator, kimkayoung, Olethros, Сварог Барг,
Mar 30 2020, 07:29:23 Daeria - Alter (2020)


*Artist: Daeria
*Album: Alter
*Year: 2020
*Genre: Melodic Heavy/Power Metal
*Country: Spain
*Format: mp3@CBR320kbps
*Size: 86MB

Tracklist:
1. Miedo 05:05
2. El ojo de Aughra 04:53
3. Bailarina 04:56
4. Parte de ti 04:39
5. Horus 04:38
6. Siete mares 03:37
7. Instinto 03:47
8. Hielo 04:19
******************************
Total playing time: 35:54




[more=Technical info]
Input File: 02. El Ojo de Aughra.mp3
Channels : 2
Sample Rate : 44100
Precision : 16-bit
Duration : 00:04:53.82 = 12957374 samples = 22036.4 CDDA sectors
File Size : 12.3M
Bit Rate : 334k
Sample Encoding: MPEG audio (layer I, II or III)
Comments :
Title=El Ojo de Aughra
Artist=Daeria
Album=Alter
Tracknumber=2/8
Year=2020
Genre=9

[/more]

Register
(7) aviacademy, Herrant, infiltrator, Olethros, Rover, zhol, Сварог Барг,
Mar 30 2020, 07:26:27 CCD - Winter In Paradise (2020)


*Artist: CCD
*Album: Winter In Paradise
*Year: 2020
*Genre: Melodic Heavy Metal
*Country: Sweden
*Format: mp3@CBR320kbps
*Size: 118MB

Tracklist:
1. Death Angel
2. Right Back at You
3. Obstacles
4. Narcissus
5. Mysterious Ways
6. Temple of Mammon
7. Into Dystopia
8. Hell Is Loving You
9. Fighter
10. Partycrasher
11. Black Crystal Ball
12. Other Side of Heaven
******************************
Total playing time: 51:27



[more=Technical info]
Input File: 02. Right Back at You.mp3
Channels : 2
Sample Rate : 44100
Precision : 16-bit
Duration : 00:04:15.83 = 11282279 samples = 19187.5 CDDA sectors
File Size : 10.3M
Bit Rate : 322k
Sample Encoding: MPEG audio (layer I, II or III)
Comments :
Title=Right Back at You
Artist=CCD
Album=Winter in Paradise
Tracknumber=2/12
Year=2020
Genre=9
Discnumber=1/1

[/more]

Register
(10) aviacademy, BugEyes, infiltrator, Olethros, postal67, Rover, sergsazan, wn129aa, zhol, Сварог Барг,
Mar 30 2020, 07:21:04 Aryem - Dangerous Paradise (2020)


*Artist: Aryem
*Album: Dangerous Paradise
*Year: 2020
*Genre: Symphonic Metal
*Country: Mexico
*Format: mp3@CBR320kbps
*Size: 107MB

Tracklist:
1. Prelude 00:55
2. I Will Fly Away 03:57
3. Horizon Cries 04:14
4. We Told You 04:32
5. Betrayed 04:22
6. Tesoro de tu libertad 03:15
7. A Journey Through Classical Music 03:33
8. Premonition 03:15
9. La llorona 03:30
10. Such a Dangerous Paradise 04:04
11. Echoes 03:19
12. Flames of Passion 06:44
******************************
Total playing time: 45:40




[more=Technical info]
Input File: 3 - Horizon Cries.mp3
Channels : 2
Sample Rate : 44100
Precision : 16-bit
Duration : 00:04:14.87 = 11239635 samples = 19115 CDDA sectors
File Size : 10.3M
Bit Rate : 322k
Sample Encoding: MPEG audio (layer I, II or III)
Comments :
Title=Horizon Cries
Artist=Aryem
Album=Dangerous Paradise
Tracknumber=3
Year=2020
Genre=Metal
Discnumber=1

[/more]

Register
(11) ace73pq, Alpha_Prime, aviacademy, chipsgott, death1ess, infiltrator, Olethros, Rover, sergsazan, varlam4, Сварог Барг,
Mar 30 2020, 07:17:18 Eve Desire - Prelude To Singularity (2020)


*Artist: Eve Desire
*Album: Prelude To Singularity
*Year: 2020
*Genre: Symphonic Metal
*Country: Brazil
*Format: mp3@CBR320kbps
*Size: 83MB

Tracklist:
1. Quantica 05:22
2. Chronos 04:56
3. New Past 04:21
4. Vitruvia 05:47
5. Mayan 04:14
6. Eternally 04:12
7. Elysium 03:17
8. Black Hole 03:38
******************************
Total playing time: 35:47




[more=Technical info]
Input File: 02. Chronos.mp3
Channels : 2
Sample Rate : 44100
Precision : 16-bit
Duration : 00:04:56.59 = 13079707 samples = 22244.4 CDDA sectors
File Size : 12.0M
Bit Rate : 324k
Sample Encoding: MPEG audio (layer I, II or III)
Comments :
Title=Chronos
Artist=Eve Desire
Album=Prelude To Singularity
Tracknumber=2/8
Year=2020
Genre=Metal
Discnumber=1/1

[/more]

Register
(10) ace73pq, aviacademy, chipsgott, infiltrator, nospeedlimit, Olethros, Rover, sergsazan, valera2010, Сварог Барг,
Mar 27 2020, 14:56:54 Little Princess - Song Collection [ep] (1997)


*Artist: Little Princess
*Album: Song Collection [ep]
*Year: 1997
*Genre: Hardcore/Powerviolence
*Country: Japan
*Format: mp3@CBR320kbps
*Size: 36MB

Tracklist:
1. Carpet Man
2. Disqualified Human Being
3. Red Handkerchief
4. Shiny Diamond
5. Dried Squid With Mayonnaise And Soy Sauce
6. Debuo More Food
7. Monsieur P
8. Downstairs Neighbor
******************************
Total playing time: 7:04



[more=Technical info]
Input File: 03 Red Handkerchief.mp3
Channels : 2
Sample Rate : 44100
Precision : 16-bit
Duration : 00:00:40.08 = 1767396 samples = 3005.78 CDDA sectors
File Size : 4.17M
Bit Rate : 832k
Sample Encoding: MPEG audio (layer I, II or III)
Comments :
Title=Red Handkerchief
Artist=Little Princess
Album=Song Collection
Tracknumber=3
Year=1997
Genre=9

[/more]

Register
(2) infiltrator, Olethros,

242 Pages V   1 2 3 > » 
- Lo-Fi Version Support form
Copyrights and abuse reports form
Time is now: 1st April 2020 - 05:19:23