Welcome Guest ( Log In | Register )

История благодарностей участнику Lugia010719d1 ::: Спасибо сказали: 357 раз(а)
Дата поста: В теме: За сообщение: Спасибо сказали:
Apr 5 2019, 18:18:44 Eluveitie - Ategnatos (2019)
Awesome. This really seems like a real "rebirth" of Eluveitie.
(2) infiltrator, MeatWolf,
Mar 4 2016, 12:40:01 Darksun - Crónicas De Aravan (2016)
Seems like re-issued Demos of first 2 albums or something. Production quality quite bad, vocals weak and generally it doesn't bring anything valuable. Probably only for die-hard fans and collectors of Darksun.
(1) MeatWolf,
Aug 27 2015, 13:54:20 Wolfheart - Shadow World (2015)
Alternative CR-Rip (320kbps MP3)
Also includes text file with all the lyrics (you got them on metal-archives.com now as well)
Register
(7) -=Lion=-, AlivePhantom, Hedgehog666, infiltrator, loicv70, Model FEAR, Sky7Daemon,
Feb 23 2015, 23:42:46 Ascendia - The Lion And The Jester (2015)
Now this is a surprise. Never heard about this band. It is not even yet in metal-archives.com. Not really that much "symphonic" (some orchestrations are there, but the focus is on Metal), but very solid Heavy / Progressive Metal with outstanding vocals.
This is definitely worth a listen.
(2) MeatWolf, Yarri,
Feb 21 2015, 22:35:41 NeoliX - Наследие (2015)
Sounds similiar to Illidiance and Digimortal...
(1) MeatWolf,
Feb 19 2015, 21:52:52 Cyntia - Woman (2015)
Hmm.. compared to baby metal this sounds more consistent and mature.. Something like 0melodic Japanese Rock (J-Rock) combined with silly pop music... I can hear lots of things there, but.. where is the Metal? Or Power Metal for that matter? Compared to most Japanese pop, this might sound like Brutal Death Metal, but only because this is quite normal music smile4.gif
I think this got into this forum by accident.
(1) MeatWolf,
Feb 2 2015, 18:24:37 Wolfheart - Winterborn (2013)
2015 Re-Issue containing 2 new bonus tracks:
10 Isolation
11 Into the Wild

Register



I have also added the bonus tracks from previous version (Frey, 4-19 am), but they are from a different source, so I cannot guarantee their quality. Everything else is a CD-Rip from the new release.
(4) finmetal, Luminous, MeatWolf, Ostinato,
Jan 5 2015, 20:33:24 Asmodeus - Past Na Davida Kleinera (2014)
Thank you smile1.gif So thanks to this Russian forum I found out that a band from my own country has released a new album...
(1) Vastich,
Dec 26 2014, 23:21:33 Anthology - Exitus [demo] (2011)
Register
(2) karpenka, varlam4,
Dec 23 2014, 21:52:57 Anthology - The Prophecy (2014)


*Artist: Anthology
*Album: The Prophecy
*Year: 2014
*Genre: Melodic Power Metal
*Country: Slovakia
*Format: mp3@CBR320kbps
*Size: 114MB

Tracklist:
1. The River of the Mystery 1:43
2. The Prophecy 4:45
3. Lost Dreams 5:26
4. Rise Up! 4:41
5. Scream into the Darkness 7:44
6. Open Your Eyes 5:37
7. No Sorrow 5:21
8. Inside My Rage 5:39
9. Fate in Your Hands 5:50
10. The Secret of Midnight 5:00
11. No Sorrow (Orchestral version) 5:24
******************************
Total playing time: 57:10

Official Homepage



[more=Extended info]Melodic Power Metal with female vocals from Slovakia

Peter Pleva Drums
Majo Gonda Guitars (lead)
Miro Grman Guitars (rhythm)
Martin Solárik Keyboards
Marek Štech Bass (2013-present)
Ľubica "Ľubka" Gavlasová Vocals (2014-present)[/more]

[more=Technical info]
Input File: 02 The Prophecy.mp3
Channels : 2
Sample Rate : 44100
Precision : 16-bit
Duration : 00:04:45.00 = 12568500 samples = 21375 CDDA sectors
File Size : 11.3M
Bit Rate : 318k
Sample Encoding: MPEG audio (layer I, II or III)
Comments :
Title=The Prophecy
Artist=Anthology
Album=The Prophecy
Tracknumber=02/11
Year=2014
Genre=Metal

[/more]

Register
(12) Alpha_Prime, MeatWolf, metaljan, Metropolis, Mogozoz, oldvarg, Phlebotomized, Rosen, sadmannn, varlam4, watasan, wreak,
Dec 23 2014, 17:29:22 Pathfinder - Fifth Element (Primal Alley Vocal Lines) [single] (2014)


*Artist: Pathfinder
*Album: Fifth Element (Primal Alley Vocal Lines) [single]
*Year: 2014
*Genre: Symphonic Power Metal
*Country: Poland
*Format: mp3@CBR320kbps
*Size: 33MB

Tracklist:
01 - Fifth Element (Primal Alley Vocal) 8:45
02 - Fifth Element (Primal Alley Vocal) (Video Edit) 6:01
******************************
Total playing time: 14:46

IGG
VKontakte

[more=Extended info]New version of Fifth Element with new vocalist Przemyslaw Uliczka (Primal Alley).
Contains also the edit that will be used for new music video.
Released 2014-12-23 as part of the fundraising campaign for new music video
Anyone can help with the music video campaign as well here:http://igg.me/at/pathfinder-videos-campaign[/more]

[more=Technical info]
Input File: 01 - Fifth Element (Primal Alley Vocal).mp3
Channels : 2
Sample Rate : 44100
Precision : 16-bit
Duration : 00:08:45.12 = 23157572 samples = 39383.6 CDDA sectors
File Size : 21.0M
Bit Rate : 320k
Sample Encoding: MPEG audio (layer I, II or III)
Comments :
Title=Fifth Element 2.0
Artist=Pathfinder
Album=Pathfinder
Year=2014
Genre=Metal

[/more]

Register
(2) poerland, Veggr,
Sep 26 2014, 00:00:13 The L-Train - Moonrise - A Symphonic Metal Opera (2014)


*Artist: The L-Train
*Album: Moonrise - A Symphonic Metal Opera
*Year: 2014
*Genre: Symphonic Metal
*Country: Unknown
*Format: mp3@CBR320kbps
*Size: 124MB

Tracklist:
1. Scene 1: Prelude 03:04
2. Scene 2: Harmony 04:04
3. Scene 3: Nightfall 03:41
4. Scene 4: Lunar March 04:40
5. Scene 5: Battle of Sun and Moon 02:33
6. Scene 6: Daybreak 02:02
7. Scene 7: Harmony Restored 05:39
8. Scene 2: Harmony (Karaoke) 04:04
9. Scene 3: Nightfall (Karaoke) 03:41
10. Scene 4: Lunar March (Karaoke) 04:40
11. Scene 6: Daybreak (Karaoke) 02:02
12. Scene 7: Harmony Restored (Karaoke) 05:39
******************************
Total playing time: 45:49




[more=Extended info]A Symphonic Metal opera from the world of My Little Pony
Lyrics: https://dl.dropboxusercontent.com/u/4648080...bum%20Notes.pdf[/more]

[more=Technical info]
Input File: The L-Train (and friends) - Moonrise - 02 Scene 2- Harmony.mp3
Channels : 2
Sample Rate : 44100
Precision : 16-bit
Duration : 00:04:04.95 = 10802163 samples = 18371 CDDA sectors
File Size : 9.96M
Bit Rate : 325k
Sample Encoding: MPEG audio (layer I, II or III)
Comments :
Title=Scene 2: Harmony
Artist=The L-Train (and friends)
Album=Moonrise
Tracknumber=2
Year=2014

[/more]

Register
(11) avkruchinin, Cartman223, dagger666, garretje, gwar, gwynnbleid, Ice Gnoll, legion01, Rosen, wreak, Yarri,
Aug 1 2014, 14:48:06 Illidiance - Shockwave [single] (2014)
I would also like to see a full-length from them. I actually like their current style, but this way of releasing a single or EP here and there just sucks. That fits Dubstep, not Metal.
(1) MeatWolf,
Aug 1 2014, 09:03:33 Illidiance - Shockwave [single] (2014)


*Artist: Illidiance
*Album: Shockwave [single]
*Year: 2014
*Genre: Cyber Metal
*Country: Russian Federation
*Format: mp3@VBR275kbps
*Size: 15MB

Tracklist:
01. Shockwave 03:56
02. Open Your Eyes (Guano Apes cover) 03:44
******************************
Total playing time: 7:40


VKontakte

[more=Extended info]New single from the cyber-metal band Illidiance[/more]

Register
(10) Alpha_Prime, DenisKov, Fatalv, Fess, gwynnbleid, Reverend, Rosen, SameMan, spiritualdecay666, wreak,
Jan 3 2014, 06:54:19 Illidiance - Deformity [ep] (2013)


*Artist: Illidiance
*Album: Deformity [ep]
*Year: 2013
*Genre: Cyber Metal
*Country: Russian Federation
*Format: mp3@VBR300kbps
*Size: 47MB

Tracklist:
1. Deformity 03:59
2. Boiling Point 03:43
3. Urbanized 04:47
4. Let It Bleed 03:41
5. Moments of the Fall 05:27
******************************
Total playing time: 21:37


VKontakte

[more=Extended info]Release date: December 24th, 2013[/more]

[more=Technical info]
Input File: 02 Boiling Point.mp3
Channels : 2
Sample Rate : 44100
Precision : 16-bit
Duration : 00:03:43.27 = 9846251 samples = 16745.3 CDDA sectors
File Size : 8.98M
Bit Rate : 322k
Sample Encoding: MPEG audio (layer I, II or III)
Comments :
Title=Boiling Point
Artist=ILLIDIANCE
Album=EP "DEFORMITY"
Year=2013
Genre=Metal

[/more]

Register
(11) DenisKov, Elk, Evjenne, gwar, gwynnbleid, Lonsa, MeatWolf, Ostinato, Strid, varlam4, voldemar13,
Jan 2 2014, 23:22:35 Wolfheart - Winterborn (2013)
Can be also downloaded here together with Tuomas's other music:
Register


This album is there also with the two bonus tracks:
10 - Frey
11 - 4:19 am
(2) Canadian Bear, Hell_Is_Here,
Jan 2 2014, 22:58:19 Before The Dawn
The whole Discography can be downloaded as part of this file:
Register
(2) Hedgehog666, zaqxsw,
Jan 1 2014, 20:40:33 Amaranthe - Burn With Me [single] (2013)


*Artist: Amaranthe
*Album: Burn With Me [single]
*Year: 2013
*Genre: Power Metal/Metalcore
*Country: Denmark
*Format: mp3@VBR311kbps
*Size: 18MB

Tracklist:
1. Burn with Me 04:03
2. Burn with Me (Acoustic) 03:53
******************************
Total playing time: 7:56



[more=Extended info]Release date: June 17th, 2013
Line-up:
Olof Mörck Guitars, Keyboards
Johan Andreassen Bass
Morten Løwe Sørensen Drums
Jake E Berg Vocals (clean)
Elize Ryd Vocals (female)
Andy Solveström Guitars[/more]

[more=Technical info]
Input File: 01. Burn With Me.mp3
Channels : 2
Sample Rate : 44100
Precision : 16-bit
Duration : 00:04:00.95 = 10626027 samples = 18071.5 CDDA sectors
File Size : 9.70M
Bit Rate : 322k
Sample Encoding: MPEG audio (layer I, II or III)
Comments :
Title=Burn With Me
Artist=Amaranthe
Album=Burn With Me (Single)
Tracknumber=1
Year=2013
Genre=Melodic Death Metal / Metalcore / Power Metal

[/more]

Register
(5) Angren, caro, gwynnbleid, Rosen, supremo,
Jan 1 2014, 20:32:50 Amaranthe - Invincible [single] (2013)


*Artist: Amaranthe
*Album: Invincible [single]
*Year: 2013
*Genre: Power Metal/Metalcore
*Country: Denmark
*Format: mp3@VBR300kbps
*Size: 20MB

Tracklist:
1. Invincible 03:12
2. Serendipity (Acoustic version) 02:38
3. Invincible (Instrumental) 03:13
******************************
Total playing time: 9:03



[more=Extended info]Release date: November 25th, 2013
Line-up:
Olof Mörck Guitars, Keyboards
Johan Andreassen Bass
Morten Løwe Sørensen Drums
Jake E Berg Vocals (clean)
Elize Ryd Vocals (female)
Andy Solveström Vocals (harsh)[/more]

[more=Technical info]
Input File: 01 - Invincible.mp3
Channels : 2
Sample Rate : 44100
Precision : 16-bit
Duration : 00:03:11.29 = 8435845 samples = 14346.7 CDDA sectors
File Size : 7.70M
Bit Rate : 322k
Sample Encoding: MPEG audio (layer I, II or III)
Comments :
Title=Invincible
Artist=Amaranthe
Album=Invincible
Tracknumber=1
Year=2013
Genre=9
Discnumber=1

[/more]

Register
(7) Angren, caro, garretje, gwynnbleid, Reverend, Rosen, supremo,
Jan 1 2014, 19:57:58 Before The Dawn - Faithless [single] (2007)
Register
(2) satyro1980, varlam4,
Jan 1 2014, 19:56:51 Before The Dawn - Deadsong [single] (2007)
Register
(2) satyro1980, varlam4,
Jan 1 2014, 19:38:24 Equestria Metallers - Take That! [single] (2014)
Nice smile1.gif Ponies in Metalarea! FlutterYay!
(1) dagger666,
Aug 18 2012, 06:39:32 Lidice - 1942 (2012)
What? Swedes are doing Black Metal about out Lidice? o.o
(2) 666BlackDeath, metala,
Mar 11 2012, 21:44:20 Phoenix Rising - MMXII (2012)
It exists in Spanish as well.. It should be a 2CD release with one CD in English and another CD with the same songs, but with Spanish lyrics. I ass the Spanish version here.. And it seems it comes from the same source, as the filenames have the same syntax smile1.gif
Register
(2) Angren, green7272,
Jan 19 2012, 10:16:15 bonus tracks
Dragonland - At the Inn of Eamon Bayle:
MP3 320kbps:
Register


FLAC:
Register
(5) Angren, kkck, kranium, savaman, zYkL0n,

3 Pages V   1 2 3 >
- Lo-Fi Version Support form
Copyrights and abuse reports form
Time is now: 16th January 2022 - 20:32:53