Welcome Guest ( Log In | Register )

История благодарностей участнику lordbathor ::: Спасибо сказали: 253 раз(а)
Дата поста: В теме: За сообщение: Спасибо сказали:
Feb 15 2020, 21:00:49 Marblebog
Marblebog - Kietlen (2019)

Register
Marblebog - Kietlen (2019) by Arkwulf
(3) kim666, mondblut, Rudolfo_Metal,
Feb 1 2020, 14:11:09 Saturnalia Temple - Aion Of Drakon (2011)
ЦИТАТА(TenBestial @ Feb 1 2020, 13:37:49) *
reup pls


Register
(4) garmonbozia, LuGaL, stub888, varlam4,
Jan 30 2020, 16:01:13 Ironsword - Promotape 95 [demo] (1995)
Register
(3) thenecromancer, varlam4, Wail,
Jan 30 2020, 16:00:33 Ironsword - Promotape 98 [demo] (1998)
Register
(1) varlam4,
Jan 5 2020, 19:26:31 Marblebog - Ermitus [ep] (2020)


*Artist: Marblebog
*Album: Ermitus [ep]
*Year: 2020
*Genre: Ambient/Black Metal
*Country: Hungary
*Format: mp3@CBR320kbps
*Size: 59MB

Tracklist:
1. Zivar 01:55
2. Marblebog 09:39
3. Return to Archaic Woods 06:49
4. Moontrance 04:48
******************************
Total playing time: 23:11



[more=Extended info]Track 1-3 were recorded in April 2003.
Track 4 was recorded during Summer 2005.

New cover art was created in 2020.

"Ermitus" was recorded back in 2003 (a bonus track was added in 2005) and was originally released as a split tape and CD that sold out a long time ago. It was the link between the early demo period and the first album "Csendhajnal". This has always been one of my favorite and most personal Marblebog recordings, but never quite liked how it was presented, so here it is with a new cover art as a standalone digital release.
credits
released January 4, 2020

All music and lyrics by Gábor Varga.

Выходил в виде сплита с проектом Hunok.[/more]

[more=Technical info]
Input File: 03 - Return To Archaic Woods.mp3
Channels : 2
Sample Rate : 44100
Precision : 16-bit
Duration : 00:06:49.78 = 18071386 samples = 30733.6 CDDA sectors
File Size : 16.5M
Bit Rate : 322k
Sample Encoding: MPEG audio (layer I, II or III)
Comments :
Title=Return To Archaic Woods
Artist=Marblebog
Album=Ermitus
Tracknumber=3
Year=2020
Genre=Black Metal

[/more]

Register
(25) 1968_janeart, adamko, ASkyThatBurns, Boozer, fallen, Ildjarn, kim666, Luminous, m00n1ight, oldvarg, Olethros, Razorbladeswaltz, robertho777, Rosen, RUSP73, senecazm, SilentNidhogg, Slavas, stub888, SyncestrA, vasiljev_sergej, Wizard_SS, wolverine, wreak, zotyo1975,
Sep 25 2019, 10:14:34 Новости Black-направления
MARBLEBOG - "Ethereal Ruins" (New song from the upcoming album "Kietlen")

[youtube]https://www.youtube.com/watch?v=j08IQY3phVI[/youtube]
(4) Antiscum, energo68, infiltrator, wolverine,
May 24 2018, 07:55:20 Sleep
Не успели еще полностью насладиться новым альбомом, как в сети появился новый сингл - http://www.adultswim.com/music/singles-2017/59
(3) gena, muskatnuss, vosmidesijatye,
Apr 28 2018, 09:36:27 Chrch - Light Will Consume Us All (2018)
А есть ли возможность прошлый залить сюда?
(1) kessler,
Apr 19 2018, 21:43:32 Sleep (1) Tular,
Feb 17 2017, 08:08:08 Blasphemy - Desecration Of São Paulo - Live In Brazilian Ritual Third Attack [live] (2016)
Да, релиз действительно из категории - Total Death!!! Звук очень порадовал!
Рекомедую всем адептам жанра!
Infernal Blasphemic Heil to all Satanic Skinheads!
Join to the Total KVLT !
(3) DarkHorde, UlvhedinGrom, wolverine,
Jan 12 2017, 16:32:32 Seigneur Voland
ЦИТАТА(mardak666 @ Jan 12 2017, 00:36:33) *
А, ну т.е. типа бутлег? Тогда неинтересно.


ну как сказать - часть треков с данного концерта выходила на лайв-демке - а именно первые 3 трека - Ma Nécropole... Live 2004 го года... а тут полный сет с более-менее нормальным звуком. Так что определенно интерес данный релиз представляет и притом довольно значительный.
(1) Goatrex,
Jul 18 2016, 18:44:20 Various Artists - The Temple Of Fullmoon Tribute [compilation] (2015)
ток нах вот это - Moloch - The Night Of Fullmoon (Graveland Cover) - сюда надо было помещать?....
хотя этот "товарисчь" без вазелина всюду суётся..... весьма печально.....
(1) UlvhedinGrom,
Jun 13 2016, 09:24:35 Umbrtka - V Dešti Mech (2014)


*Artist: Umbrtka
*Album: V Dešti Mech
*Year: 2014
*Genre: Avant-garde Black Metal
*Country: Czech Republic
*Format: mp3@CBR192kbps
*Size: 60MB

Tracklist:
1. Červenec 04:38
2. Hvězdárna 03:59
3. Bunkr 04:43
4. Blowitz 05:01
5. Ondra Nic 04:12
6. Zóna Lásky 05:50
7. Poezie 09:11
8. První Les 06:20
******************************
Total playing time: 43:54



Register
(19) 1968_janeart, Buregon, ddarkthrone, djsema4, gab, metala, MuraP, Razorbladeswaltz, Rosen, Sarcis, Storky, tobacco, tont, UlvhedinGrom, VALERY, varlam4, vasiljev_sergej, Xal, yuratroll,
May 5 2016, 13:39:32 Paragon Of Beauty - Demos And Rarities [best of/compilation] (2014)


*Artist: Paragon Of Beauty
*Album: Demos And Rarities [best of/compilation]
*Year: 2014
*Genre: Gothic/Doom Metal
*Country: Germany
*Format: mp3@CBR320kbps
*Size: 241MB

Tracklist:
1. A Drowning Day 04:13
2. Narrenjagd 04:42
3. Flowing Empty 06:12
4. Intro 02:14
5. Wundenozean 02:53
6. Where the Nights Still Dance 06:13
7. Godbirds 04:36
8. Sunset Funeral 07:15
9. Among the Midnight Kings 12:43
10. A Cosmos for a Lovestarved Child 06:12
11. Pulsare 07:29
12. The Glory of Moonlight 05:08
13. Starwoven 07:41
14. Skyless April Coffinshroud 05:24
15. Black Orchid Tale 07:01
16. My Homing Autumnswarm 05:02
17. Sweet Flames 07:48
18. Burning Flowers 05:55
******************************
Total playing time: 1:48:41



[more=Extended info]1-3,6,7: Promo recordings
4,5,8: Wundenozean EP
9-11: Snowfall Summerdream demo
12-17: Starwoven demo
18: Rehearsal recording[/more]

[more=Technical info]
Input File: 02 - Narrenjagd.mp3
Channels : 2
Sample Rate : 44100
Precision : 16-bit
Duration : 00:04:42.13 = 12441713 samples = 21159.4 CDDA sectors
File Size : 11.4M
Bit Rate : 325k
Sample Encoding: MPEG audio (layer I, II or III)
Comments :
Title=Narrenjagd
Artist=Paragon Of Beauty
Album=Demos and Rarities
Tracknumber=02
Year=2014
Genre=Gothic/Doom Metal

[/more]

Register
(13) AndreFrancis, artscald, Cartman223, chefo, csgmnk, ddarkthrone, Jurmagund, lawronchik, nikolay81, Rosen, Sanc, VALERY, varlam4,
Apr 13 2016, 09:30:03 Hunok - Megrendíthetetlenség (2016)
ссыль с dark-world, если кому надо -
Register
(11) artscald, Bannkreis, Buregon, gena, Goatrex, lawronchik, Necromag, SAPOGi, satanist666, suseka, trabantfan,
Mar 29 2016, 23:32:08 Granskog - Clandestine Congregation [demo] (2015)
Итак, ну что здесь сказать?..
Вообщем мне всегда нравились релизы такого плана - с сыроватым звуком, длительностью 20-30 минут и владеющие своей атмосферой.
Тут мы имеем крепкий образец Буковинского чёрного метала, неторопливый, иногда разгоняющийся как ветер средь Карпатских гор - спокойный местами, но и такой, что может сломать не один десяток деревьев...
По сравнению с предыдущими релизами, на первый взгляд, данное демо более агрессивное, я бы сказал даже с некоторым намёком на военизированный блек, но при взгляде на оформление и более внимательном прослушивании можно сказать что это всё тот же Гранског что и был на предыдущих записях проекта, с той лишь разницой, что если на первом релизе опрышки обсуждали и строили свои планы, то здесь они уже приступили к воплощению их в жизнь...

Рекомендовано тем кто любит БМ в старом духе - сыроватый, не особо скоростной, но в то же время имеющий в себе дух старого андерграунда, дух, который многие "корифеи" жанра растеряли в вихре времени.
(6) Antiscum, dalex, Goatrex, neoatheist, UlvhedinGrom, Абигор,
Feb 22 2016, 13:01:30 Winter Majesty - Unholy Glory Of Ancient Rossa [demo] (1994)
Перезалейте 320 кбпс, пожалуйста, и если есть возможность, перезалейте второе демо тоже! Заранее спасибо!
(1) UlvhedinGrom,
Feb 19 2016, 20:58:43 Deathmoor - Actus Sacrophagia Mortem (2016)
Абигору как всегда огромнейшее спасибо за годнейшие релизы, которые он здесь выкладывает!
(2) vosmidesijatye, Абигор,
Dec 4 2015, 22:34:49 Fullmoon (2) Borderline1991, Sanc,
Sep 15 2015, 08:32:01 Tsjuder - Antiliv (2015)
ЦИТАТА(Chasm @ Sep 15 2015, 10:18:03) *
яндекс мне выдал 5 ч ожидания. аэжвспомнил времена диал апа

Сохраняешь на яндекс-диск вначале, а потом качаешь с него на максимальной скорости !
(2) andrey010577, infiltrator,
Aug 12 2015, 14:23:55 Valkyrie - Deeds Of Prowess [demo] (1986)
Here link from dark-world -
Register

original demo without bonus-tracks
(2) thenecromancer, wgs73,
Jul 6 2015, 17:10:34 Mütiilation - Possessed And Immortal [compilation, Bootleg] (1992-1995)
Re-up on yandex please !!!
(1) heinz88,
Nov 18 2014, 10:16:39 Bulgarian Black Metal
Обсудим группы с этой страны.
Лично мне нравятся Aryan Art , Ненавист , Raggradarh.
какие еще группы, проекты посоветуете ?
какое общее впечатление от групп данного региона?
(2) Goatrex, neoatheist,
Sep 22 2014, 17:04:03 Marblebog
Marblebog working on a new ambient/clean guitar record. - http://marblebog.wordpress.com/
(1) некрософ,
Sep 22 2014, 17:03:32 Новости Black-направления
Marblebog working on a new ambient/clean guitar record. - http://marblebog.wordpress.com/
(3) Goatrex, infiltrator, некрософ,

4 Pages V   1 2 3 > » 
- Lo-Fi Version Support form
Copyrights and abuse reports form
Time is now: 28th May 2020 - 22:17:41