Welcome Guest ( Log In | Register )

История благодарностей участнику Funeral Frost ::: Спасибо сказали: 48649 раз(а)
Дата поста: В теме: За сообщение: Спасибо сказали:
Feb 10 2021, 09:18:11 Beyond Black Void - Wraith Crag (2021)


*Artist: Beyond Black Void
*Album: Wraith Crag
*Year: 2021
*Genre: Funeral/Drone Doom Metal
*Country: Belgium
*Format: mp3@CBR320kbps
*Size: 130MB

Tracklist:
1. Wraith Crag 19:28
2. From Mountains Fall 17:44
3. One With the Wave 19:33
******************************
Total playing time: 56:45



[more=Technical info]
Input File: 02 - From Mountains Fall.mp3
Channels : 2
Sample Rate : 44100
Precision : 16-bit
Duration : 00:17:44.13 = 46928309 samples = 79810 CDDA sectors
File Size : 42.6M
Bit Rate : 321k
Sample Encoding: MPEG audio (layer I, II or III)
Comments :
Title=From Mountains Fall
Artist=Beyond Black Void
Album=Wraith Crag
Tracknumber=2
Year=2021

[/more]

Register
(18) AlexSmith, Cruor, Doooomed, Hell_Is_Here, HMHamster, infiltrator, infozahist, Marek, marilin, Olethros, randumbum, robertho777, skidnik, supremo, VALERY, varlam4, vlad74, wreak,
Nov 19 2020, 13:33:34 Severoth - Vsesvit (2020)


*Artist: Severoth
*Album: Vsesvit
*Year: 2020
*Genre: Atmospheric Black Metal
*Country: Ukraine
*Format: mp3@CBR320kbps
*Size: 142MB

Tracklist:
1. Вище неба 12:40
2. Ненаписані листи 11:30
3. Порожнеча 15:16
4. Срібні зорі весни 11:15
5. Холодна ніч чужих облич 11:40
******************************
Total playing time: 1:02:21



[more=Technical info]
Input File: 02 - Ненаписані листи.mp3
Channels : 2
Sample Rate : 44100
Precision : 16-bit
Duration : 00:11:29.31 = 30398483 samples = 51698.1 CDDA sectors
File Size : 27.6M
Bit Rate : 320k
Sample Encoding: MPEG audio (layer I, II or III)
Comments :
Title=Ненаписані листи
Artist=Severoth
Album=Vsesvit
Tracknumber=02
Year=2020

[/more]

Register
(82) 1968_janeart, BERZERK, Black Cat, Chasm, Constantinus I, Daale, dagger666, DarkHorde, dermarsoran, djsema4, Druidir, ent404, Evjenne, Farung, Faust2016, FdivS, Femto, Forest Silence, gena, Gurgles, Indamage, infiltrator, infozahist, Jackyl, Kazoth, kim666, Kodel, Lamby90, LEGION69, Lukittaz, Luminous, Marek, MMMMM, Mogozoz, Moonshtook, multizwilling, murian, NappyRob, nemx, nihility, nsk2008, oldvarg, Olethros, Olrak, Ostinato, pahail, peppuzzo, Pinhead666, rabindranad, randumbum, ripper33, robertho777, Rosen, SAPOGi, satanist666, Scuns, sethurius, Shadechaser, SilentNidhogg, Slavas, smes, Spunkynut, Storky, Surt, system36, talismanFS, terron, The_Hound, Thunderbird, toly1917, troll_swamp, trueandevil, VALERY, varlam4, vasilisk, vasiljev_sergej, Vitald, Wail, Wotanwatch, wreak, zargonath, Авел,
Nov 17 2020, 16:13:45 Chthonian Abyss - Оправдание Беспомощности [ep] (2020)


*Artist: Chthonian Abyss
*Album: Оправдание Беспомощности [ep]
*Year: 2020
*Genre: Black Metal/Ambient
*Country: Russian Federation
*Format: mp3@CBR320kbps
*Size: 35MB

Tracklist:
1. Кнут 01:02
2. Время Ослабших 05:43
3. Путешествие Сквозь Тонкий План 02:49
4. Чёрная Ложа 05:54
******************************
Total playing time: 15:28



[more=Technical info]
Input File: 02 - Время Ослабших.mp3
Channels : 2
Sample Rate : 44100
Precision : 16-bit
Duration : 00:05:43.53 = 15149761 samples = 25764.9 CDDA sectors
File Size : 13.7M
Bit Rate : 320k
Sample Encoding: MPEG audio (layer I, II or III)
Comments :
Title=Время Ослабших
Artist=Chthonian Abyss
Album=Оправдание Беспомощности
Tracknumber=02
Year=2020

[/more]

Register
(20) 1968_janeart, Bregon, deadterror, Hell_Is_Here, infiltrator, kim666, Lukittaz, Olethros, Ostinato, randumbum, robertho777, Rosen, SameMan, satanist666, SilentNidhogg, varg-38ru, varlam4, vasiljev_sergej, Vitald, wreak,
Nov 17 2020, 13:12:58 Doldrum - The Knocking [demo] (2020)


*Artist: Doldrum
*Album: The Knocking [demo]
*Year: 2020
*Genre: Experimental Black Metal
*Country: United States
*Format: mp3@CBR320kbps
*Size: 41MB

Tracklist:
1. The Knocking 07:34
2. The Visitor 09:12
******************************
Total playing time: 16:46



[more=Technical info]
Input File: 01 - The Knocking.mp3
Channels : 2
Sample Rate : 44100
Precision : 16-bit
Duration : 00:07:34.32 = 20035644 samples = 34074.2 CDDA sectors
File Size : 18.3M
Bit Rate : 323k
Sample Encoding: MPEG audio (layer I, II or III)
Comments :
Title=The Knocking
Artist=Doldrum
Album=The Knocking
Tracknumber=1
Year=2020

[/more]

Register
(20) 1968_janeart, grimoir, infiltrator, kimkayoung, marilin, metaljosue, Olethros, randumbum, robertho777, Rosen, SilentNidhogg, sludge666, stub888, Valdmaar, VALERY, varlam4, vasiljev_sergej, Wail, wreak, yuratroll,
Nov 17 2020, 13:10:15 Derelenismo Occulere - Serpens Ritus [compilation] (2020)


*Artist: Derelenismo Occulere
*Album: Serpens Ritus [compilation]
*Year: 2020
*Genre: Black Metal
*Country: Ecuador
*Format: mp3@CBR320kbps
*Size: 139MB

Tracklist:
1. Hasthur 04:04
2. Aeternum 06:22
3. La Kali 05:16
4. Lilith 05:02
5. Mutis Sigil Ímpétu 06:37
6. Sapiencia El Adversa 04:45
7. Perspectivas De Shaitálux 04:56
8. Magnifcencia De Mi Ser 06:46
9. Entre Tineblas 03:39
10. Sigil De Muerte 04:57
11. Aversión Emanada Por La Voluntad De Trascedencia 04:40
12. Penumbra Abismal 03:57
******************************
Total playing time: 1:01:01



[more=Technical info]
Input File: 06 - Sapiencia El Adversa.mp3
Channels : 2
Sample Rate : 44100
Precision : 16-bit
Duration : 00:04:45.82 = 12604838 samples = 21436.8 CDDA sectors
File Size : 11.4M
Bit Rate : 320k
Sample Encoding: MPEG audio (layer I, II or III)
Comments :
Title=Sapiencia El Adversa
Artist=Derelenismo Occulere
Album=Serpens Ritus
Tracknumber=06
Year=2020

[/more]

Register
(20) 1968_janeart, dermarsoran, Hell_Is_Here, Ildjarn, INDARKNESS, infiltrator, ITNOR, kim666, korovakaska, METALHUNTER, Olethros, randumbum, Rosen, sagratan, SilentNidhogg, VALERY, varlam4, vasiljev_sergej, Wail, wreak,
Nov 17 2020, 13:06:46 Credimus - Sykjievir Io Gyaht [compilation] (2020)


*Artist: Credimus
*Album: Sykjievir Io Gyaht [compilation]
*Year: 2020
*Genre: Black Metal
*Country: Russian Federation
*Format: mp3@CBR320kbps
*Size: 68MB

Tracklist:
1. Intro 03:21
2. Desecrator 04:13
3. Winds of Wallachia 03:41
4. Osegerdu Aso 02:03
5. Abyss 04:46
6. In Aeternum 04:27
7. Kriya Sil Modra 04:50
8. Exsilium 02:25
******************************
Total playing time: 29:46



[more=Extended info]Includes 2 previously self-released EPs "Adroljech Ao Modrestergh" (2014) and "Vores Legvidra" (2015).[/more]

[more=Technical info]
Input File: 03 - Winds Of Wallachia.mp3
Channels : 2
Sample Rate : 44100
Precision : 16-bit
Duration : 00:03:41.72 = 9777676 samples = 16628.7 CDDA sectors
File Size : 8.87M
Bit Rate : 320k
Sample Encoding: MPEG audio (layer I, II or III)
Comments :
Title=Winds Of Wallachia
Artist=Credimus
Album=Sykjievir Io Gyaht
Tracknumber=03
Year=2020

[/more]

Register
(13) 1968_janeart, El_Chibo, infiltrator, kim666, randumbum, robertho777, Rosen, SilentNidhogg, VALERY, varlam4, vasiljev_sergej, Wail, wreak,
Nov 17 2020, 13:04:12 Chaosophia & La Torture Des Ténèbres - Extremities Of An Abyss [split] (2016)


*Artist: Chaosophia & La Torture Des Ténèbres
*Album: Extremities Of An Abyss [split]
*Year: 2016
*Genre: Depressive Black Metal | Black Metal/Ambient
*Country: Argentina | Canada
*Format: mp3@CBR320kbps
*Size: 47MB

Tracklist:
Chaosophia:
1. Back To Dust 10:21
La Torture des Ténèbres:
2. Hong Kong 1874 09:55
******************************
Total playing time: 20:16



[more=Technical info]
Input File: 02 - La Torture Des Ténèbres - Hong Kong 1874.mp3
Channels : 2
Sample Rate : 44100
Precision : 16-bit
Duration : 00:09:55.58 = 26264858 samples = 44668.1 CDDA sectors
File Size : 23.9M
Bit Rate : 321k
Sample Encoding: MPEG audio (layer I, II or III)
Comments :
Title=Hong Kong 1874
Artist=La Torture Des Ténèbres
Album=Extremities Of An Abyss
Tracknumber=02
Year=2016

[/more]

Register
(14) 1968_janeart, Hell_Is_Here, infiltrator, kim666, randumbum, robertho777, Rosen, SilentNidhogg, Tyrone, VALERY, varlam4, vasiljev_sergej, Wail, wreak,
Nov 17 2020, 13:00:00 Cer - Void Emissions (2017)


*Artist: Cer
*Album: Void Emissions
*Year: 2017
*Genre: Raw Black Metal/Ambient
*Country: Netherlands
*Format: mp3@CBR320kbps
*Size: 140MB

Tracklist:
1. Void Emissions I 32:14
2. Void Emissions II 29:17
******************************
Total playing time: 1:01:31



[more=Technical info]
Input File: 02 - Void Emissions (II).mp3
Channels : 2
Sample Rate : 44100
Precision : 16-bit
Duration : 00:29:43.01 = 78630653 samples = 133726 CDDA sectors
File Size : 71.3M
Bit Rate : 320k
Sample Encoding: MPEG audio (layer I, II or III)
Comments :
Title=Void Emissions, (II)
Artist=Cer
Album=Void Emissions
Tracknumber=2
Year=2017
Genre=Black Metal

[/more]

Register
(13) 1968_janeart, Alexis The Best, infiltrator, kim666, murian, Olethros, Rosen, SilentNidhogg, stub888, Tyrone, varlam4, vasiljev_sergej, wreak,
Nov 17 2020, 12:56:42 Cepheus - Apocryphal Visions [demo] (2020)


*Artist: Cepheus
*Album: Apocryphal Visions [demo]
*Year: 2020
*Genre: Black Metal
*Country: Sweden
*Format: mp3@CBR320kbps
*Size: 45MB

Tracklist:
1. Veil Walled Virtue 07:38
2. A Tellurian Inversion 07:26
3. Primordial Kabbalistic Negation 04:35
******************************
Total playing time: 19:39



[more=Technical info]
Input File: 03 - Primordial Kabbalistic Negation.mp3
Channels : 2
Sample Rate : 48000
Precision : 16-bit
Duration : 00:04:36.24 = 13259664 samples ~ 20718.2 CDDA sectors
File Size : 11.1M
Bit Rate : 320k
Sample Encoding: MPEG audio (layer I, II or III)
Comments :
Title=Primordial Kabbalistic Negation
Artist=Cepheus
Album=Apocryphal Visions
Tracknumber=03
Year=2020

[/more]

Register
(18) 1968_janeart, El_Chibo, Hell_Is_Here, infiltrator, kim666, Marek, milosdjor, Ostinato, randumbum, robertho777, Rosen, SilentNidhogg, Sjelekval, stub888, VALERY, varlam4, Wail, wreak,
Nov 17 2020, 12:54:21 Celestial Key - Shining Threshold [ep] (2020)


*Artist: Celestial Key
*Album: Shining Threshold [ep]
*Year: 2020
*Genre: Raw Black Metal
*Country: United States
*Format: mp3@CBR320kbps
*Size: 33MB

Tracklist:
1. Channeling Archaic Starlight
2. The Smiling Curtain
3. Timeworn Gates Of Awakening
******************************
Total playing time: 14:35



[more=Technical info]
Input File: 03 - Timeworn Gates Of Awakening.mp3
Channels : 2
Sample Rate : 48000
Precision : 16-bit
Duration : 00:04:17.07 = 12339216 samples ~ 19280 CDDA sectors
File Size : 10.3M
Bit Rate : 320k
Sample Encoding: MPEG audio (layer I, II or III)
Comments :
Title=Timeworn Gates Of Awakening
Artist=Celestial Key
Album=Shining Threshold
Tracknumber=03
Year=2020

[/more]

Register
(17) 1968_janeart, ambre, Hell_Is_Here, infiltrator, kim666, murian, Olethros, Rosen, Rudolfo_Metal, SilentNidhogg, stub888, Tyrone, VALERY, varlam4, vasiljev_sergej, Wail, wreak,
Nov 17 2020, 12:47:28 Black Achemoth - X - Ater Doctrina Et Consecratio [compilation] (2014)


*Artist: Black Achemoth
*Album: X - Ater Doctrina Et Consecratio [compilation]
*Year: 2014
*Genre: Black Metal
*Country: Brazil
*Format: mp3@CBR320kbps
*Size: 150MB

Tracklist:
1. Intro 01:10
2. Bring the Darkness to Your Kingdom 05:00
3. The Splendor of the Black Art 05:16
4. Altar of the Serpent 05:00
5. A ígnea Morada do Belicoso Marte 08:25
6. The Call of the Infernal Names 03:06
7. Revealing the Somber Powers of Hell 03:51
8. Regina Lilith 06:14
9. Black Wisdom 05:42
10. Satan Come Forth...Your Unholy Black Tower.I Am 04:14
11. Crowe of Destruction 04:32
12. Intro 01:11 instrumental
13. Predicator Blasphemare 02:45
14. Obscure Desires 03:42
15. Phosphorous Ascensio 05:21
******************************
Total playing time: 1:05:29



[more=Extended info]Exclusive "Special Commemorative" tracks 1-5 recorded 2013, in "A Torre" studio.
Tracks 6-8 taken from Revealing the Somber Powers of Hell Full-length 2008.
Tracks 9-11 taken from Reaping the Hope of Dirty Humanity Split 2005.
Tracks 12-15 taken from Obscure Desires Demo 2004.


Спектры плохие, я знаю. В таком виде оно в официальной цифровой дистрибуции идет...[/more]

[more=Technical info]
Input File: 02 - Bring The Darkness To Your Kingdom.mp3
Channels : 2
Sample Rate : 44100
Precision : 16-bit
Duration : 00:05:00.66 = 13259238 samples = 22549.7 CDDA sectors
File Size : 12.0M
Bit Rate : 320k
Sample Encoding: MPEG audio (layer I, II or III)
Comments :
Title=Bring The Darkness To Your Kingdom
Artist=Black Achemoth
Album=X: Ater Doctrina Et Consecratio
Tracknumber=02
Year=2014

[/more]

Register
(15) 1968_janeart, Hell_Is_Here, Ildjarn, INDARKNESS, infiltrator, kim666, Reverend, rickzammuto, Rosen, SilentNidhogg, VALERY, varlam4, vasiljev_sergej, Wail, wreak,
Nov 17 2020, 12:40:49 Bicephalic - Nihilistic Dreams Of An Empty Forest [ep] (2020)


*Artist: Bicephalic
*Album: Nihilistic Dreams Of An Empty Forest [ep]
*Year: 2020
*Genre: Black Metal
*Country: United States
*Format: mp3@CBR320kbps
*Size: 49MB

Tracklist:
1. Intro 01:04
2. Candlelight in the Cavern 04:37
3. Necromancing Under the Black Moon 04:20
4. Fornicating the Gates of Angel Blood 05:12
5. Shadow Dimension 04:15
******************************
Total playing time: 19:28



[more=Technical info]
Input File: 03 - Necromancing Under The Black Moon.mp3
Channels : 2
Sample Rate : 44100
Precision : 16-bit
Duration : 00:04:20.09 = 11470057 samples = 19506.9 CDDA sectors
File Size : 10.5M
Bit Rate : 323k
Sample Encoding: MPEG audio (layer I, II or III)
Comments :
Title=Necromancing Under The Black Moon
Artist=Bicephalic
Album=Nihilistic Dreams Of An Empty Forest
Tracknumber=3
Year=2020

[/more]

Register
(18) 1968_janeart, deadterror, Hell_Is_Here, infiltrator, kim666, korovakaska, Marek, Olethros, robertho777, Rosen, sacrut, SilentNidhogg, stub888, VALERY, varlam4, vasiljev_sergej, Wail, wreak,
Nov 17 2020, 12:38:25 Bestialis - Ritus [ep] (2020)


*Artist: Bestialis
*Album: Ritus [ep]
*Year: 2020
*Genre: Black Metal
*Country: Germany
*Format: mp3@CBR320kbps
*Size: 39MB

Tracklist:
1. Incensio (Prelude) 01:35
2. Re-Incantation 04:38
3. Ur-Veneration 05:37
4. Non-Domestication: Fall of Gilgamesh 04:52
******************************
Total playing time: 16:42



[more=Technical info]
Input File: 02 - Re-Incantation.mp3
Channels : 2
Sample Rate : 44100
Precision : 16-bit
Duration : 00:04:38.95 = 12301871 samples = 20921.5 CDDA sectors
File Size : 11.2M
Bit Rate : 320k
Sample Encoding: MPEG audio (layer I, II or III)
Comments :
Title=Re-Incantation
Artist=Bestialis
Album=Ritus
Tracknumber=2
Year=2020
Genre=Black Metal

[/more]

Register
(21) 1968_janeart, Hell_Is_Here, infiltrator, ITNOR, kim666, korovakaska, Marek, Mencae77, Olethros, Ostinato, Razorbladeswaltz, robertho777, Rosen, SilentNidhogg, stub888, VALERY, varlam4, vasiljev_sergej, Wail, wreak, yuratroll,
Nov 17 2020, 12:35:58 Astrum Malum - Libertas Peccandi [ep] (2017)


*Artist: Astrum Malum
*Album: Libertas Peccandi [ep]
*Year: 2017
*Genre: Ambient Black Metal
*Country: Finland
*Format: mp3@CBR320kbps
*Size: 28MB

Tracklist:
1. Impius 05:43
2. Curia Sancti Sepulcri 05:30
******************************
Total playing time: 11:13



[more=Technical info]
Input File: 02 - Curia Sancti Sepulcri.mp3
Channels : 2
Sample Rate : 44100
Precision : 16-bit
Duration : 00:05:30.31 = 14566803 samples = 24773.5 CDDA sectors
File Size : 13.3M
Bit Rate : 323k
Sample Encoding: MPEG audio (layer I, II or III)
Comments :
Title=Curia Sancti Sepulcri
Artist=Astrum Malum
Album=Libertas Peccandi
Tracknumber=2
Year=2017

[/more]

Register
(12) 1968_janeart, Hell_Is_Here, infiltrator, kim666, Olethros, robertho777, Rosen, SilentNidhogg, stub888, varlam4, vasiljev_sergej, wreak,
Nov 17 2020, 12:33:41 Aeon Rite - Buried Memento [ep] (2019)


*Artist: Aeon Rite
*Album: Buried Memento [ep]
*Year: 2019
*Genre: Atmospheric Black Metal
*Country: Finland
*Format: mp3@CBR320kbps
*Size: 47MB

Tracklist:
1. Heart of the Warrior 07:20
2. Reborn 06:14
3. Shackles of Time 07:06
******************************
Total playing time: 20:40



[more=Technical info]
Input File: 02 - Reborn.mp3
Channels : 2
Sample Rate : 44100
Precision : 16-bit
Duration : 00:06:14.15 = 16499971 samples = 28061.2 CDDA sectors
File Size : 15.0M
Bit Rate : 320k
Sample Encoding: MPEG audio (layer I, II or III)
Comments :
Title=Reborn
Artist=Aeon Rite
Album=Buried Memento
Tracknumber=02
Year=2019

[/more]

Register
(15) 1968_janeart, flep, infiltrator, kim666, Olethros, randumbum, robertho777, Rosen, SilentNidhogg, stub888, VALERY, varlam4, vasiljev_sergej, Wail, wreak,
Nov 16 2020, 21:41:02 Гнёт - На Пороге Вечности [demo] (2020)


*Artist: Гнёт
*Album: На Пороге Вечности [demo]
*Year: 2020
*Genre: Raw/Atmospheric Black Metal
*Country: Russian Federation
*Format: mp3@CBR320kbps
*Size: 34MB

Tracklist:
1. Копоть 04:17
2. Рожден во грехе 04:20
3. Мученики 03:45
4. Безымянный, бесконечный 02:27
******************************
Total playing time: 14:49



[more=Technical info]
Input File: 04 - Безымянный, бесконечный.mp3
Channels : 2
Sample Rate : 44100
Precision : 16-bit
Duration : 00:02:28.07 = 6529755 samples = 11105 CDDA sectors
File Size : 5.92M
Bit Rate : 320k
Sample Encoding: MPEG audio (layer I, II or III)
Comments :
Title=Безымянный, бесконечный
Artist=Гнёт
Album=На пороге вечности
Tracknumber=04
Year=2020

[/more]

Register
(13) 1968_janeart, ent404, infiltrator, oldvarg, Olethros, randumbum, Rosen, SilentNidhogg, VALERY, varlam4, vasiljev_sergej, Wail, wreak,
Nov 16 2020, 20:53:00 Новости Black-направления
Я так понимаю релиз Urfaust задерживается. Вроде уже должен был выйти. Сейчас пишут 26 ноября только преордер начнется.
Вот песня появилась с альбома
(7) acerbus, Ainar, Daale, dsp, Haunting, infiltrator, Paatddal,
Nov 15 2020, 10:11:32 Dungeon Mist - Dungeon Mist (2020)


*Artist: Dungeon Mist
*Album: Dungeon Mist
*Year: 2020
*Genre: Black Metal
*Country: Russian Federation
*Format: mp3@CBR320kbps
*Size: 68MB

Tracklist:
1. The Aspiration Flames 05:07
2. Concealmented Verity 04:07
3. Revenge 09:28
4. Rat Torture 02:58
5. Red Fever 05:02
6. Antichristian Raid 03:03
******************************
Total playing time: 29:45



[more=Technical info]
Input File: 02 - Concealmented Verity.mp3
Channels : 2
Sample Rate : 44100
Precision : 16-bit
Duration : 00:04:07.31 = 10906283 samples = 18548.1 CDDA sectors
File Size : 9.89M
Bit Rate : 320k
Sample Encoding: MPEG audio (layer I, II or III)
Comments :
Title=Concealmented Verity
Artist=Dungeon Mist
Album=Dungeon Mist
Tracknumber=02
Year=2020

[/more]

Register
(30) 1968_janeart, AlexSmith, AwaitingDawn, Bloodn Lord, craP_cillA, Daale, deadwater, Ildjarn, infiltrator, kim666, legion01, MMMMM, multizwilling, oldvarg, Olethros, Orkkh, pahail, Ramcheg1981, randumbum, rickzammuto, robertho777, Rosen, Sanctus, SilentNidhogg, Surt, VALERY, varlam4, vasiljev_sergej, Wail, wreak,
Nov 15 2020, 10:10:59 Dungeon Mist - Impenetrable Darkness [demo] (2018)


*Artist: Dungeon Mist
*Album: Impenetrable Darkness [demo]
*Year: 2018
*Genre: Raw Black Metal
*Country: Russian Federation
*Format: mp3@CBR320kbps
*Size: 52MB

Tracklist:
1. Intro (Enter the Dungeon) 01:12
2. Impenetrable Darkness 03:12
3. Abomination... 04:08
4. Anti-Christian Raid 03:58
5. Shambles 02:51
6. Danse Macabre 06:10
******************************
Total playing time: 21:31



[more=Technical info]
Input File: 02 - Impenetrable Darkness.mp3
Channels : 2
Sample Rate : 44100
Precision : 16-bit
Duration : 00:03:12.56 = 8491984 samples = 14442.1 CDDA sectors
File Size : 7.92M
Bit Rate : 329k
Sample Encoding: MPEG audio (layer I, II or III)
Comments :
Title=Impenetrable Darkness
Artist=Dungeon Mist
Album=Impenetrable Darkness
Tracknumber=2
Year=2018

[/more]

Register
(15) 1968_janeart, craP_cillA, Ildjarn, infiltrator, kim666, legion01, Olethros, Orkkh, Rosen, SilentNidhogg, VALERY, varlam4, vasiljev_sergej, Wail, wreak,
Nov 15 2020, 09:41:33 Smaug - Hate Overdose [ep] (2020)


*Artist: Smaug
*Album: Hate Overdose [ep]
*Year: 2020
*Genre: Black Metal
*Country: Russian Federation
*Format: mp3@CBR320kbps
*Size: 51MB

Tracklist:
1. Intro 01:58
2. Hate Overdose 04:04
3. Into The Wells... 06:42
4. Satanic Vomit 04:12
5. Forever Possessed (Heretic Cover) 03:02
6. Lucifer's the Light of the World (King Dude Cover) 02:19
******************************
Total playing time: 22:17



[more=Technical info]
Input File: 02 - Hate Overdose.mp3
Channels : 2
Sample Rate : 44100
Precision : 16-bit
Duration : 00:04:04.04 = 10762296 samples = 18303.2 CDDA sectors
File Size : 9.76M
Bit Rate : 320k
Sample Encoding: MPEG audio (layer I, II or III)
Comments :
Title=Hate Overdose
Artist=Smaug
Album=Hate Overdose
Tracknumber=02
Year=2020

[/more]

Register
(27) 1968_janeart, acerbus, Boozer, Daale, Ildjarn, Infidel, infiltrator, kim666, lexuz88, Mist13Signifier, oldvarg, Olethros, Ostinato, randumbum, robertho777, Rosen, SadistikSlayer, Sanctus, SilentNidhogg, Surt, VALERY, varlam4, vasiljev_sergej, Victim of fate, Wail, wreak, Xor,
Nov 14 2020, 19:45:15 Hexen Blood - Unholy Blessing (2020)


*Artist: Hexen Blood
*Album: Unholy Blessing
*Year: 2020
*Genre: Black Metal
*Country: Russian Federation
*Format: mp3@CBR320kbps
*Size: 79MB

Tracklist:
1. Thirst for Blood 06:56
2. Unholy Blessing 06:35
3. Doomsday Comes 05:45
4. Devouring Flames of Hell 06:55
5. A Call from Afar 08:08
******************************
Total playing time: 34:19



[more=Technical info]
Input File: 01 - Thirst For Blood.mp3
Channels : 2
Sample Rate : 44100
Precision : 16-bit
Duration : 00:06:56.05 = 18347629 samples = 31203.5 CDDA sectors
File Size : 16.6M
Bit Rate : 320k
Sample Encoding: MPEG audio (layer I, II or III)
Comments :
Title=Thirst For Blood
Artist=Hexen Blood
Album=Unholy Blessing
Tracknumber=01
Year=2020

[/more]

Register
(34) 1968_janeart, AlexSmith, alikkon, Boozer, Bzth, Constantinus I, craP_cillA, DarkHorde, Deathconnect, Forest Silence, Hell_Is_Here, Ildjarn, infiltrator, kim666, Korpse, Lamby90, Maximvs, Occultas, oldvarg, Olethros, pahail, randumbum, rickzammuto, robertho777, Rosen, Sanctus, sethurius, SilentNidhogg, VALERY, varlam4, vasiljev_sergej, Vitald, Wail, wreak,
Nov 14 2020, 11:14:20 Avstral Forest - La Fortaleza Del Tirano Vampírico [demo] (2020)


*Artist: Avstral Forest
*Album: La Fortaleza Del Tirano Vampírico [demo]
*Year: 2020
*Genre: Raw Black Metal/Dungeon Synth
*Country: International
*Format: mp3@CBR320kbps
*Size: 51MB

Tracklist:
1. Ante la torre de los petrificados (Intro) 02:14
2. Legiones de sangre negra 06:24
3. Bajo la luna de Draculea 04:38
4. Sacramentos de la alquimia vampirika 06:34
5. El designio de los condenados (Outro) 02:42
******************************
Total playing time: 22:32



[more=Extended info]Argentina / Ecuador

Members from: Wampyric Rites. Ages of Blood[/more]

[more=Technical info]
Input File: 03 - Bajo La Luna De Draculea.mp3
Channels : 2
Sample Rate : 44100
Precision : 16-bit
Duration : 00:04:38.06 = 12262226 samples = 20854.1 CDDA sectors
File Size : 11.1M
Bit Rate : 320k
Sample Encoding: MPEG audio (layer I, II or III)
Comments :
Title=Bajo La Luna De Draculea
Artist=Avstral Forest
Album=La Fortaleza Del Tirano Vampírico
Tracknumber=03
Year=2020

[/more]

Register
(17) 1968_janeart, craP_cillA, heinz88, infiltrator, kim666, LordOvDarkness, nemx, Olethros, randumbum, Rosen, Sanctus, SilentNidhogg, thenecromancer, VALERY, varlam4, vasiljev_sergej, wreak,
Nov 14 2020, 11:13:44 Avstral Forest - Tiempos Medievales De Dolor Y Plagas [demo] (2020)


*Artist: Avstral Forest
*Album: Tiempos Medievales De Dolor Y Plagas [demo]
*Year: 2020
*Genre: Raw Black Metal/Dungeon Synth
*Country: International
*Format: mp3@CBR320kbps
*Size: 49MB

Tracklist:
1. Intro 03:08
2. Rey de los leprosos 05:05
3. Tiempos medievales de dolor y plagas 05:37
4. Avstral Forest 05:53
5. Outro 01:46
******************************
Total playing time: 21:29



[more=Extended info]Argentina / Ecuador

Members from: Wampyric Rites. Ages of Blood[/more]

[more=Technical info]
Input File: 02 - Rey De Los Leprosos.mp3
Channels : 2
Sample Rate : 48000
Precision : 16-bit
Duration : 00:05:05.07 = 14643216 samples ~ 22880 CDDA sectors
File Size : 12.2M
Bit Rate : 320k
Sample Encoding: MPEG audio (layer I, II or III)
Comments :
Title=Rey De Los Leprosos
Artist=Avstral Forest
Album=Tiempos Medievales De Dolor Y Plagas
Tracknumber=02
Year=2020

[/more]

Register
(11) 1968_janeart, craP_cillA, heinz88, infiltrator, kim666, Olethros, Rosen, VALERY, varlam4, vasiljev_sergej, wreak,
Nov 14 2020, 11:13:01 Avolition - Avolition [demo] (2020)


*Artist: Avolition
*Album: Avolition [demo]
*Year: 2020
*Genre: Black Metal
*Country: United States
*Format: mp3@CBR320kbps
*Size: 37MB

Tracklist:
1. The Black Mist 02:51
2. Avolition 02:23
3. Transcending into Darkness 02:52
4. Ruby Red Blood 03:46
5. The Hymns of Misanthropy 03:46
******************************
Total playing time: 15:38



[more=Technical info]
Input File: 01 - The Black Mist.mp3
Channels : 2
Sample Rate : 44100
Precision : 16-bit
Duration : 00:02:51.58 = 7566854 samples = 12868.8 CDDA sectors
File Size : 6.94M
Bit Rate : 324k
Sample Encoding: MPEG audio (layer I, II or III)
Comments :
Title=The Black Mist
Artist=Avolition
Album=Avolition
Tracknumber=1
Year=2020

[/more]

Register
(15) 1968_janeart, craP_cillA, infiltrator, kim666, Olethros, randumbum, robertho777, Rosen, Sanctus, SilentNidhogg, VALERY, varlam4, vasiljev_sergej, Wail, wreak,
Nov 14 2020, 11:12:15 Autumnfall - Demo-20 [demo] (2020)


*Artist: Autumnfall
*Album: Demo-20 [demo]
*Year: 2020
*Genre: Melodic Black Metal
*Country: Finland
*Format: mp3@CBR320kbps
*Size: 48MB

Tracklist:
1. The Gatherer 05:31
2. Redemption 04:51
3. Rusting Throne 04:16
4. Plague of the Pure 05:36
******************************
Total playing time: 20:14



[more=Technical info]
Input File: 03 - Rusting Throne.mp3
Channels : 2
Sample Rate : 44100
Precision : 16-bit
Duration : 00:04:16.57 = 11314517 samples = 19242.4 CDDA sectors
File Size : 10.4M
Bit Rate : 325k
Sample Encoding: MPEG audio (layer I, II or III)
Comments :
Title=Rusting Throne
Artist=Autumnfall
Album=Demo-20
Tracknumber=3
Year=2020

[/more]

Register
(20) 1968_janeart, craP_cillA, Demonic, Ildjarn, infiltrator, kim666, Ludwig Hagen, Mogozoz, oldvarg, Olethros, randumbum, robertho777, Rosen, Sanctus, VALERY, varlam4, vasiljev_sergej, Wail, wreak, zhol,

125 Pages V   1 2 3 > » 
- Lo-Fi Version Support form
Copyrights and abuse reports form
Time is now: 18th May 2021 - 15:43:06