Welcome Guest ( Log In | Register )

История благодарностей участнику Funeral Frost ::: Спасибо сказали: 57061 раз(а)
Дата поста: В теме: За сообщение: Спасибо сказали:
Yesterday, 06:18:06 Glemt - Eclipsing Through The Womb Of Twilight And Dementia (2021)


*Artist: Glemt
*Album: Eclipsing Through The Womb Of Twilight And Dementia
*Year: 2021
*Genre: Raw Black Metal
*Country: United Kingdom
*Format: mp3@CBR320kbps
*Size: 102MB

Tracklist:
1. Under Lamenting Romanticism of Nights Torment 03:30
2. Heirlooms 04:15
3. Entranched by Ebon Shadows 06:45
4. Phasmophobia 07:07
5. Hiraeth 09:47
6. Behold, Universal Wrath 03:55
7. Eclipsing Through the Womb of Twilight and Dementia 07:17
8. Southen Crux 02:17
******************************
Total playing time: 44:53



[more=Extended info]FLAC-Rip
Спектры у него плохие последнее время...[/more]

[more=Technical info]
Input File: 01 - Under Lamenting Romanticism of Nights Torment.mp3
Channels : 2
Sample Rate : 44100
Precision : 16-bit
Duration : 00:03:30.35 = 9276523 samples = 15776.4 CDDA sectors
File Size : 8.41M
Bit Rate : 320k
Sample Encoding: MPEG audio (layer I, II or III)
Comments :
Title=Under Lamenting Romanticism of Nights Torment
Artist=Glemt
Album=Eclipsing Through the Womb of Twilight and Dementia
Tracknumber=1

[/more]

Register
(13) AlexSmith, artscald, Carcharoth, Cramloth, Daale, grimoir, judaz, robertho777, stormhatt, VALERY, varlam4, Wail, wreak,
Yesterday, 06:16:55 Nigra Mors - Cineri Gloria Sera Venit (2021)


*Artist: Nigra Mors
*Album: Cineri Gloria Sera Venit
*Year: 2021
*Genre: Black Metal
*Country: Italy
*Format: mp3@CBR320kbps
*Size: 66MB

Tracklist:
1. Introitus 02:22
2. Memento Mali 03:20
3. Vita Dolor Est 01:55
4. Aegri Somnia 06:36
5. Ad Nihil Redibimus 04:16
6. Omnia Fert Aetas 04:09
7. Transeat a me Calix Iste 06:18
******************************
Total playing time: 28:56



[more=Extended info]Side project of Einherjar Ingvar from Gort.[/more]

[more=Technical info]
Input File: 02 - Memento Mali.mp3
Channels : 2
Sample Rate : 44100
Precision : 16-bit
Duration : 00:03:20.24 = 8830672 samples = 15018.1 CDDA sectors
File Size : 8.01M
Bit Rate : 320k
Sample Encoding: MPEG audio (layer I, II or III)
Comments :
Title=Memento Mali
Artist=Nigra Mors
Album=Cineri Gloria Sera Venit
Tracknumber=02
Year=2021

[/more]

Register
(9) AlexSmith, artscald, kefka, Marek, robertho777, stormhatt, VALERY, varlam4, wreak,
Yesterday, 06:16:27 Black Whispers - Dusk (2021)


*Artist: Black Whispers
*Album: Dusk
*Year: 2021
*Genre: Depressive Black Metal
*Country: Costa Rica
*Format: mp3@CBR320kbps
*Size: 101MB

Tracklist:
1. Intro 02:08
2. Castle of Selfdestruction 03:48
3. Heartaching 03:52
4. Weighing Fade Away 05:10
5. Elegie 05:58
6. The Black Whispers 02:21
7. Dusk 05:20
8. Disappointment 05:28
9. Void 03:50
10. Eulogy 03:59
11. Outro 02:24
******************************
Total playing time: 44:18




[more=Extended info][youtube]Ct-zA7sCBAM[/youtube]
[youtube]a3ONfjKG3ok[/youtube]
[youtube]9n_koSerLoU[/youtube]
[youtube]qN6jydKa6OY[/youtube][/more]

[more=Technical info]
Input File: 02 - Castle of Selfdestruction.mp3
Channels : 2
Sample Rate : 44100
Precision : 16-bit
Duration : 00:03:48.12 = 10059960 samples = 17108.8 CDDA sectors
File Size : 9.13M
Bit Rate : 320k
Sample Encoding: MPEG audio (layer I, II or III)
Comments :
Title=Castle of Selfdestruction
Artist=Black Whispers
Album=Dusk
Tracknumber=02
Year=2021

[/more]

Register
(9) aleon, AlexSmith, artscald, metala, robertho777, stormhatt, VALERY, varlam4, wreak,
Yesterday, 06:15:59 Count Vornok - Guided By The Light Of Felrisian's Staff (2021)


*Artist: Count Vornok
*Album: Guided By The Light Of Felrisian's Staff
*Year: 2021
*Genre: Symphonic Black/Doom Metal
*Country: United Kingdom
*Format: mp3@CBR320kbps
*Size: 147MB

Tracklist:
1. Born of the Dungeon Black 03:05
2. A New Age of Darkness 03:19
3. Varsdotten 03:47
4. The White Spire 03:22
5. Apostate 05:40
6. The Dreadwolf Roams 02:40
7. Veil Fire 03:31
8. Abyssal Rift 03:49
9. Mouth of Echoes 03:33
10. Glass Forest Exile 03:13
11. The Long Forgotten Star Caverns of Knightside 13:15
12. Forever Creeping Dusk 15:03
******************************
Total playing time: 1:04:17



[more=Extended info]Instrumental

Count Vornok Everything
See also: ex-Vegard[/more]

[more=Technical info]
Input File: 02 - A New Age of Darkness.mp3
Channels : 2
Sample Rate : 44100
Precision : 16-bit
Duration : 00:03:19.22 = 8785778 samples = 14941.8 CDDA sectors
File Size : 7.97M
Bit Rate : 320k
Sample Encoding: MPEG audio (layer I, II or III)
Comments :
Title=A New Age of Darkness
Artist=Count Vornok
Album=Guided by the Light of Felrisian's Staff
Tracknumber=02
Year=2021

[/more]

Register
(12) AlexSmith, artscald, demonosz, metala, postal67, rammmirez, robertho777, sergsazan, VALERY, varlam4, wreak, Сварог Барг,
Yesterday, 06:15:24 Circles Ov Hell - All Hope Abandon (2021)


*Artist: Circles Ov Hell
*Album: All Hope Abandon
*Year: 2021
*Genre: Symphonic Black/Death Metal
*Country: France
*Format: mp3@CBR320kbps
*Size: 102MB

Tracklist:
1. The Forest Of Sin 04:49
2. The Three Beasts 04:53
3. Virgilius 04:29
4. Proemio 01:31
5. All Hope Abandon 03:45
6. Those Who Never Lived 06:24
7. Acheron 04:09
8. The Ferryman 04:56
9. Limbo 04:32
10. The Castle of Knowledge 05:24
******************************
Total playing time: 44:52



[more=Technical info]
Input File: 01 - The Forest of Sin.mp3
Channels : 2
Sample Rate : 44100
Precision : 16-bit
Duration : 00:04:50.03 = 12790323 samples = 21752.2 CDDA sectors
File Size : 11.6M
Bit Rate : 320k
Sample Encoding: MPEG audio (layer I, II or III)
Comments :
Title=The Forest of Sin
Artist=Circles ov Hell
Album=All Hope Abandon
Tracknumber=01
Year=2021

[/more]

Register
(9) AlexSmith, artscald, demonosz, metala, sergsazan, VALERY, varlam4, wreak, Сварог Барг,
Nov 30 2021, 19:18:56 Í Myrkri - Bag Skyggernes Slør (2021)


*Artist: Í Myrkri
*Album: Bag Skyggernes Slør
*Year: 2021
*Genre: Atmospheric Black Metal
*Country: Denmark
*Format: mp3@CBR320kbps
*Size: 125MB

Tracklist:
1. Stemmer fra Skoven 11:01
2. Solens Stund Svinder 08:37
3. Nattehvælv 03:59
4. I Stjernernes Vold 08:47
5. Hinsides Skyggehavet 12:29
6. Eroderet Bort af Tiden* 09:50
******************************
Total playing time: 54:43



[more=Technical info]
Input File: 03 - Nattehvælv.mp3
Channels : 2
Sample Rate : 48000
Precision : 16-bit
Duration : 00:04:00.19 = 11529360 samples ~ 18014.6 CDDA sectors
File Size : 9.61M
Bit Rate : 320k
Sample Encoding: MPEG audio (layer I, II or III)
Comments :
Title=Nattehvælv
Artist=Í Myrkri
Album=Bag skyggernes slør
Tracknumber=03
Year=2021

[/more]

Register
(44) AlexSmith, artscald, autumnwood, BlaspherionFLUL, Brutal, Bzth, Carcharoth, caro, Cyrci, demonosz, dermarsoran, doomTemplar, ErikGoth, Kazoth, kefka, kim666, Korpse, Marek, Mencae77, MortSathynr, NachtWulf, nemx, older68, ondrazevsi, postal67, Qliphoth, rammmirez, robertho777, SaintVitus, sergsazan, Skog1349, squall8fr, stormhatt, stub888, TDM, thenecromancer, tim47, VALERY, varlam4, vlad74, WOLAND, wreak, yarrsuaa, ZambuL,
Nov 30 2021, 19:17:25 Kirkebrann & Visegard - Kirkegard [split] (2021)


*Artist: Kirkebrann & Visegard
*Album: Kirkegard [split]
*Year: 2021
*Genre: Black Metal | Black Metal
*Country: Norway | Norway
*Format: mp3@CBR320kbps
*Size: 136MB

Tracklist:
Kirkebrann:
1. Black Metal Blues 05:26
2. Døden byr opp til dans 04:44
3. Vederstyggelig Samsara 02:27
4. Terroritt 05:38
5. Lange netter 04:44
6. Hedensk dødsmarsj 06:05
Visegard:
7. Skogsdømt 05:09
8. Månedans 04:09
9. Draugen 04:06
10. Fortapelsen 04:45
11. Hvor gausta rår 08:02
12. Jerva jakop 04:28
******************************
Total playing time: 59:43



[more=Technical info]
Input File: 01 - Kirkebrann - Black Metal Blues.mp3
Channels : 2
Sample Rate : 44100
Precision : 16-bit
Duration : 00:05:26.89 = 14415893 samples = 24516.8 CDDA sectors
File Size : 13.1M
Bit Rate : 320k
Sample Encoding: MPEG audio (layer I, II or III)
Comments :
Title=Black Metal Blues
Artist=Kirkebrann
Album=Kirkegard
Tracknumber=01
Year=2021

[/more]

Register
(15) artscald, Carcharoth, caro, ErikGoth, IncendiaryMight, kim666, Korpse, Marek, nemx, Orkkh, Skog1349, stormhatt, VALERY, varlam4, wreak,
Nov 30 2021, 19:15:43 Abaroth - Dosed [ep] (2021)


*Artist: Abaroth
*Album: Dosed [ep]
*Year: 2021
*Genre: Atmospheric Black Metal
*Country: United States
*Format: mp3@CBR320kbps
*Size: 51MB

Tracklist:
1. An Endless Array of Colors and Diverse Lifeforms 04:08
2. Consensually Exchanging Bodily Fluids 06:20
3. Sex Magician 04:42
4. Six Bats and a Shooting Star 07:07
******************************
Total playing time: 22:17



[more=Technical info]
Input File: 01 - An Endless Array of Colors and Diverse Lifeforms.mp3
Channels : 2
Sample Rate : 44100
Precision : 16-bit
Duration : 00:04:09.62 = 11008110 samples = 18721.3 CDDA sectors
File Size : 9.99M
Bit Rate : 320k
Sample Encoding: MPEG audio (layer I, II or III)
Comments :
Title=An Endless Array of Colors and Diverse Lifeforms
Artist=Abaroth
Album=Dosed
Tracknumber=01
Year=2021

[/more]

Register
(14) artscald, caro, dermarsoran, ErikGoth, kim666, nemx, robertho777, sergsazan, stormhatt, stub888, VALERY, varlam4, vlad74, wreak,
Nov 30 2021, 19:13:53 Kjedsomhet - Kjedsomhet, Sinne Og Frustrasjon (2021)


*Artist: Kjedsomhet
*Album: Kjedsomhet, Sinne Og Frustrasjon
*Year: 2021
*Genre: Raw Black Metal
*Country: Italy
*Format: mp3@CBR320kbps
*Size: 128MB

Tracklist:
1. Kjedsomhet 14:59
2. Pogrom 07:51
3. Hvit II 07:12
4. Hvit III 07:11
5. Fragmenter av et kollapsende samfunn 18:53
******************************
Total playing time: 56:06



[more=Technical info]
Input File: 02 - Pogrom.mp3
Channels : 2
Sample Rate : 44100
Precision : 16-bit
Duration : 00:07:51.57 = 20796017 samples = 35367.4 CDDA sectors
File Size : 18.9M
Bit Rate : 320k
Sample Encoding: MPEG audio (layer I, II or III)
Comments :
Title=Pogrom
Artist=Kjedsomhet
Album=Kjedsomhet, Sinne Og Frustrasjon
Tracknumber=02
Year=2021

[/more]

Register
(12) AlexSmith, artscald, caro, dermarsoran, kim666, lordsloth, stormhatt, stub888, VALERY, varlam4, wreak, zhol,
Nov 30 2021, 19:12:20 Baxaxa - Masters Of Metal [ep] (2021)


*Artist: Baxaxa
*Album: Masters Of Metal [ep]
*Year: 2021
*Genre: Black Metal
*Country: Argentina
*Format: mp3@CBR320kbps
*Size: 59MB

Tracklist:
1. Take This Torch (Razor cover) 02:59
2. Agents of Steel (Agent Steel cover) 02:55
3. Fight 'til Death (Slayer cover) 03:31
4. I've Had Enough (Into the Fire) (Kiss cover) 03:48
5. HM Forces (Fingernails cover) 04:07
6. Stranded in Hell (Nuclear Assault cover) 03:31
7. Battalions (Metal Church cover) 05:01
******************************
Total playing time: 25:52



[more=Technical info]
Input File: 02 - Agents of Steel (Agent Steel cover).mp3
Channels : 2
Sample Rate : 44100
Precision : 16-bit
Duration : 00:02:55.82 = 7753530 samples = 13186.3 CDDA sectors
File Size : 7.03M
Bit Rate : 320k
Sample Encoding: MPEG audio (layer I, II or III)
Comments :
Title=Agents of Steel (Agent Steel cover)
Artist=Baxaxa
Album=Masters of Metal
Tracknumber=02
Year=2021

[/more]

Register
(13) artscald, caro, dermarsoran, kim666, Occultas, Reverend, stormhatt, Tino, VALERY, varlam4, Wail, WOLAND, wreak,
Nov 28 2021, 20:28:12 Messiah In The Abyss & Oppressive Descent - Skull Bifurcations Of Grim Disintegration [split] (2021)


*Artist: Messiah In The Abyss & Oppressive Descent
*Album: Skull Bifurcations Of Grim Disintegration [split]
*Year: 2021
*Genre: Black Metal | Black Metal
*Country: Venezuela | United States
*Format: mp3@CBR320kbps
*Size: 77MB

Tracklist:
Messiah in the Abyss:
1. Las Puñaladas Se Dan En El Cuello Para Honrar Al Segador 18:22
Oppressive Descent:
2. Ode to the Reluctant Triumphator 06:56
3. Mournful Emptiness 02:21
4. The Trenches Still Grievously Weep 05:52
******************************
Total playing time: 33:31



[more=Technical info]
Input File: 04 - Oppressive Descent - The Trenches Still Grievously Weep.mp3
Channels : 2
Sample Rate : 44100
Precision : 16-bit
Duration : 00:05:52.65 = 15551821 samples = 26448.7 CDDA sectors
File Size : 14.1M
Bit Rate : 320k
Sample Encoding: MPEG audio (layer I, II or III)
Comments :
Title=The Trenches Still Grievously Weep
Artist=Oppressive Descent
Album=Skull Bifurcations Of Grim Disintegration
Tracknumber=04
Year=2021

[/more]

Register
(7) artscald, caro, kim666, stormhatt, VALERY, varlam4, wreak,
Nov 28 2021, 20:26:38 Thyrathen - Thanatopsis (2021)


*Artist: Thyrathen
*Album: Thanatopsis
*Year: 2021
*Genre: Black Metal
*Country: Greece
*Format: mp3@CBR320kbps
*Size: 139MB

Tracklist:
1. ["Praelūdium" (Parodos):] Νυκτωδία 06:17
2. ...of Mistress Earth and Zagreus 05:12
3. The God of Mount Nysa 07:04
4. Diarchy - United as One 04:45
5. Villa dei Papiri (The Philosophical Library) 04:42
6. Kyriai Doxai (Part I - The Tetrafarmakos Epitome) 06:49
7. Transmogri(e)fication 05:30
8. Flēbilis Moriendum (Μονωδία) 03:43
9. ThanatOpsis 07:23
10. Exodus - Catharsis 09:02
******************************
Total playing time: 1:00:27



[more=Technical info]
Input File: 02 - ...of Mistress Earth and Zagreus.mp3
Channels : 2
Sample Rate : 44100
Precision : 16-bit
Duration : 00:05:12.94 = 13800698 samples = 23470.6 CDDA sectors
File Size : 12.7M
Bit Rate : 324k
Sample Encoding: MPEG audio (layer I, II or III)
Comments :
Title=...of Mistress Earth and Zagreus
Artist=Thyrathen
Album=ThanatOpsis
Tracknumber=2
Year=2021
Genre=Death Metal/Black Metal
Discnumber=1/1

[/more]

Register
(29) AlexSmith, AnthonyHipHopkins, artscald, Bzth, Carcharoth, caro, dermarsoran, GorAtheist, judaz, kim666, lucifix, madera, Marek, Mencae77, Narasimha, Nomadwarfukk, nsk2008, rammmirez, robertho777, sagratan, smes, stormhatt, supremo, VALERY, varlam4, vov7609, wreak, yuratroll, ZamanFu,
Nov 27 2021, 16:24:32 Ordinul Negru - A Sojourner Wandering Through The Barren Openness [ep] (2021)


*Artist: Ordinul Negru
*Album: A Sojourner Wandering Through The Barren Openness [ep]
*Year: 2021
*Genre: Black Metal
*Country: Romania
*Format: mp3@CBR320kbps
*Size: 52MB

Tracklist:
1. A Sojourner Wandering Through the Barren Openness 22:33
******************************
Total playing time: 22:33



[more=Technical info]
Input File: 01 - A Sojourner Wandering Through the Barren Openness.mp3
Channels : 2
Sample Rate : 44100
Precision : 16-bit
Duration : 00:22:33.80 = 59702360 samples = 101535 CDDA sectors
File Size : 54.2M
Bit Rate : 320k
Sample Encoding: MPEG audio (layer I, II or III)
Comments :
Title=A Sojourner Wandering Through the Barren Openness
Artist=Ordinul Negru
Album=A Sojourner Wandering Through the Barren Openness
Tracknumber=01
Year=2021

[/more]

Register
(22) Alexis The Best, Angeldemon617, artscald, caro, ent404, GorAtheist, Hexer, Ice Gnoll, julianotidre, kim666, legion01, madera, nadin85, smes, the_cleanser, VALERY, varlam4, Wail, Wilczygniew Strzygoń, WOLAND, wreak, yuratroll,
Nov 27 2021, 16:22:45 Blodtår - Blodtår [ep] (2021)


*Artist: Blodtår
*Album: Blodtår [ep]
*Year: 2021
*Genre: Black Metal
*Country: Sweden
*Format: mp3@CBR320kbps
*Size: 35MB

Tracklist:
1. Djävulskap 04:13
2. Svartsejd 04:21
3. Besatt 01:33
4. Aldrig Mer 04:56
******************************
Total playing time: 15:03



[more=Technical info]
Input File: 01 - Djävulskap.mp3
Channels : 2
Sample Rate : 44100
Precision : 16-bit
Duration : 00:04:13.67 = 11186671 samples = 19025 CDDA sectors
File Size : 10.1M
Bit Rate : 320k
Sample Encoding: MPEG audio (layer I, II or III)
Comments :
Title=Djävulskap
Artist=Blodtår
Album=Blodtår
Tracknumber=01
Year=2021

[/more]

Register
(27) aleon, AnthonyHipHopkins, artscald, Black Cat, Carcharoth, caro, Cyrci, ent404, GorAtheist, julianotidre, kefka, kim666, Marek, nemx, Qliphoth, rammmirez, rimfrost, smes, SortVokter, stormhatt, stub888, technoboy69, VALERY, varlam4, Wail, wreak, zhol,
Nov 27 2021, 16:21:24 Dusk Lurker & Archierophant - The Third Flame [split] (2021)


*Artist: Dusk Lurker & Archierophant
*Album: The Third Flame [split]
*Year: 2021
*Genre: Black Metal | Atmospheric Black/Doom Metal
*Country: United Kingdom | United Kingdom
*Format: mp3@CBR320kbps
*Size: 58MB

Tracklist:
Dusk Lurker:
1. Blistered Shrine 06:15
2. A Misplace of Trust 05:16
Archierophant:
3. Legions of Black Flame 06:20
4. I Do Wander 07:16
******************************
Total playing time: 25:07




[more=Technical info]
Input File: 02 - Dusk Lurker - A Misplace of Trust.mp3
Channels : 2
Sample Rate : 44100
Precision : 16-bit
Duration : 00:05:16.44 = 13955048 samples = 23733.1 CDDA sectors
File Size : 12.7M
Bit Rate : 320k
Sample Encoding: MPEG audio (layer I, II or III)
Comments :
Title=A Misplace of Trust
Artist=Dusk Lurker
Album=The Third Flame
Tracknumber=2
Year=2021

[/more]

Register
(14) aleon, artscald, Carcharoth, caro, Dante_D, julianotidre, kim666, Olrak, robertho777, stormhatt, VALERY, varlam4, Wail, wreak,
Nov 27 2021, 16:20:30 Archierophant - Birds Of Joy And Sorrow [ep] (2021)


*Artist: Archierophant
*Album: Birds Of Joy And Sorrow [ep]
*Year: 2021
*Genre: Atmospheric Black/Doom Metal
*Country: United Kingdom
*Format: mp3@CBR320kbps
*Size: 53MB

Tracklist:
1. Alkonost 06:28
2. I Do Wander 07:34
3. Flight Of Shade 05:17
4. Sirin's Last Hope 03:49
******************************
Total playing time: 23:08



[more=Technical info]
Input File: 01 - Alkonost.mp3
Channels : 2
Sample Rate : 44100
Precision : 16-bit
Duration : 00:06:28.49 = 17132453 samples = 29136.8 CDDA sectors
File Size : 15.5M
Bit Rate : 320k
Sample Encoding: MPEG audio (layer I, II or III)
Comments :
Title=Alkonost
Artist=Archierophant
Album=Birds of Joy and Sorrow
Tracknumber=1
Year=2021

[/more]

Register
(15) aleon, artscald, autumnwood, caro, Dante_D, julianotidre, Olrak, sergsazan, stormhatt, tOmV, VALERY, varlam4, vlad74, Wail, wreak,
Nov 27 2021, 16:19:33 Through Chaos & Solitude - You Went Right To The Stars [ep] (2021)


*Artist: Through Chaos & Solitude
*Album: You Went Right To The Stars [ep]
*Year: 2021
*Genre: Black Metal
*Country: Germany
*Format: mp3@CBR320kbps
*Size: 55MB

Tracklist:
1. The Human Precipice 11:36
2. You Went Right to the Stars 06:29
3. Keeper of the Ledger 06:02
******************************
Total playing time: 24:07



[more=Technical info]
Input File: 02 - You Went Right to the Stars.mp3
Channels : 2
Sample Rate : 44100
Precision : 16-bit
Duration : 00:06:29.90 = 17194678 samples = 29242.6 CDDA sectors
File Size : 15.6M
Bit Rate : 320k
Sample Encoding: MPEG audio (layer I, II or III)
Comments :
Title=You Went Right to the Stars
Artist=Through Chaos & Solitude
Album=You Went Right to the Stars
Tracknumber=2
Year=2021

[/more]

Register
(11) artscald, Carcharoth, caro, julianotidre, kim666, Marek, stormhatt, VALERY, varlam4, Wail, wreak,
Nov 27 2021, 16:18:37 Esus In Tenebris - Chamber Of Shadows (2021)


*Artist: Esus In Tenebris
*Album: Chamber Of Shadows
*Year: 2021
*Genre: Black Metal
*Country: United States
*Format: mp3@CBR320kbps
*Size: 126MB

Tracklist:
1. The Beginning 07:07
2. Nocturnal Wealth 02:58
3. Hail the Ravens 03:25
4. The Darkside 03:29
5. The Round Fog 03:27
6. Angels of Frost 03:49
7. Unholy 03:42
8. Chamber of Shadows 03:48
9. Chosen Warriors 03:47
10. Human Blood 03:21
11. The End 04:52
12. Damned Humanity 04:38
13. Witches Totem 06:43
******************************
Total playing time: 55:06



[more=Technical info]
Input File: 02 - Nocturnal Wealth.mp3
Channels : 2
Sample Rate : 44100
Precision : 16-bit
Duration : 00:02:58.09 = 7853725 samples = 13356.7 CDDA sectors
File Size : 7.12M
Bit Rate : 320k
Sample Encoding: MPEG audio (layer I, II or III)
Comments :
Title=Nocturnal Wealth
Artist=Esus In Tenebris
Album=Chamber of Shadows
Tracknumber=2
Year=2021

[/more]

Register
(16) AlexSmith, artscald, caro, cryptal, julianotidre, kim666, Korpse, Reverend, robertho777, sagratan, stormhatt, stub888, supremo, VALERY, varlam4, wreak,
Nov 27 2021, 16:17:52 Nordloth - The Forest [ep] (2021)


*Artist: Nordloth
*Album: The Forest [ep]
*Year: 2021
*Genre: Atmospheric Black Metal
*Country: Russian Federation
*Format: mp3@CBR320kbps
*Size: 76MB

Tracklist:
1. Wake Me Up 07:03
2. The Forest 07:56
3. Vi har inte dött 07:13
4. Vindar 11:24
******************************
Total playing time: 33:36



[more=Technical info]
Input File: 02 - The Forest.mp3
Channels : 2
Sample Rate : 44100
Precision : 16-bit
Duration : 00:07:42.79 = 20408951 samples = 34709.1 CDDA sectors
File Size : 18.5M
Bit Rate : 320k
Sample Encoding: MPEG audio (layer I, II or III)
Comments :
Title=The Forest
Artist=Nordloth
Album=The Forest
Tracknumber=02
Year=2021

[/more]

Register
(17) aleon, artscald, caro, Hexer, julianotidre, kim666, Korpse, Marek, robertho777, sergsazan, stormhatt, tOmV, VALERY, varlam4, Wail, Wilczygniew Strzygoń, wreak,
Nov 27 2021, 16:16:47 Svartskaldr - Hypostasis Interitum (2019)


*Artist: Svartskaldr
*Album: Hypostasis Interitum
*Year: 2019
*Genre: Pagan Black Metal
*Country: Russian Federation
*Format: mp3@CBR320kbps
*Size: 97MB

Tracklist:
1. Intro 01:11
2. The Gate 04:54
3. Ablaze the Inner Fire 03:33
4. Skald 05:20
5. Sacrifice 03:29
6. With the Storm of Sacred Hate 06:14
7. To See the Light 06:30
8. The Divination 03:18
9. The Raven 04:34
10. Cultists of Black Sun 03:20
******************************
Total playing time: 42:23



[more=Technical info]
Input File: 03 - Ablaze the Inner Fire.mp3
Channels : 2
Sample Rate : 44100
Precision : 16-bit
Duration : 00:03:34.09 = 9441281 samples = 16056.6 CDDA sectors
File Size : 8.56M
Bit Rate : 320k
Sample Encoding: MPEG audio (layer I, II or III)
Comments :
Title=Ablaze the Inner Fire
Artist=Svartskaldr
Album=Hypostasis Interitum
Tracknumber=3
Year=2019

[/more]

Register
(15) AlexSmith, artscald, caro, GorAtheist, julianotidre, kim666, legion01, Marek, stormhatt, supremo, VALERY, varlam4, Vitald, Wail, wreak,
Nov 27 2021, 16:16:00 Arcaneblaze - Conjure Mysticism And Goblet Of Eternal Fire (2021)


*Artist: Arcaneblaze
*Album: Conjure Mysticism And Goblet Of Eternal Fire
*Year: 2021
*Genre: Speed/Thrash/Black Metal
*Country: Russian Federation
*Format: mp3@CBR320kbps
*Size: 54MB

Tracklist:
1. Cave Conjuring 01:38
2. Midnight Mysticism 03:35
3. Soul Collectors 03:00
4. Vampyric Sleaze 02:50
5. Venom Blade 03:00
6. Cult of Corpse 01:52
7. Black Blood 02:32
8. Tundra Wraith 05:04
******************************
Total playing time: 23:31



[more=Technical info]
Input File: 01 - Cave Conjuring.mp3
Channels : 2
Sample Rate : 44100
Precision : 16-bit
Duration : 00:01:38.46 = 4342262 samples = 7384.8 CDDA sectors
File Size : 3.94M
Bit Rate : 320k
Sample Encoding: MPEG audio (layer I, II or III)
Comments :
Title=Cave Conjuring
Artist=Arcaneblaze
Album=Conjure Mysticism and Goblet of Eternal Fire
Tracknumber=1
Year=2021

[/more]

Register
(26) after21allD, artscald, autumnwood, boby9052, caro, julianotidre, kimkayoung, metala, METALHUNTER, Morda_Morda, Phantom_Voodoo, piwimetal, postal67, scorn33, sergsazan, stumpheavyrock, supremo, tOmV, valegga, varlam4, vdolghi, Vitald, Volk11911, Wail, wgs73, wreak,
Nov 27 2021, 16:15:10 Dinenthal - Howling Orbit Around Our Sun (2021)


*Artist: Dinenthal
*Album: Howling Orbit Around Our Sun
*Year: 2021
*Genre: Atmospheric Black Metal
*Country: United Kingdom
*Format: mp3@CBR320kbps
*Size: 70MB

Tracklist:
1. Spring Slays the White Witch 08:54
2. Summer Sun Sears the Sky 05:46
3. The Rot of Autumn Leaves 06:48
4. Howling Orbit Around Our Sun (Ice Fangs of Winter) 09:00
******************************
Total playing time: 30:28



[more=Technical info]
Input File: 03 - The Rot of Autumn Leaves.mp3
Channels : 2
Sample Rate : 44100
Precision : 16-bit
Duration : 00:06:48.11 = 17997651 samples = 30608.2 CDDA sectors
File Size : 16.3M
Bit Rate : 320k
Sample Encoding: MPEG audio (layer I, II or III)
Comments :
Title=The Rot of Autumn Leaves
Artist=Dinenthal
Album=Howling Orbit Around Our Sun
Tracknumber=3
Year=2021

[/more]

Register
(16) AlexSmith, artscald, caro, julianotidre, kim666, Korpse, Marek, metala, robertho777, sergsazan, stormhatt, supremo, tOmV, VALERY, varlam4, wreak,
Nov 21 2021, 17:51:42 Universal Disorder - Act Iii: Of Emerging Chaos And Times Forgotten [ep] (2021)


*Artist: Universal Disorder
*Album: Act Iii: Of Emerging Chaos And Times Forgotten [ep]
*Year: 2021
*Genre: Atmospheric Black Metal
*Country: International
*Format: mp3@CBR320kbps
*Size: 33MB

Tracklist:
1. An Eternal Balancing of the Scale 06:12
2. The Dawn of the Ages (As Long Ago Was Seen) 08:22
******************************
Total playing time: 14:34



[more=Extended info]Sweden / Finland[/more]

[more=Technical info]
Input File: 01 - An Eternal Balancing of the Scale.mp3
Channels : 2
Sample Rate : 44100
Precision : 16-bit
Duration : 00:06:12.56 = 16429720 samples = 27941.7 CDDA sectors
File Size : 14.9M
Bit Rate : 320k
Sample Encoding: MPEG audio (layer I, II or III)
Comments :
Title=An Eternal Balancing of the Scale
Artist=Universal Disorder
Album=Act III: Of Emerging Chaos and Times Forgotten
Tracknumber=1
Year=2021

[/more]

Register
(12) aleon, artscald, caro, julianotidre, kim666, Olethros, robertho777, sergsazan, stormhatt, VALERY, varlam4, wreak,
Nov 21 2021, 17:50:15 Universal Disorder - Act Ii - Existential Glimpses Of Chaos And Order In A Cosmic Womb [ep] (2020)


*Artist: Universal Disorder
*Album: Act Ii - Existential Glimpses Of Chaos And Order In A Cosmic Womb [ep]
*Year: 2020
*Genre: Atmospheric Black Metal
*Country: International
*Format: mp3@CBR320kbps
*Size: 42MB

Tracklist:
1. In the Great Circle of Time 08:49
2. As the Eternal Secrets of the Cosmos Unfold 09:25
******************************
Total playing time: 18:14



[more=Extended info]Sweden / Finland[/more]

[more=Technical info]
Input File: 02 - As the Eternal Secrets of the Cosmos Unfold.mp3
Channels : 2
Sample Rate : 44100
Precision : 16-bit
Duration : 00:09:25.48 = 24937712 samples = 42411.1 CDDA sectors
File Size : 22.8M
Bit Rate : 322k
Sample Encoding: MPEG audio (layer I, II or III)
Comments :
Title=As the Eternal Secrets of the Cosmos Unfold
Artist=Universal Disorder
Album=Act II - Existential Glimpses of Chaos and Order in a Cosmic Womb
Tracknumber=2
Year=2020
Genre=Rock

[/more]

Register
(12) aleon, artscald, caro, julianotidre, kim666, Olethros, robertho777, sergsazan, stormhatt, VALERY, varlam4, wreak,
Nov 21 2021, 17:47:29 Christian Cosentino - Lawn (2021)


*Artist: Christian Cosentino
*Album: Lawn
*Year: 2021
*Genre: Symphonic/Post-Black Metal
*Country: Australia
*Format: mp3@CBR320kbps
*Size: 71MB

Tracklist:
1. Lawn 05:47
2. Duality 05:25
3. Psychogenic 12:45
4. Lustre 06:54
******************************
Total playing time: 30:51



[more=Technical info]
Input File: 01 - Lawn.mp3
Channels : 2
Sample Rate : 44100
Precision : 16-bit
Duration : 00:05:47.09 = 15306449 samples = 26031.4 CDDA sectors
File Size : 13.9M
Bit Rate : 320k
Sample Encoding: MPEG audio (layer I, II or III)
Comments :
Title=Lawn
Artist=Christian Cosentino
Album=Lawn
Tracknumber=1
Year=2021

[/more]

Register
(14) AlexSmith, artscald, caro, csgmnk, kim666, kimkayoung, Olethros, Ostinato, robertho777, sergsazan, supremo, VALERY, varlam4, wreak,

144 Pages V   1 2 3 > » 
- Lo-Fi Version Support form
Copyrights and abuse reports form
Time is now: 3rd December 2021 - 02:54:45