Welcome Guest ( Log In | Register )

История благодарностей участнику Funeral Frost ::: Спасибо сказали: 59139 раз(а)
Дата поста: В теме: За сообщение: Спасибо сказали:
May 21 2022, 08:45:17 Mortal Thrall - A Path To Fire (2022)


*Artist: Mortal Thrall
*Album: A Path To Fire
*Year: 2022
*Genre: Black Metal
*Country: United States
*Format: mp3@CBR320kbps
*Size: 97MB

Tracklist:
1. Flames (Interpolation) 01:33
2. A Path to Fire 06:15
3. Take the Cold 06:07
4. The Calling 04:50
5. Passion Made a Weapon 04:31
6. Twelve Long Years 06:11
7. One Soul, One Life 06:33
8. Flames Filled the Sky 06:22
******************************
Total playing time: 42:22



[more=Technical info]
Input File: 02 - A Path to Fire.mp3
Channels : 2
Sample Rate : 44100
Precision : 16-bit
Duration : 00:06:15.17 = 16544909 samples = 28137.6 CDDA sectors
File Size : 15.0M
Bit Rate : 320k
Sample Encoding: MPEG audio (layer I, II or III)
Comments :
Title=A Path to Fire
Artist=Mortal Thrall
Album=A Path to Fire
Tracknumber=02
Year=2022

[/more]

Register
(17) AlexSmith, Altkiller, artscald, Carcharoth, caro, kim666, Marek, murian, Olethros, robertho777, stormhatt, supremo, VALERY, varlam4, Vidder242, wreak, Zer0,
May 21 2022, 08:44:37 Bestiario - En Los Albores Del Nuevo Oscurantismo (2022)


*Artist: Bestiario
*Album: En Los Albores Del Nuevo Oscurantismo
*Year: 2022
*Genre: Black Metal
*Country: Argentina
*Format: mp3@CBR320kbps
*Size: 75MB

Tracklist:
1. En los albores 02:24
2. Infeccion 03:43
3. Tumba de las ilusiones 05:16
4. Saturnalia 04:12
5. El obsequio de las brujas 05:28
6. Manto infernal 04:09
7. Oculto 04:51
8. Oracion a San La Muerte 02:40
******************************
Total playing time: 32:43



[more=Technical info]
Input File: 02 - Infección.mp3
Channels : 2
Sample Rate : 44100
Precision : 16-bit
Duration : 00:03:43.65 = 9862921 samples = 16773.7 CDDA sectors
File Size : 8.95M
Bit Rate : 320k
Sample Encoding: MPEG audio (layer I, II or III)
Comments :
Title=Infección
Artist=Bestiario
Album=En Los Albores del Nuevo Oscurantismo
Tracknumber=02
Year=2022

[/more]

Register
(19) aleon, AlexSmith, artscald, caro, eldiego, GorAtheist, Hell_Is_Here, Ildjarn, kim666, Korpse, murian, Olethros, Pinhead666, Reverend, stormhatt, supremo, VALERY, varlam4, wreak,
May 21 2022, 08:43:57 Irdorath - Götterdämmerung MMXXII (2022)


*Artist: Irdorath
*Album: Götterdämmerung MMXXII
*Year: 2022
*Genre: Black Metal
*Country: Austria
*Format: mp3@CBR320kbps
*Size: 72MB

Tracklist:
1. Der Flammen Preis 03:00
2. Windgeist 03:36
3. Form des Todes 06:01
4. Bald ersäuft die Menschenbrut 03:33
5. Die Rache des Baumes 05:03
6. Götterdämmerung 06:04
7. Novemberkrieg (Bonus Track) 04:10
******************************
Total playing time: 31:27



[more=Extended info]This is a re-recording of Götterdämmerung (Zorn der Elemente) + bonus track Novemberkrieg[/more]

[more=Technical info]
Input File: 01 - Der flammen Preis.mp3
Channels : 2
Sample Rate : 44100
Precision : 16-bit
Duration : 00:03:00.31 = 7951671 samples = 13523.2 CDDA sectors
File Size : 7.21M
Bit Rate : 320k
Sample Encoding: MPEG audio (layer I, II or III)
Comments :
Title=Der flammen Preis
Artist=Irdorath
Album=Götterdämmerung MMXXII
Tracknumber=01
Year=2022

[/more]

Register
(27) AlexSmith, artscald, caro, csgmnk, Cyrci, dermarsoran, gobblin, GorAtheist, kim666, Korpse, madera, Marek, Mencae77, Narasimha, nemx, Nordavind, Reverend, robertho777, rominow, SadistikSlayer, stormhatt, supremo, VALERY, varlam4, Vitald, wreak, yarrsuaa,
May 17 2022, 11:29:40 Fatalist - Untitled (2022)


*Artist: Fatalist
*Album: Untitled
*Year: 2022
*Genre: Black Metal
*Country: United Kingdom
*Format: mp3@CBR320kbps
*Size: 87MB

Tracklist:
1. Globe 09:38
2. Conqueror 12:03
3. Earth 16:28
******************************
Total playing time: 38:09



[more=Technical info]
Input File: 03 - Earth.mp3
Channels : 2
Sample Rate : 44100
Precision : 16-bit
Duration : 00:16:28.40 = 43588440 samples = 74130 CDDA sectors
File Size : 39.5M
Bit Rate : 320k
Sample Encoding: MPEG audio (layer I, II or III)
Comments :
Title=Earth
Artist=Fatalist
Album=Untitled
Tracknumber=3
Year=2022

[/more]

Register
(18) AlexSmith, artscald, Ash_1980, caro, dermarsoran, infernallord, kim666, Marek, nemx, Olethros, robertho777, SilentNidhogg, stormhatt, supremo, VALERY, varlam4, WOLAND, wreak,
May 17 2022, 11:28:54 Kvöl - In Similitude Of A Dream (2022)


*Artist: Kvöl
*Album: In Similitude Of A Dream
*Year: 2022
*Genre: Black Metal
*Country: United States
*Format: mp3@CBR320kbps
*Size: 93MB

Tracklist:
1. Unfettered Within 05:54
2. The Looming Black 05:35
3. Bleed Me Home 05:44
4. To Hearken Her Spires 06:54
5. Ageless War 07:23
6. Bestorm My Night 09:11
******************************
Total playing time: 40:41



[more=Technical info]
Input File: 06 - Bestorm My Night.mp3
Channels : 2
Sample Rate : 44100
Precision : 16-bit
Duration : 00:09:11.79 = 24334027 samples = 41384.4 CDDA sectors
File Size : 22.1M
Bit Rate : 320k
Sample Encoding: MPEG audio (layer I, II or III)
Comments :
Title=Bestorm My Night
Artist=Kvöl
Album=In Similitude of a Dream
Tracknumber=6
Year=2022

[/more]

Register
(16) AlexSmith, artscald, caro, cryptal, kim666, nab, nemx, Olethros, robertho777, SilentNidhogg, stormhatt, supremo, VALERY, varlam4, WOLAND, wreak,
May 17 2022, 11:28:03 Lichen - Igne Natura Renovatur Integra [ep] (2021)


*Artist: Lichen
*Album: Igne Natura Renovatur Integra [ep]
*Year: 2021
*Genre: Black Metal
*Country: United States
*Format: mp3@CBR320kbps
*Size: 69MB

Tracklist:
1. Igne.Natura.Renovatur.Integra. 06:38
2. Saprotrophic Reincarnation 06:17
3. Neolithic Sorcery 07:38
4. Solar Hammer 05:31
5. Hexenringe 01:56
6. Satan My Master (Bathory cover) 02:14
******************************
Total playing time: 30:14



[more=Technical info]
Input File: 02 - Saprotrophic Reincarnation.mp3
Channels : 2
Sample Rate : 44100
Precision : 16-bit
Duration : 00:06:16.79 = 16616351 samples = 28259.1 CDDA sectors
File Size : 15.1M
Bit Rate : 320k
Sample Encoding: MPEG audio (layer I, II or III)
Comments :
Title=Saprotrophic Reincarnation
Artist=Lichen
Album=Igne Natura Renovatur Integra
Tracknumber=02
Year=2021

[/more]

Register
(12) artscald, Ash_1980, caro, dermarsoran, kim666, Olethros, SilentNidhogg, stormhatt, VALERY, varlam4, WOLAND, wreak,
May 14 2022, 10:05:35 Alvaldur - Of Dusk And Crumbling Silence [ep] (2022)


*Artist: Alvaldur
*Album: Of Dusk And Crumbling Silence [ep]
*Year: 2022
*Genre: Black Metal
*Country: United States
*Format: mp3@CBR320kbps
*Size: 62MB

Tracklist:
1. Nightmares Ride Across the Stars 04:08
2. Where Great Halls Fade to Silence 04:28
3. Sing Not a Song for Me 06:09
4. The Wind Sings of Ruin 01:43
5. Under the Crescent Moon 03:59
6. At the End of All Tales 06:44
******************************
Total playing time: 27:11



[more=Technical info]
Input File: 05 - Under the Crescent Moon.mp3
Channels : 2
Sample Rate : 44100
Precision : 16-bit
Duration : 00:03:59.25 = 10550705 samples = 17943.4 CDDA sectors
File Size : 9.57M
Bit Rate : 320k
Sample Encoding: MPEG audio (layer I, II or III)
Comments :
Title=Under the Crescent Moon
Artist=Alvaldur
Album=Of Dusk and Crumbling Silence
Tracknumber=5
Year=2022

[/more]

Register
(14) artscald, Carcharoth, caro, Ildjarn, kim666, rickzammuto, SilentNidhogg, Storky, stormhatt, VALERY, varlam4, Velmi, WOLAND, wreak,
May 14 2022, 10:02:37 Narthex - The Vvitch King [ep] (2022)


*Artist: Narthex
*Album: The Vvitch King [ep]
*Year: 2022
*Genre: Black Metal
*Country: United States
*Format: mp3@CBR320kbps
*Size: 58MB

Tracklist:
1. The VVitch King 04:00
2. Cells of Hollow Hand 05:45
3. Narthex 03:40
4. Fall of the VVitch King 08:19
5. VVitch King (acoustic) 03:39
******************************
Total playing time: 25:23



[more=Technical info]
Input File: 03 - Narthex.mp3
Channels : 2
Sample Rate : 44100
Precision : 16-bit
Duration : 00:03:40.07 = 9705087 samples = 16505.2 CDDA sectors
File Size : 8.80M
Bit Rate : 320k
Sample Encoding: MPEG audio (layer I, II or III)
Comments :
Title=Narthex
Artist=Narthex
Album=The VVitch King
Tracknumber=3
Year=2022

[/more]

Register
(9) artscald, caro, kim666, Olethros, SilentNidhogg, stormhatt, VALERY, varlam4, wreak,
May 14 2022, 10:02:00 Narthex - Narthex [ep] (2021)


*Artist: Narthex
*Album: Narthex [ep]
*Year: 2021
*Genre: Black Metal
*Country: United States
*Format: mp3@CBR320kbps
*Size: 56MB

Tracklist:
1. The Night Hunt 04:13
2. Forbidden Black Sorcery 04:29
3. Valley of Defilement 03:39
4. Leviathan 05:34
5. Wrath of Giants 02:51
6. Aeternum 03:49
******************************
Total playing time: 24:35



[more=Technical info]
Input File: 01 - The Night Hunt.mp3
Channels : 2
Sample Rate : 44100
Precision : 16-bit
Duration : 00:04:13.09 = 11161313 samples = 18981.8 CDDA sectors
File Size : 10.1M
Bit Rate : 320k
Sample Encoding: MPEG audio (layer I, II or III)
Comments :
Title=The Night Hunt
Artist=Narthex
Album=Narthex
Tracknumber=1
Year=2021

[/more]

Register
(10) artscald, caro, kim666, Olethros, SilentNidhogg, stormhatt, VALERY, varlam4, Wail, wreak,
May 14 2022, 09:44:39 Synteleia - The Secret Last Syllable (2022)


*Artist: Synteleia
*Album: The Secret Last Syllable
*Year: 2022
*Genre: Black Metal
*Country: Greece
*Format: mp3@CBR320kbps
*Size: 93MB

Tracklist:
1. Tower of Koth 04:34
2. Emblem of Yith 04:59
3. Nymph of the Pyramids Pt. 1 - The Reign 04:51
4. Nymph of the Pyramids Pt. 2 - The Curse 05:43
5. Escaping Atheron 06:36
6. Harvest the Forest 03:56
7. Into the Abyss - A Passage to Insanity 02:09
8. The Secret Last Syllable 05:17
9. Ω-Α (Omega-Alpha) 02:31
******************************
Total playing time: 40:36



[more=Technical info]
Input File: 01 - Tower of Koth.mp3
Channels : 2
Sample Rate : 44100
Precision : 16-bit
Duration : 00:04:33.96 = 12081812 samples = 20547.3 CDDA sectors
File Size : 11.0M
Bit Rate : 320k
Sample Encoding: MPEG audio (layer I, II or III)
Comments :
Title=Tower of Koth
Artist=Synteleia
Album=The Secret Last Syllable
Tracknumber=1

[/more]

Register
(22) AlexSmith, alikkon, artscald, autumnwood, Bzth, caro, Ignativs, komhs, metaljosue, MMMMM, raattent, rammmirez, robertho777, SilentNidhogg, stormhatt, supremo, THROWER666, VALERY, varlam4, WOLAND, wreak, yinchanghanhuang,
May 14 2022, 09:33:22 Cairns - Keening [ep] (2022)


*Artist: Cairns
*Album: Keening [ep]
*Year: 2022
*Genre: Atomspheric/Post-Black Metal
*Country: United Kingdom
*Format: mp3@CBR320kbps
*Size: 59MB

Tracklist:
1. The Wicker Ablaze 05:33
2. When Days Grew Shorter 07:24
3. The Eternal Sea 05:42
4. Haunted 06:56
******************************
Total playing time: 25:35



[more=Technical info]
Input File: 01 - The Wicker Ablaze.mp3
Channels : 2
Sample Rate : 44100
Precision : 16-bit
Duration : 00:05:33.66 = 14714274 samples = 25024.3 CDDA sectors
File Size : 13.3M
Bit Rate : 320k
Sample Encoding: MPEG audio (layer I, II or III)
Comments :
Title=The Wicker Ablaze
Artist=Cairns
Album=Keening
Tracknumber=1
Year=2022

[/more]

Register
(15) artscald, caro, Dante_D, kim666, murian, nemx, Olethros, sergsazan, Shadechaser, singrad, socrates9, stormhatt, VALERY, varlam4, wreak,
May 14 2022, 09:29:46 Astathica - Death Of Life [ep] (2022)


*Artist: Astathica
*Album: Death Of Life [ep]
*Year: 2022
*Genre: Black Metal
*Country: Netherlands
*Format: mp3@CBR320kbps
*Size: 56MB

Tracklist:
1. Musings on the Death of Life 12:19
2. Woods and Graves 04:15
3. The Insect (part III) 06:06
4. Epitaphium 01:45
******************************
Total playing time: 24:25



[more=Technical info]
Input File: 02 - Woods and Graves.mp3
Channels : 2
Sample Rate : 44100
Precision : 16-bit
Duration : 00:04:15.57 = 11270769 samples = 19168 CDDA sectors
File Size : 10.2M
Bit Rate : 320k
Sample Encoding: MPEG audio (layer I, II or III)
Comments :
Title=Woods and Graves
Artist=Astathica
Album=Death of Life
Tracknumber=2

[/more]

Register
(10) artscald, caro, Ildjarn, kim666, nemx, SilentNidhogg, stormhatt, VALERY, varlam4, wreak,
May 14 2022, 09:23:59 Graveland & Commander Agares - Awakening Of The Storms [split] (2022)


*Artist: Graveland & Commander Agares
*Album: Awakening Of The Storms [split]
*Year: 2022
*Genre: Pagan/Viking Metal | Black Metal/Ambient
*Country: Poland | Finland
*Format: mp3@CBR320kbps
*Size: 104MB

Tracklist:
Graveland:
1. At the Shore Bathed by Blood 06:50
2. Lords of the Polar Night 05:31
3. Amber Lantern 07:19
4. Possessed by Steel 06:07
Commander Agares:
5. Where We are Crowned as King 05:41
6. Dawn of a New Morning 06:57
7. Rising Flames of Revelation 07:10
******************************
Total playing time: 45:35



[more=Technical info]
Input File: 05 - Commander Agares - Where We Are Crowned As King.mp3
Channels : 2
Sample Rate : 44100
Precision : 16-bit
Duration : 00:05:41.32 = 15052388 samples = 25599.3 CDDA sectors
File Size : 13.7M
Bit Rate : 320k
Sample Encoding: MPEG audio (layer I, II or III)
Comments :
Title=Where We Are Crowned As King
Artist=Commander Agares
Album=Awakening Of The Storms
Tracknumber=05
Year=2022

[/more]

Register
(48) 4ernoknignik, alikkon, Antichrist, artscald, Bardo, BERZERK, canadaspaceman, cancer1974, Carcharoth, caro, Cartman223, Dante_D, Druidir, Femto, grimoir, Hefir, Hell_Is_Here, igore2911, Ildjarn, infozahist, kefka, kim666, Lanceatum, Mannard, Metalass, milosdjor, nemx, noel666, Occultas, recber, Reverend, RTB, RUDACHUR, SaintVitus, Scorpi, SilentNidhogg, smes, stormhatt, supremo, Surt, thenecromancer, the_cleanser, varlam4, vdolghi, Vitald, wreak, XxNachtmahRxX, Zenial,
May 4 2022, 10:51:33 Новости DOOM Metal
Спустя 11 лет Лиза Йоханссон возвращается в Draconian. Хайке уходит чтобы заняться семьей и личными проектами.

Новость на английском
(3) Chasm, thenecromancer, WOLAND,
Apr 28 2022, 09:15:29 Dismalimerence & Nurez & Olim & The Wolf Garden - Recurrence [split] (2022)


*Artist: Dismalimerence & Nurez & Olim & The Wolf Garden
*Album: Recurrence [split]
*Year: 2022
*Genre: Melodic Black Metal | Atmospheric Black Metal | Atmospheric/Post-Black Metal | Atmospheric Black Metal
*Country: United States | Germany | Canada | United Kingdom
*Format: mp3@CBR320kbps
*Size: 109MB

Tracklist:
Dismalimerence:
1. Vernal Musings 11:59
Nurez:
2. Sommer 13:07
Olim:
3. An Autumnal Passage 12:21
The Wolf Garden:
4. Wintersong 10:39
******************************
Total playing time: 48:06



[more=Technical info]
Input File: 02 - Nurez - Sommer.mp3
Channels : 2
Sample Rate : 44100
Precision : 16-bit
Duration : 00:13:07.12 = 34711816 samples = 59033.7 CDDA sectors
File Size : 31.5M
Bit Rate : 320k
Sample Encoding: MPEG audio (layer I, II or III)
Comments :
Title=Sommer
Artist=Nurez
Album=Recurrence
Tracknumber=2
Year=2022

[/more]

Register
(16) artscald, caro, Danilodanilo, Dante_D, dermarsoran, Igor1969, kim666, nemx, robertho777, SilentNidhogg, stormhatt, supremo, VALERY, varlam4, Wail, wreak,
Apr 26 2022, 16:56:49 White Mare - Isle Of Bliss (2022)


*Artist: White Mare
*Album: Isle Of Bliss
*Year: 2022
*Genre: Melodic Doom/Death Metal
*Country: International
*Format: mp3@CBR320kbps
*Size: 106MB

Tracklist:
1. No Isle of Bliss 12:11
2. Time, the Devourer 10:10
3. Les oiseaux de proie 10:00
4. To Rest at Last 06:26
5. The White Mares' Procession 07:35
******************************
Total playing time: 46:22




[more=Extended info]Switzerland / Netherlands

[youtube]arT8l6_99G4[/youtube]
[youtube]MBbH1ftFaak[/youtube]
[youtube]aVYho8A9VPg[/youtube]
[youtube]RlJ05HGUZTM[/youtube][/more]

[more=Technical info]
Input File: 04 - To Rest At Last.mp3
Channels : 2
Sample Rate : 44100
Precision : 16-bit
Duration : 00:06:26.48 = 17043768 samples = 28986 CDDA sectors
File Size : 15.5M
Bit Rate : 320k
Sample Encoding: MPEG audio (layer I, II or III)
Comments :
Title=To Rest At Last
Artist=White Mare
Album=Isle of Bliss
Tracknumber=04
Year=2022

[/more]

Register
(27) alikkon, artscald, caro, cryptal, csgmnk, Danilodanilo, doomTemplar, gwynnbleid, HMHamster, infozahist, lacrimoza, LEGION69, metala, MMMMM, Mogozoz, oldvarg, Olethros, quarantine, SatanicPanzer, sergsazan, Shadechaser, stumpheavyrock, VALERY, vyacheslav, Wail, wreak, zhol,
Apr 26 2022, 16:29:14 Nocturnal Depression - When My Time Has Come [ep] (2022)


*Artist: Nocturnal Depression
*Album: When My Time Has Come [ep]
*Year: 2022
*Genre: Black Metal
*Country: France
*Format: mp3@CBR320kbps
*Size: 63MB

Tracklist:
1. When My Time Has Come 09:15
2. Return to Home Asylum 10:28
3. The Dead Dreamer 07:38
******************************
Total playing time: 27:21



[more=Technical info]
Input File: 01 - When My Time Has Come.mp3
Channels : 2
Sample Rate : 44100
Precision : 16-bit
Duration : 00:09:15.32 = 24489524 samples = 41648.9 CDDA sectors
File Size : 22.2M
Bit Rate : 320k
Sample Encoding: MPEG audio (layer I, II or III)
Comments :
Title=When My Time Has Come
Artist=Nocturnal Depression
Album=When My Time Has Come
Tracknumber=1
Year=2022

[/more]

Register
(44) A.L.Rapsod, aleon, alikkon, andivi, artscald, behemoth_tut, BERZERK, blacky66, caro, cesar, Danilodanilo, doomTemplar, Femto, GorAtheist, grobator, Hell_Is_Here, Ildjarn, infernallord, kim666, Korpse, KVRT, LEGION69, Mencae77, metaljosue, nemx, Olethros, Orkkh, Ostinato, recber, Reverend, robertho777, sandr666, SilentNidhogg, smes, squall8fr, stormhatt, supremo, system36, the_cleanser, VALERY, varlam4, Victim of fate, wreak, yuratroll,
Apr 15 2022, 17:12:52 Qaalm - Resilience & Despair (2022)


*Artist: Qaalm
*Album: Resilience & Despair
*Year: 2022
*Genre: Atmospheric Sludge/Death/Doom Metal
*Country: United States
*Format: mp3@CBR320kbps
*Size: 160MB

Tracklist:
1. Reflections Doubt 14:39
2. Existence Asunder 19:33
3. Cosmic Descent 18:22
4. Lurking Death 17:15
******************************
Total playing time: 1:09:49



[more=Technical info]
Input File: 01 - Reflections Doubt.mp3
Channels : 2
Sample Rate : 44100
Precision : 16-bit
Duration : 00:14:39.07 = 38767075 samples = 65930.4 CDDA sectors
File Size : 35.3M
Bit Rate : 321k
Sample Encoding: MPEG audio (layer I, II or III)
Comments :
Title=Reflections Doubt
Artist=Qaalm
Album=Resilience & Despair
Tracknumber=1
Year=2022

[/more]

Register
(36) aleon, alikkon, Andr, artscald, Buregon, caro, Dante_D, Ellaya, gena, Hell_Is_Here, infozahist, KVRT, lacrimoza, Mencae77, metala, Mist13Signifier, nemx, Olethros, Ostinato, robertho777, SAPOGi, SatanicPanzer, satarn, Shadechaser, spazm, stumpheavyrock, Taakeferd, VALERY, varlam4, vyacheslav, Wail, WOLAND, wreak, yinchanghanhuang, Yorker, Козлотролль,
Apr 2 2022, 09:22:22 Talsur - Dark (2022)


*Artist: Talsur
*Album: Dark
*Year: 2022
*Genre: Funeral Doom/Death Metal
*Country: Russian Federation
*Format: mp3@CBR320kbps
*Size: 184MB

Tracklist:
1. Alter Birth 13:18
2. Sullen Man 08:36
3. Decaying Child 10:44
4. Elegy of Grief 08:53
5. Dirge 02:41
6. The One Who Missed 10:17
7. Raw Ground Cradle 10:25
8. Ashes of Departed 15:00
******************************
Total playing time: 1:19:54



[more=Technical info]
Input File: 03 - Decaying Child.mp3
Channels : 2
Sample Rate : 44100
Precision : 16-bit
Duration : 00:10:44.43 = 28419231 samples = 48332 CDDA sectors
File Size : 25.8M
Bit Rate : 321k
Sample Encoding: MPEG audio (layer I, II or III)
Comments :
Title=Decaying Child
Artist=Talsur
Album=Dark
Tracknumber=3
Year=2022

[/more]

Register
(53) 6666666, AlexSmith, artscald, Ash_1980, Branis, Brutal, caro, Dante_D, DiKobRaZzz, DMIYUR, Evjenne, featb, gav-gafi, gusto24191, Hell_Is_Here, HMHamster, Ice Gnoll, kluval, KVRT, lacrimoza, LEGION69, libertine, Mencae77, Metalass, Mogozoz, nsk2008, Old Vyaine, Olethros, Phlebotomized, quarantine, robertho777, RUDACHUR, rydra88, Sanctus, SAPOGi, sarcophagus, SatanicPanzer, sergsazan, Shadechaser, StoneTemple, supremo, Taakeferd, tOmV, Urmaaas, VALERY, Victim of fate, vyacheslav, Wail, WOLAND, woldemort, wreak, Xutun, yarrsuaa,
Mar 5 2022, 08:43:22 Funeral Dawn - The Girl Who Killed Her Soul (2022)


*Artist: Funeral Dawn
*Album: The Girl Who Killed Her Soul
*Year: 2022
*Genre: Doom/Death Metal
*Country: Brazil
*Format: mp3@CBR320kbps
*Size: 106MB

Tracklist:
1. The Girl Who Killed Her Soul 09:44
2. This Cold Winter Heart 08:23
3. I'm Sorry, Son 07:46
4. My Despair 08:34
5. A Tragic End 01:21
6. A Letter to Myself 10:37
******************************
Total playing time: 46:25



[more=Technical info]
Input File: 01 - The Girl Who Killed Her Soul.mp3
Channels : 2
Sample Rate : 44100
Precision : 16-bit
Duration : 00:09:44.29 = 25767189 samples = 43821.8 CDDA sectors
File Size : 23.4M
Bit Rate : 320k
Sample Encoding: MPEG audio (layer I, II or III)
Comments :
Title=The Girl Who Killed Her Soul
Artist=Funeral Dawn
Album=The Girl Who Killed Her Soul
Tracknumber=01
Year=2022

[/more]

Register
(32) AlexHellhammer1602, artscald, caro, cesar, GorAtheist, Grev, Hell_Is_Here, HMHamster, infozahist, lacrimoza, metala, MMMMM, oldvarg, Olethros, postal67, quarantine, Reverend, RUDACHUR, Sanctus, scorn33, sergsazan, serzh011, Shadechaser, stumpheavyrock, supremo, thenecromancer, VALERY, Vladimir, vyacheslav, Wail, wreak, yarrsuaa,
Mar 4 2022, 17:25:27 Kylmyyteen - Yö Istui Viereeni (2022)


*Artist: Kylmyyteen
*Album: Yö Istui Viereeni
*Year: 2022
*Genre: Funeral Doom Metal
*Country: Finland
*Format: mp3@CBR320kbps
*Size: 136MB

Tracklist:
1. Yö istui viereeni 13:15
2. Mielen syvyyteen 16:22
3. Valo unohtuu 15:57
4. Talven kirkas taivas 14:02
******************************
Total playing time: 59:36



[more=Technical info]
Input File: 01 - Yö Istui Viereeni.mp3
Channels : 2
Sample Rate : 44100
Precision : 16-bit
Duration : 00:13:16.00 = 35103512 samples = 59699.9 CDDA sectors
File Size : 31.8M
Bit Rate : 320k
Sample Encoding: MPEG audio (layer I, II or III)
Comments :
Title=Yö Istui Viereeni
Artist=Kylmyyteen
Album=Yö Istui Viereeni
Tracknumber=01
Year=2022

[/more]

Register
(31) 6666666, AlexSmith, Andr, artscald, BlutWut, Buregon, caro, Dante_D, fang, gena, Grev, Hell_Is_Here, HMHamster, KVRT, marilin, MAYH, Mencae77, Mist13Signifier, Necromag, Olethros, quarantine, Reverend, robertho777, RUDACHUR, sergsazan, Shadechaser, supremo, Un4given, VALERY, vyacheslav, wreak,
Mar 4 2022, 17:11:12 Telluric Effluvium - Voyage Of Sentient Decay (2022)


*Artist: Telluric Effluvium
*Album: Voyage Of Sentient Decay
*Year: 2022
*Genre: Funeral Doom/Death Metal
*Country: United States
*Format: mp3@CBR320kbps
*Size: 89MB

Tracklist:
1. Horrid Visions of the Corrupting Flesh 13:00
2. Expository Peeling 05:54
3. Asphyxiation Plague 09:27
4. Dissonant Tears 02:10
5. Liberation Through Cyclical Autophagia 07:15
******************************
Total playing time: 37:46



[more=Technical info]
Input File: 02 - Expository Peeling.mp3
Channels : 2
Sample Rate : 44100
Precision : 16-bit
Duration : 00:05:54.56 = 15635920 samples = 26591.7 CDDA sectors
File Size : 14.3M
Bit Rate : 324k
Sample Encoding: MPEG audio (layer I, II or III)
Comments :
Title=Expository Peeling
Artist=Telluric Effluvium
Album=Voyage Of Sentient Decay
Tracknumber=2
Year=2022

[/more]

Register
(33) 6666666, AlexSmith, alikkon, andreikun, artscald, bowelled, Buregon, caro, deadterror, doomTemplar, Grev, Hell_Is_Here, HMHamster, infozahist, insufferable, KVRT, lacrimoza, Marek, Mencae77, metala, Mist13Signifier, Olethros, quarantine, scorn33, sergsazan, Shadechaser, sludge666, Spork, supremo, VALERY, vyacheslav, wreak, ZloySamaritianin,
Mar 3 2022, 08:35:57 Bleed This Earth - The Slow Decline (2022)
Нравится четкая, завершенная структура композиций, без воды.
А не просто наматывание соплей на кулак, которое в какой-то момент заканчивается.
(2) AHBAnep, WOLAND,
Feb 26 2022, 09:35:37 Rotting Kingdom & Encoffination - Wretched Enigma Of Salvation [split] (2022)


*Artist: Rotting Kingdom & Encoffination
*Album: Wretched Enigma Of Salvation [split]
*Year: 2022
*Genre: Doom/Death Metal | Doom/Death Metal
*Country: United States | United States
*Format: mp3@CBR320kbps
*Size: 73MB

Tracklist:
Rotting Kingdom:
1. Misery Eternal 06:59
2. The Road of Grief & Ashes 08:22
Encoffination:
3. Gloriously Decomposed 07:44
4. Agonal Soul 08:51
******************************
Total playing time: 31:56



[more=Technical info]
Input File: 01 - Rotting Kingdom - Misery Eternal.mp3
Channels : 2
Sample Rate : 44100
Precision : 16-bit
Duration : 00:06:59.34 = 18493026 samples = 31450.7 CDDA sectors
File Size : 16.8M
Bit Rate : 320k
Sample Encoding: MPEG audio (layer I, II or III)
Comments :
Title=Misery Eternal
Artist=Rotting Kingdom
Album=Wretched Enigma of Salvation
Tracknumber=01
Year=2022

[/more]

Register
(28) abob, AHBAnep, alikkon, Ambercandle, artscald, autumnwood, BERZERK, caro, dm_372761, FUDEDOR, Grev, grimoir, igore2911, kluval, lacrimoza, Lanceatum, marilin, Mist13Signifier, Nascutmort, Occultas, quarantine, RUDACHUR, Shadechaser, stumpheavyrock, VALERY, vyacheslav, wreak, yinchanghanhuang,
Feb 23 2022, 13:09:34 Seeds Of Contemplation - Contemplations On Hidden Meanings (2022)


*Artist: Seeds Of Contemplation
*Album: Contemplations On Hidden Meanings
*Year: 2022
*Genre: Doom/Death Metal
*Country: Germany
*Format: mp3@CBR320kbps
*Size: 71MB

Tracklist:
1. Contemplation I 10:04
2. Contemplation II 05:26
3. Contemplation III 08:58
4. Contemplation IV 05:52
******************************
Total playing time: 30:20



[more=Technical info]
Input File: 02 - Contemplation II.mp3
Channels : 2
Sample Rate : 44100
Precision : 16-bit
Duration : 00:05:26.92 = 14417040 samples = 24518.8 CDDA sectors
File Size : 13.2M
Bit Rate : 322k
Sample Encoding: MPEG audio (layer I, II or III)
Comments :
Title=Contemplation II
Artist=Seeds Of Contemplation
Album=Contemplations on Hidden Meanings
Tracknumber=2
Year=2022

[/more]

Register
(18) artscald, caro, doomTemplar, infozahist, kauyumari, lacrimoza, metala, Mogozoz, Olethros, quarantine, robertho777, sergsazan, Shadechaser, stumpheavyrock, supremo, VALERY, vyacheslav, wreak,

147 Pages V   1 2 3 > » 
- Lo-Fi Version Support form
Copyrights and abuse reports form
Time is now: 5th July 2022 - 14:40:39