Welcome Guest ( Log In | Register )

Объявления

* gmail.com упорно продолжает считать почту с нас "unsolicited" и отбивает в том числе и письма активации, поэтому просьба использовать альтернативные почтовые ящики.
------------
* gmail.com continues reject all mail from us as "unsolicited" (activation mails too) therefore please use alternate mail servers.
История благодарностей участнику tt2008 ::: Спасибо сказали: 578 раз(а)
Дата поста: В теме: За сообщение: Спасибо сказали:
Mar 19 2021, 02:07:54 Trollfest - Happy Heroes [ep] (2021)
Thanks dwarf-1.gif
(2) infiltrator, noel666,
Jan 2 2021, 17:20:26 Жабъ - Добрая Болотная Третина [ep] (2021)
thanks dwarf-1.gif
(1) Taakeferd,
Aug 2 2020, 16:51:58 Hor Zapor - Beer Best! (2020)
Thanks dwarf-1.gif
(1) Samaritianin,
Jul 19 2020, 23:51:40 Wartroll - Frozen Hordes (2019)
Thanks dwarf-1.gif
(1) Samaritianin,
Jun 5 2020, 00:50:18 Zmey Gorynich - Чёртовы Пляски (2020)
Thanks dwarf-1.gif
(2) Fater_Hu, infiltrator,
May 19 2020, 18:23:19 Yarr - Die Stadtpark Chroniken (2020)
Thanks dwarf-1.gif
(1) Samaritianin,
Mar 23 2020, 23:35:50 Wolfarian - Beyond The Ninth Wave (2019)
Thanks dwarf-1.gif
(1) Samaritianin,
Mar 4 2020, 02:17:57 Noituma - Tervahauta (2020)
Thanks dwarf-1.gif
(2) infiltrator, Samaritianin,
Feb 21 2020, 23:49:19 Mjød - Шёпот Последней Зимы (2020)
Thanks dwarf-1.gif
(2) infiltrator, Samaritianin,
Jan 19 2020, 02:18:28 Atavicus - Di Eroica Stirpe (2019)
Thanks dwarf-1.gif
(2) infiltrator, Samaritianin,
Dec 27 2019, 03:47:33 Talethrone - The King In Hollow Trunk [ep] (2019)
Thanks dwarf-1.gif
(2) infiltrator, Samaritianin,
Oct 14 2019, 03:13:52 Wyrd - Hex (2019)
Thanks dwarf-1.gif
(1) SnaP,
Oct 10 2019, 12:49:45 Svartby - Big Boss (2019)
Thanks dwarf-1.gif
(1) Samaritianin,
Apr 25 2019, 14:23:31 Изморозь - Культ (2019)
Thanks dwarf-1.gif
(2) infiltrator, Samaritianin,
Mar 20 2019, 13:33:49 Valkenrag - Chasing The Gods (2018)
Thanks dwarf-1.gif
(1) Samaritianin,
Nov 29 2018, 14:21:51 Frosttide - Decedents - Enshrined [ep] (2018)
Thanks dwarf-1.gif
(1) vosmidesijatye,
Oct 6 2018, 21:40:18 Mongol - The Return (2018)
Thanks dwarf-1.gif
(1) BrutalMan,
Jul 6 2018, 05:30:52 Kylfingar - Világok Határán (2018)
Thanks dwarf-1.gif
(2) infiltrator, Ostinato,
Jan 14 2017, 23:38:59 Terhenetär - Metsänhenkien Tanssi [ep] (2017)
Thanks dwarf-1.gif
(1) добрыйКот,
Oct 5 2016, 13:21:06 Alkonost - Песни Белой Лилии (2016)
Thanks dwarf-1.gif
(1) Aresson,
Sep 29 2016, 18:46:51 Skálmöld - Vögguvísur Yggdrasils (2016)
Thanks dwarf-1.gif
(1) Ostinato,
Mar 24 2016, 13:57:09 Grimner - Frost Mot Eld (2016)
Thanks dwarf-1.gif
(1) Sterh,
Sep 20 2015, 04:30:12 Grimner - De Kom Från Norr [ep] (2015)


*Artist: Grimner
*Album: De Kom Från Norr [ep]
*Year: 2015
*Genre: Folk/Viking Metal
*Country: Sweden
*Format: mp3@CBR320kbps
*Size: 40MB

Tracklist:
01. De Kom Från Norr 03:52
02. Etterpolska 03:03
03. Sorgesaga 03:01
04. Gungner 00:59
05. Forna Dagar (Swing Version) 06:59
******************************
Total playing time: 17:54

[more=Technical info]
Input File: 01) De Kom Fr?n Norr.mp3
Channels : 2
Sample Rate : 44100
Precision : 16-bit
Duration : 00:03:52.80 = 10266568 samples = 17460.1 CDDA sectors
File Size : 9.35M
Bit Rate : 321k
Sample Encoding: MPEG audio (layer I, II or III)
Comments :
Title=De Kom FrГҐn Norr
Artist=Grimner
Album=De Kom FrГҐn Norr [EP]
Tracknumber=01/05
Year=2015
Genre=Folk/Viking Metal

[/more]

Register
(20) andeimon, Cartman223, dromord, fabriziomagno, gwynnbleid, Kaamos, Mogozoz, Moonshtook, neoatheist, oldvarg, pfk505, Rosen, satanist666, Shagarth21, smes, talismanFS, tont, varlam4, wreak, ZA670,
Aug 28 2015, 14:06:30 Tarm - Siis Kui Laantes Saabub Hämarus (2010)


*Artist: Tarm
*Album: Siis Kui Laantes Saabub Hämarus
*Year: 2010
*Genre: Pagan Black Metal
*Country: Estonia
*Format: mp3@CBR320kbps
*Size: 72MB

Tracklist:
01. Kardetuna Piinleb 02:57
02. Ohverdav Ori 02:20
03. Kus Nõder Inimmõistus 03:18
04. Oleme Metslased 03:36
05. Oma Kurjusega Hävitame 04:06
06. Pimedaima Oru Vihavalda 03:20
07. Siis Kui Laantes Saabub Hämarus 03:37
08. Sokuvitu Kultuse Juurdumise 04:00
09. Öiste Häälte Verejanust 04:24
******************************
Total playing time: 31:38

[more=Technical info]
Input File: 04) Oleme Metslased.mp3
Channels : 2
Sample Rate : 44100
Precision : 16-bit
Duration : 00:03:36.63 = 9553383 samples = 16247.2 CDDA sectors
File Size : 8.70M
Bit Rate : 321k
Sample Encoding: MPEG audio (layer I, II or III)
Comments :
Title=Oleme Metslased
Artist=Tarm
Album=Siis Kui Laantes Saabub Hämarus
Tracknumber=04/09
Year=2010
Genre=Pagan/Black Metal

[/more]

Register
(21) artscald, Buregon, Constantinus I, Ildjarn, Indamage, INDARKNESS, Moonshtook, morbidangelo, NachtWulf, rom666, Rosen, satanist666, Sergey, Storky, Surt, suseka, SyncestrA, tont, varlam4, vasiljev_sergej, wreak,
May 28 2015, 03:26:29 Metsatöll - Pummelung [ep] (2015)


*Artist: Metsatöll
*Album: Pummelung [ep]
*Year: 2015
*Genre: Folk Metal
*Country: Estonia
*Format: mp3@CBR320kbps
*Size: 23MB

Tracklist:
01. Pummelung 03:29
02. Vana Jutuvestja Laul 04:15
03. Külmale Maale (J.M.K.E. Cover) 02:13
******************************
Total playing time: 9:57

[more=Technical info]
Input File: 01) Pummelung.mp3
Channels : 2
Sample Rate : 44100
Precision : 16-bit
Duration : 00:03:29.97 = 9259589 samples = 15747.6 CDDA sectors
File Size : 8.44M
Bit Rate : 321k
Sample Encoding: MPEG audio (layer I, II or III)
Comments :
Title=Pummelung
Artist=Metsatöll
Album=Pummelung [EP]
Tracknumber=01/03
Year=2015
Genre=Folk Metal

[/more]

Register
(26) artscald, Ballisargon, BeerBear, Black Cat, Boozer, Cartman223, csgmnk, gwar, gwynnbleid, Jurmagund, LightWizard, morbidangelo, neoatheist, Old Vyaine, Paradayz, princeshr, Reverend, Rosen, sarcophagus, smes, talismanFS, Thrasher, tont, varlam4, wreak, Например,

3 Pages V   1 2 3 >
- Lo-Fi Version Support form
Copyrights and abuse reports form
Time is now: 17th June 2024 - 08:08:37