Welcome Guest ( Log In | Register )

История благодарностей участнику rammstein888 ::: Спасибо сказали: 307 раз(а)
Дата поста: В теме: За сообщение: Спасибо сказали:
Apr 6 2023, 07:01:06 Сатанакозёл - Карелия (2023)
Все 3 альбома имеются на дисках. Этот альбом обязательно буду слушать.
(1) Сварог Барг,
Jul 11 2022, 19:26:40 Veter Daemonaz - Muse Of The Damned (Муза Проклятых) (2022)
Ещё не слушала, но Trivmph (EP) был хорош. До сих пор храню их белую футболку Голос~Ключ.
(1) Occultas,
Jul 19 2019, 13:29:32 Yggdrasil - Vedergällning (2009)
Lossless
Register
(6) Deze, kimkayoung, Moonshtook, NappyRob, Olethros, Veggr,
Aug 31 2018, 16:11:22 Vihan Messu - Pimeys (2018)
За этот год дядька выпустил 4 альбома, возникает вопрос, есть ли смысл это слушать?
(1) Storky,
Feb 3 2018, 16:11:06 Ocean Of Grief - Nightfall's Lament (2018)
Пятая песня и у меня просто не слов, так как переполняют эмоции. После второй песни полез заказывать диск.
Либо так звезды сложились, либо я в правильном настроении, но всепоглощающий эффект на лицо, хочется приостановить все дела и погрузиться в музыкальный океан.
(2) krotovich, MeatWolf,
Dec 1 2017, 16:20:28 In Flames - Down, Wicked & No Good [ep] (2017)
Их ещё кто-то слушает? hmm.gif
(2) Typhoid, wn129aa,
Apr 29 2017, 21:03:53 Burzum - Filosofem (1996)
ЦИТАТА(Aresson @ Apr 18 2017, 22:02:42) *
я щас скажу кощунственню вещь - но только для любителей бурзилки 1488.gif Сабж - нудная унылая параша, аналогов которой сейчас - валом, стоит только любой депро-бм ансамбль взять. Вот первые пара альбомов были огонь

Вся изюминка этого альбома в его примитивности и простоте, а вот сделать так чтобы примитивность цепляла и въедалась в клетки мозга - для этого нужен талант. И здесь талант прет из всех щелей (в хорошем смысле).

Данный альбом является апофеозом в творчестве Burzum. Этот альбом можно слушать при любом настроении, в разных состояниях он будет вызывать различные эмоции и наталкивать на размышления. В любом случае Filosofem не оставит вас безразличными.

Я гарантирую что если вы проникнитесь альбомом хоть раз, то он останется с вами на всю жизнь.

Благодаря этому альбому Burzum навсегда останется в моей медиатеке и не важно что выйдет потом.
(5) DarkHorde, Genuine Thrashiac, infiltrator, nadin85, nikolay81,
May 14 2016, 14:17:46 Mistur - In Memoriam (2016)
Заказал диск с футболкой.
(1) Strid,
Nov 9 2015, 18:21:23 СатанаКозёл - Север (2015)
ЦИТАТА(Lorke @ Nov 9 2015, 19:10:09) *
вот лось+сканы

не будьте упырями, если понравилось - покупайте релиз.

Опередил.

Lossless + Scans
Register
(3) 66666666, sanik, Луч,
Oct 24 2015, 14:23:56 СатанаКозёл - Медведь [single] (2015)


*Artist: СатанаКозёл
*Album: Медведь [single]
*Year: 2015
*Genre: Viking/Folk Metal
*Country: Russian Federation
*Format: mp3@CBR320kbps
*Size: 13MB

Tracklist:
1. Медведь 05:47
******************************
Total playing time: 5:47

[more=Technical info]
Input File: 01. Медведь.mp3
Channels : 2
Sample Rate : 44100
Precision : 16-bit
Duration : 00:05:47.07 = 15305567 samples = 26029.9 CDDA sectors
File Size : 13.9M
Bit Rate : 320k
Sample Encoding: MPEG audio (layer I, II or III)
Comments :
Title=Медведь
Artist=СатанаКозёл
Album=Single
Tracknumber=1
Year=2015
Genre=Folk Metal

[/more]

Register
(24) Aladex, ALEXSATHANAS, AlivePhantom, AndreFrancis, Aresson, Cartman223, csgmnk, Fess, infiltrator, LightWizard, metadeat, morbidangelo, nekrokilldozer, nirth, Old Vyaine, Rosen, RUSP73, suseka, tont, varlam4, wanderer73, Wolfera, wreak, ZambuL,
Oct 24 2015, 09:33:47 Aaskereia - Mit Raben und Wölfen (2003)
Lossless
Register
(2) Ildjarn, Razorbladeswaltz,
Sep 27 2015, 22:40:30 Yggdrasil - Vedergällning (2009)
320 kbps
Register

+ девятая бонусная песня Tusenеrslunden.
(6) ArchVZ, Fess, Limburger, varlam4, Witchlord, Zenial,
Mar 14 2015, 19:26:52 Therion - Vovin (1998)
MP3 320
Register


Lossless
Register
(2) infiltrator, nekrodaemon,
Mar 14 2015, 18:52:33 Stormlord - At The Gates Of Utopia (2001)
MP3 320
Register


Lossless
Register
(2) artscald, varg-38ru,
Mar 14 2015, 17:59:41 Diapsiquir - Lubie Satanique Dépravée (L.S.D.) (2003)
Абигор
Кто стучится в дверь ко мне
С Бафометом на ремне?
Три шестерки есть на бляшке
С Люцифером на фуражке?
Это он, это он -
Сатанинский почтальон!
(5) Black Cat, DarkHorde, varlam4, vosmidesijatye, Абигор,
Mar 7 2015, 21:15:30 Aaskereia - Mit Raben und Wölfen (2003)
MP3 320
Register


Lossless
Register
(5) AvantKitty, Forest Silence, Ostinato, satanist666, varg-38ru,
Mar 7 2015, 20:53:02 Saattue - Vuoroveri (2009)
MP3 320
Register


Lossless
Register
(1) NachtWulf,
Mar 7 2015, 20:11:29 Aaskereia - Mit Raben und Wölfen (2003)
ЦИТАТА(Forest Silence @ Mar 7 2015, 21:01:19) *
Дико плюсую, за флак был бы премного благодарен. 9.gif

Через час выложу.
(1) Forest Silence,
Mar 7 2015, 17:25:19 Mirrorthrone - Of Wind And Weeping (2003)
MP3 320
Register
(2) infiltrator, pfk505,
Mar 7 2015, 15:59:45 Morgul - The Horror Grandeur (2000)
Lossless
Register


MP3 320
Register
(1) DarkHorde,
Mar 7 2015, 10:34:51 Mirrorthrone - Carriers Of Dust (2006)
Уникальная группа. Музыка завораживает, обволакивает и поглощает всё твоё внимание. Недаром одно из направлений лирики - тщетность человечества. Музыка одновременно пугающая и притягивающая. Все виды вокала используемые в группе гармонично вписываются в рамках проекта. Многие пытаются сравнивать её с другими группами, но я считаю это не допустимо. Сочетание музыки, вокала и примененных техник делают группу уникальной. Три замечательных альбома, три неповторимых труда, заставляющих наслаждаться непревзойденной техникой и искусством исполнения, вот уже столько лет. В наши дни это такая редкость выпустить три альбома и все как на подбор. В общем не чета современным и не очень группам, которые не то что не хочется оставить на винте, но не получается дослушать альбом до конца. Всем людям с не атрофированным чувством прекрасного рекомендую слушать и наслаждаться.
(1) aesteticvice,
Aug 30 2014, 09:06:16 Aenygmist - Creation Born Of Trauma (2010)
Нормально так девки зажигают.
(1) randumbum,
Jul 12 2014, 10:17:01 Bloodrustes - Ночь Cкорби (2013)
Ночь скуки. Del
(1) SymbyoticEntity,
May 5 2014, 19:57:40 Vaalghul - Burning Souls [demo] (2014)
Понравилось. Бодренько играют. Оставляю.
(1) ddarkthrone,
Jun 14 2013, 14:56:24 Sacrilegious Impalement - III - Lux Infera (2013)
320 kbps
Register
(6) andrey010577, Constantinus I, DarkHorde, NachtWulf, smes, varlam4,

4 Pages V   1 2 3 > » 
- Lo-Fi Version Support form
Copyrights and abuse reports form
Time is now: 17th April 2024 - 22:43:56