Welcome Guest ( Log In | Register )

История благодарностей участнику vosmidesijatye ::: Спасибо сказали: 47699 раз(а)
Дата поста: В теме: За сообщение: Спасибо сказали:
Jul 5 2022, 20:24:36 Якорь - Над Могучей Страной [ep] (2022)
В модерке ещё три сингла от них паряца. Объединили бы они их - глядь, альбомчес бы полновесный выпустили, а не распалялись так)
(1) paganheart,
Jul 5 2022, 15:15:39 Якорь - Над Могучей Страной [ep] (2022)
Stalin Metal dwarf-1.gif
(4) DMIYUR, Emm Human, Glioma, nsk2008,
Jul 3 2022, 18:59:16 Grima - Rotten Garden (2021)
Grima - Frostbitten - 29 // 07 // 22

1. Gloomy Heart of the Coldest Land
2. Giant's Eternal Sleep
3. Into the Twilight
4. Hunger God
5. Moonspell and Grief
6. Winter Morn
(1) Veggr,
Jul 3 2022, 18:49:45 Новости Heavy/Power металла
Avantasia - A Paranormal Evening with the Moonflower Society - 21 // 10 // 22

1. Welcome to the Shadows
2. The Wicked Rule the Night
3. Kill the Pain Away
4. The Inmost Light
5. Misplaced Among the Angels
6. I Tame the Storm
7. Paper Plane
8. The Moonflower Society
9. Rhyme and Reason
10. Scars
11. Arabesque
(1) Emm Human,
Jul 3 2022, 18:47:30 Sinister Downfall - A Dark Shining Light (2020)
Sinister Downfall - The Last Witness - 24 // 09 // 22

1. Souls Enslaved
2. Into The Cold Ground
3. Eyes Forever Closed 09:59
4. Marble Slab
5. The Last Witness

[youtube]teC6cRmRQ68[/youtube]
(1) rominow,
Jul 3 2022, 17:43:28 Randy Holden - Population Iii (2022)


*Artist: Randy Holden
*Album: Population Iii
*Year: 2022
*Genre: Hard Rock/Heavy Psych
*Country: United States
*Format: mp3@CBR320kbps
*Size: 151MB

Tracklist:
1. Living End 06:38
2. Sands of Time 07:02
3. Land of the Sun 21:43
4. Swamp Stomp 06:34
5. Money's Talkin´ 04:16
6. Outside Looking In 06:13
******************************
Total playing time: 52:26



[more=Technical info]
Input File: 02. Sands of Time.mp3
Channels : 2
Sample Rate : 44100
Precision : 16-bit
Duration : 00:07:01.72 = 18597896 samples = 31629.1 CDDA sectors
File Size : 22.4M
Bit Rate : 425k
Sample Encoding: MPEG audio (layer I, II or III)
Comments :
Title=Sands of Time
Artist=Randy Holden
Album=Population III
Tracknumber=2/6
Year=2022
Genre=Rock
Discnumber=1/1

[/more]

Register
(1) Yarri,
Jul 2 2022, 22:10:08 Dodmorke - Kharabas Division (2022)
ЦИТАТА(Necrokilldozer @ Jul 2 2022, 20:41:20) *
3. New Era of VKBM 03:54


Самакритишна 1488.gif

Карабас Барабас блэк метал.

На очереди Старуха Шапокляк бм... crazy.gif
(1) RUSP73,
Jul 1 2022, 22:44:09 Новости Black-направления
ЦИТАТА(unhuman @ Jul 2 2022, 00:39:40) *
малейшая зацепка спровоцировала срач


Это ж МАшка, тут так всегда)
(1) Mihalik,
Jul 1 2022, 20:29:46 Manowar - Highlights From The Revenge Of Odysseus [ep] (2022)
ЦИТАТА(Emm Human @ Jul 1 2022, 22:23:09) *
Да мне не суть важно, что итальянский что греческий


пральна, ток грамыханье мятала и больше ниче 25.gif
(1) Emm Human,
Jun 30 2022, 19:13:37 Nick Cave - Seven Psalms (2022)


*Artist: Nick Cave
*Album: Seven Psalms
*Year: 2022
*Genre: Ambient/Spoken Word
*Country: Australia
*Format: mp3@CBR320kbps
*Size: 53MB

Tracklist:
1. How Long Have I Waited 01:36
2. Have Mercy On Me 01:32
3. I Have Trembled My Way Deep 01:15
4. I Have Wandered All My Unending Days 01:42
5. Splendour, Glorious Splendour 01:54
6. Such Things Should Never Happen 01:45
7. I Come Alone And To You 02:06
8. Psalm Instrumental 11:43
******************************
Total playing time: 23:33

[more=Technical info]
Input File: 01 How Long Have I Waited.mp3
Channels : 2
Sample Rate : 44100
Precision : 16-bit
Duration : 00:01:36.95 = 4275407 samples = 7271.1 CDDA sectors
File Size : 3.88M
Bit Rate : 320k
Sample Encoding: MPEG audio (layer I, II or III)
Comments :
Title=How Long Have I Waited?
Artist=Nick Cave
Album=Seven Psalms
Tracknumber=1/8
Year=2022

[/more]

Register
(3) canadaspaceman, mirotvorets, VALERY,
Jun 28 2022, 18:49:35 Ozzy Osbourne - Patient Number 9 [single] (2022)
ЦИТАТА(Winner @ Jun 28 2022, 20:31:40) *
Лучший у него


The Ultimate Sin.
(1) Shadowman,
Jun 27 2022, 21:51:17 Dusk Chapel - Martyrs Of Evolution [single] (2022)
ЦИТАТА(Shadowman @ Jun 27 2022, 23:30:32) *
Ну да, я кагбе никогда из этого тайны не делал )) Группешник, как ты выразился, мой.


Из поля моего зрения как то выпало что это твой группец и что грядет уже чатвертый альбомчес.

Ну удачи вам в ряализации всех твогческих задумак)
(1) Shadowman,
Jun 26 2022, 18:24:22 Swedish Old School Death Metal
ЦИТАТА(Anarhist815 @ Jun 26 2022, 20:06:27) *
Даже АС/ДС звучат жёстче, чем шведский олдскулл начала 90-х.


Очень жирно crazy.gif
(1) SSWolf88,
Jun 26 2022, 12:56:51 Bekëth Nexëhmü - De Dunklas Sorgeakt (Ett Nordiskt Afvsked​.​.​.​) (2022)
ЦИТАТА(RUSP73 @ Jun 26 2022, 14:44:40) *
многоликий Swartadauþuz


Некоторые так устали от его творчества что даже кюшать не могут его новьё 25.gif
(1) Chasm,
Jun 26 2022, 07:28:43 Wehrhammer - Zwanzig Jahre Verbrannte Erde (2015)


*Artist: Wehrhammer
*Album: Zwanzig Jahre Verbrannte Erde
*Year: 2015
*Genre: Black Metal
*Country: Germany
*Format: mp3@CBR320kbps
*Size: 89MB

Tracklist:
1. Zieh die Klinge und sei frei 05:09
2. Zum Sterben bereit 03:26
3. Der heisse Stuhl 04:07
4. Der Teufel kommt 03:12
5. Unser Feld und Hof 04:42
6. Die Wächter 04:56
7. Ja mein liebes Mädel 03:34
8. Geboren aus Feuer 01:46
9. Helena und Dordula 03:12
10. Gewalt 03:05
11. Der Galgenbaum 03:26
******************************
Total playing time: 40:35



[more=Technical info]
Input File: (01) zieh die klinge und sei frei.mp3
Channels : 2
Sample Rate : 44100
Precision : 16-bit
Duration : 00:05:09.43 = 13645687 samples = 23207 CDDA sectors
File Size : 12.4M
Bit Rate : 320k
Sample Encoding: MPEG audio (layer I, II or III)
Comments :
Title=Zieh die Klinge und sei frei
Artist=Wehrhammer
Album=Zwanzig Jahre verbrannte Erde
Tracknumber=1
Year=2015
Genre=Black Metal

[/more]

Register
(19) AlexSmith, Altkiller, artscald, caro, kefka, kim666, Mencae77, oldvarg, Olethros, pwoods, SilentNidhogg, stormhatt, supremo, Svafrlami, thenecromancer, the_cleanser, VALERY, Wail, wreak,
Jun 26 2022, 05:54:19 The Brian Jonestown Massacre - Fire Doesn't Grow On Trees (2022)


*Artist: The Brian Jonestown Massacre
*Album: Fire Doesn't Grow On Trees
*Year: 2022
*Genre: Psychedelic/Garage Rock
*Country: United States
*Format: mp3@CBR320kbps
*Size: 86MB

Tracklist:
1. The Real
2. Ineffable Mindfuck
3. It's About Being Free Really
4. Whats In A Name?
5. Silenced
6. Before And Afterland
7. You Think I'm Joking?
8. #1 LUCKY KITTY
9. Wait A Minute (230 to be exact)
10. Don't Let Me Get In Your Way
******************************
Total playing time: 37:43

[more=Technical info]
Input File: 01. The Real.mp3
Channels : 2
Sample Rate : 44100
Precision : 16-bit
Duration : 00:04:55.98 = 13052850 samples = 22198.7 CDDA sectors
File Size : 11.9M
Bit Rate : 322k
Sample Encoding: MPEG audio (layer I, II or III)
Comments :
Title=The Real
Artist=The Brian Jonestown Massacre
Album=Fire Doesn't Grow On Trees
Genre=Pop, Rock

[/more]

Register
(2) A.L.Rapsod, Olethros,
Jun 26 2022, 05:30:28 Ozzy Osbourne - Patient Number 9 [single] (2022)


*Artist: Ozzy Osbourne
*Album: Patient Number 9 [single]
*Year: 2022
*Genre: Heavy Metal
*Country: United Kingdom
*Format: mp3@CBR320kbps
*Size: 16MB

Tracklist:
1. Patient Number 9 07:21
******************************
Total playing time: 7:21

[more=Technical info]
Input File: 01. Patient Number 9.mp3
Channels : 2
Sample Rate : 44100
Precision : 16-bit
Duration : 00:07:21.49 = 19469841 samples = 33112 CDDA sectors
File Size : 17.7M
Bit Rate : 322k
Sample Encoding: MPEG audio (layer I, II or III)
Comments :
Title=Patient Number 9
Artist=Ozzy Osbourne
Album=Patient Number 9
Genre=Pop, Rock

[/more]

Register
(21) andivi, Aresson, artscald, Brown Herald, caro, cast_iron, chipsgott, Dante_D, dulak, gwar, infozahist, noel666, older68, plfan93, Reverend, rominow, sagratan, Shadowman, spazm, Wail, wreak,
Jun 24 2022, 19:00:42 Tracktor Bowling - Tracktor Bowling (2010)
ЦИТАТА(CTPEMLEHIE @ Jun 24 2022, 20:52:50) *
Луну уже не так любил. В ней чего-то не хватало, чтобы дотянуть до тракторов.


В первую очередь Л хуже Т по текстовой составляющей, слишком на злобу дня, в лоб, сиюминутно, канъюнктурненько. Плюс по музлу Т более сыры и качёвы.
(1) CTPEMLEHIE,
Jun 24 2022, 17:53:56 Виталий Дубинин - Бал-Маскарад (2022)
Кстати, Лепс то Гриша не менее драйвов в живую, чем многие эти ваши металисты. И орёт как надо и музыка тяжёленькая и экспрессия хлещет через край.

Всего лишь один из множества примеров:

[youtube]zf2iXmNtebQ[/youtube]

(2) CTPEMLEHIE, Faust_Vulkan_16,
Jun 24 2022, 11:36:28 Виталий Дубинин - Бал-Маскарад (2022)
Стремление так забавно бомбит уже третий час, всё успокоица не может 1488.gif

Виталию стоило записать свой вокал именно так, как он сделал только ради подобного смешного подгорания 15.gif
(1) CTPEMLEHIE,
Jun 24 2022, 11:21:58 Виталий Дубинин - Бал-Маскарад (2022)
Слух, ну он все же профессиональный музыкант, с начала 80-х на сцене, почти 40 шпарит в самой известной хэви банде России. Ему наверное лучше знать (слышать) как и что записывать. Он же не соседний алкаш забулдыга с лавки, который решил вдруг своим гопническим голосом че-то проорать.
(1) Faust_Vulkan_16,
Jun 24 2022, 10:38:28 Виталий Дубинин - Бал-Маскарад (2022)
Кста, кому альбом понравился, можете подкинуть шекелей Витале, на планете у него еще сбор в поддержку сабжа буит 22 дня идти https://planeta.ru/campaigns/dubininvitaly (пока собрано 2 366 600 рублей) - в 10 раз меньше чем у Алисы 25.gif
(1) Hellraiser,
Jun 23 2022, 14:11:02 Porcupine Tree - Closure/Continuation (2022)
ЦИТАТА(Yarri @ Jun 23 2022, 16:06:27) *
Аудиофил это называется.


Не, аудиофил это крайняя степень дгочильного перфекционизма, а тут чел просто наруливает КАЧЕСТВЕННЫЙ, подходящий для данного типа музыки звук. Это другое crazy.gif
(1) Faust_Vulkan_16,
Jun 23 2022, 13:05:47 Porcupine Tree - Closure/Continuation (2022)
Yarri Спасибо, ты всегда по делу базаришь, дельные советы даешь, без всяких этих натужных шутеечек. 9.gif
(1) Yarri,
Jun 22 2022, 20:48:08 Esoctrilihum - Dy'th Requiem For The Serpent Telepath (2021)
ЦИТАТА(biroutios @ Jun 22 2022, 22:14:10) *
15.gif


Double it. bye.gif
(1) biroutios,

512 Pages V   1 2 3 > » 
- Lo-Fi Version Support form
Copyrights and abuse reports form
Time is now: 7th July 2022 - 15:51:02