Welcome Guest ( Log In | Register )

История благодарностей участнику vosmidesijatye ::: Спасибо сказали: 35867 раз(а)
Дата поста: В теме: За сообщение: Спасибо сказали:
Yesterday, 19:06:10 Лучший советчик МА - Часть 4 (Блэк) - Тур 2
ЦИТАТА(6666666 @ Dec 12 2019, 21:58:36) *
Если конечно термины "херня", "говно", "для геев" ты считаешь нейтральными, то да.


На этом конкретном форуме это уже давно около-нейтральные термины.

Да и не будем забывать о субъективной оценке искусства которая предполагает ЛЮБЫЕ (и отличные от общих точки зрения в том числе) оценки даже самые резкие оценки творчесеого продукта приемлемыми.

Да и не следует тебе кто чуть не чаще меня кидается подобными терминами в описании музыки - меня в этом обвинять.

(1) Utugg,
Dec 11 2019, 17:30:18 Лучший советчик МА - Часть 4 (Блэк) - Тур 2
ЦИТАТА(Exorcist @ Dec 11 2019, 19:27:45) *
Не угадал


А тогда почему?

Ты вероятно хорошего эмбента не слышал просто - из мэтров - Ластморд там, Брайан Ино хотя бы...
(1) Alexis The Best,
Dec 11 2019, 17:09:13 Лучший советчик МА - Часть 4 (Блэк) - Тур 2
ЦИТАТА(Emm Human @ Dec 11 2019, 19:02:20) *
Какой-то ад в теме творится... сразу видно - про истинный TRUE люди вещают


Так черныш же, жанр обязывает обмазаться кетчупом накрасить ряшку белилами и вмочиф пойлеца строчить по клавишам праклятья подобно читателм журнала Дарк Сцыти 1488.gif
(1) Emm Human,
Dec 11 2019, 16:37:59 Лучший советчик МА - Часть 4 (Блэк) - Тур 2
ЦИТАТА(Exorcist @ Dec 11 2019, 18:34:29) *
Берёшь Clandestine Blaze и слушаешь, как там сыграны гитарные соло - и вот тебе пример.


Дима, тут даже я подпрыгнул от злости и обиды за группу mad_ani.gif 14.gif
(1) Alexis The Best,
Dec 11 2019, 11:08:58 Colour Haze - We Are (2019)


*Artist: Colour Haze
*Album: We Are
*Year: 2019
*Genre: Psychedelic/Stoner Rock
*Country: Germany
*Format: mp3@CBR320kbps
*Size: 104MB

Tracklist:
1. We Are 03:23
2. The Real 08:38
3. Life 08:44
4. Material Drive 04:32
5. I'm With You 07:31
6. Be With Me 05:40
7. Freude III 07:02
******************************
Total playing time: 45:30



[more=Technical info]
Input File: 01. We Are.mp3
Channels : 2
Sample Rate : 44100
Precision : 16-bit
Duration : 00:03:23.95 = 8994283 samples = 15296.4 CDDA sectors
File Size : 8.22M
Bit Rate : 322k
Sample Encoding: MPEG audio (layer I, II or III)
Comments :
Title=We Are
Artist=Colour Haze
Album=We are [Elektrohasch Rec., Elektrohasch 012]
Tracknumber=1
Year=2019
Genre=Stoner/Psychedelic Rock

[/more]

Register
(3) marilin, Olethros, xska,
Dec 11 2019, 10:32:08 Me And That Man - Run With The Devil [single] (2019)


*Artist: Me And That Man
*Album: Run With The Devil [single]
*Year: 2019
*Genre: Country/Folk
*Country: Poland
*Format: mp3@CBR320kbps
*Size: 7MB

Tracklist:
1. Run With The Devil 02:30
******************************
Total playing time: 2:30



[more=Technical info]
Input File: 01. Run with the Devil.mp3
Channels : 2
Sample Rate : 44100
Precision : 16-bit
Duration : 00:02:30.26 = 6626642 samples = 11269.8 CDDA sectors
File Size : 6.01M
Bit Rate : 320k
Sample Encoding: MPEG audio (layer I, II or III)
Comments :
Title=Run with the Devil
Artist=Me And That Man
Album=Run with the Devil
Tracknumber=01/01
Year=2019-19-20
Discnumber=1/1

[/more]

Register
(2) Krosis, paganheart,
Dec 10 2019, 21:47:44 Slayer - The Repentless Killogy [live] (2019)
ЦИТАТА(Фо @ Dec 11 2019, 00:43:41) *
Не могу разобрать, кому он там не верит?


Он не верит любому, кому не нравица Слеер. 25.gif
(2) Ghostb, infiltrator,
Dec 9 2019, 20:45:22 Lamp Of Murmuur - Chasing The Path Of The Hidden Master (2019)
@320

Register
(2) LVXXVL, yuratroll,
Dec 9 2019, 20:36:57 Лучший советчик МА - Часть 4 (Блэк) - Тур 2
Прошу пардону заранее за 12 штук архивов!

Все большие файлошары внезапно начали либо со скоростью черепахи загружаться а потом обрываться, либо дико тормозить.

Поэтому разбил все на 12 частей. Большинство альбомов - в 320, встречаются чуть ниже битрейт ну и флакцы того что здесь мертво.

Архивы могли бы быть забиты плотнее но я придерживался дат выпуска релизов для систематизации поэтому вот так. Чтобы без путаницы.

Дезе, ты так и так ливанешь на гугло диск, может к тому времени он зафурычит...

Вся блэчина сего турца тут (в хронологической последовательности):

Register


Register


Register


Register


Register


Register


Register


Register


Register


Register


Register


Register
(1) Deze,
Dec 9 2019, 18:09:20 Лучший советчик МА - Часть 4 (Блэк) - Тур 2
Скоро архивы на всё припаркую true_black.gif
(1) Deze,
Dec 9 2019, 15:25:20 Deaf Proof - Brain Utopia (2019)


*Artist: Deaf Proof
*Album: Brain Utopia
*Year: 2019
*Genre: Psychedelic/Stoner Doom Metal/Heavy Psych
*Country: Germany
*Format: mp3@CBR320kbps
*Size: 85MB

Tracklist:
1. Brain Utopia 14:20
2. Trial and Error 04:34
3. The Awakening 15:43
4. Desert Man 02:22
******************************
Total playing time: 36:59



[more=Technical info]
Input File: 01. Brain Utopia.mp3
Channels : 2
Sample Rate : 44100
Precision : 16-bit
Duration : 00:14:20.11 = 37930675 samples = 64508 CDDA sectors
File Size : 34.7M
Bit Rate : 322k
Sample Encoding: MPEG audio (layer I, II or III)
Comments :
Title=Brain Utopia
Artist=Deaf Proof
Album=Brain Utopia
Tracknumber=1
Year=2019-11-04
Genre=Heavy Psych / Stoner Rock

[/more]

Register
(4) gena, marilin, Olethros, VALERY,
Dec 9 2019, 12:51:20 Spaceslug - Reign Of The Orion [ep] (2019)


*Artist: Spaceslug
*Album: Reign Of The Orion [ep]
*Year: 2019
*Genre: Psychedelic/Doom Metal
*Country: Poland
*Format: mp3@CBR320kbps
*Size: 85MB

Tracklist:
1. Down To The Sun 07:33
2. SpaceRunner 06:39
3. Half-Moon Burns 08:45
4. Trees Of Gold 03:56
5. Beneath The Haze 09:17
******************************
Total playing time: 36:10



[more=Technical info]
Input File: 01. Down to the Sun.mp3
Channels : 2
Sample Rate : 44100
Precision : 16-bit
Duration : 00:07:34.09 = 20025281 samples = 34056.6 CDDA sectors
File Size : 18.7M
Bit Rate : 329k
Sample Encoding: MPEG audio (layer I, II or III)
Comments :
Title=Down to the Sun
Artist=Spaceslug
Album=Reign of the Orion
Tracknumber=1/5
Year=2019
Genre=Rock
Discnumber=1/1

[/more]

Register
(13) ahp, BandR75, denver, Foneg, marilin, Olethros, Ostinato, robertho777, Rosen, stumpheavyrock, Teshub, VALERY, zhol,
Dec 7 2019, 13:26:43 Nightwish - Decades: Live In Buenos Aires [live] (2019)
ЦИТАТА(6666666 @ Dec 7 2019, 15:15:44) *
Да. А ты и его любишь?


Ты еще хуже стал стрелки переводить.

Оригинальные версии песен роднее все же.
(1) Ghostb,
Dec 5 2019, 20:35:06 Tyranni - Baron Af Avoghetens Smärta (2019)
@320

Register


Register
(2) rimfrost, zargonath,
Dec 5 2019, 20:31:16 Make A Change... Kill Yourself - Oblivion Omitted (2019)
А ведь в свое время они знатно радовали людей, хайп на них был среди любителей блэка очень даже нехилый.
(1) barzuk74,
Dec 5 2019, 20:04:02 Nedxxx - Nedxxx (2019)
@320

Register


Register
(11) Doooomed, Legacy100, NOMIDIMON, Occultas, Olethros, peppuzzo, Swastika, Trelledorn, vasiljev_sergej, xska, дивин,
Dec 5 2019, 19:56:19 Unreal - Демиурги Сновидений (2012)
@320

Register


Register
(1) Fess,
Dec 5 2019, 19:16:33 Новости Black-направления
Velmi этот релизец тока шо в модерку положил 25.gif
(1) Occultas,
Dec 5 2019, 19:05:10 Iguana - Translational Symmetry (2019)


*Artist: Iguana
*Album: Translational Symmetry
*Year: 2019
*Genre: Psychedelic Rock
*Country: Germany
*Format: mp3@CBR320kbps
*Size: 116MB

Tracklist:
1. Time Translation Symmetry 04:32
2. Below The Hinderlands 04:29
3. Leaving Crete 03:44
4.nThe Fish Code 03:15
5. Vessel Meerkatze 04:38
6. Rites Of Passages 08:42
7. Hear The Kid Out 03:37
8. Repeating Odd Dream 05:01
9. Spinning Top 06:05
******************************
Total playing time: 44:03



[more=Technical info]
Input File: 01 Time Translation Symmetry.mp3
Channels : 2
Sample Rate : 44100
Precision : 16-bit
Duration : 00:04:32.13 = 12001021 samples = 20409.9 CDDA sectors
File Size : 12.7M
Bit Rate : 373k
Sample Encoding: MPEG audio (layer I, II or III)
Comments :
Title=Time Translation Symmetry
Artist=Iguana
Album=Translational Symmetry
Tracknumber=01
Year=2019
Genre=Psychedelic Rock

[/more]

Register
(5) ahp, gena, marilin, Olethros, paganheart,
Dec 3 2019, 14:55:14 Avatarium - Hurricanes And Halos (2017)
Рус, держи прямую конташу

@320

Register
(1) hammer,
Dec 3 2019, 08:54:55 Ayahuasca - Naad (2019)


*Artist: Ayahuasca
*Album: Naad
*Year: 2019
*Genre: Psychedelic/Stoner Rock/Heavy Psych
*Country: Italy
*Format: mp3@CBR320kbps
*Size: 83MB

Tracklist:
1. Intro 02:40
2. Vicious Mothers 05:00
3. Masses 04:56
4. Before Death 02:05
5. I Wanna Fall 04:14
6. Inner Space 05:10
7. Before Life 00:59
8. The Black One 03:27
9. Underwater 01:52
10. The Seer & The Queen 06:01
******************************
Total playing time: 36:24



[more=Technical info]
Input File: 02 Vicious Mothers.mp3
Channels : 2
Sample Rate : 44100
Precision : 16-bit
Duration : 00:05:00.81 = 13265633 samples = 22560.6 CDDA sectors
File Size : 12.0M
Bit Rate : 320k
Sample Encoding: MPEG audio (layer I, II or III)
Comments :
Title=Vicious Mothers
Artist=AyahuascA
Album=Naad
Tracknumber=02/10
Year=2019
Genre=Psychedelic/Stoner Rock

[/more]

Register
(5) ahp, marilin, metaljosue, Olethros, stub888,
Dec 3 2019, 08:50:54 Snakes Don't Belong In Alaska & Suzuki Junzo - The Ascended Master Teachings Of Junzo Suzuki & Snakes Don't Belong In Alaska (2019)


*Artist: Snakes Don't Belong In Alaska & Suzuki Junzo
*Album: The Ascended Master Teachings Of Junzo Suzuki & Snakes Don't Belong In Alaska
*Year: 2019
*Genre: Psychedelic/Space Rock/Krautrock
*Country: United Kingdom
*Format: mp3@CBR320kbps
*Size: 169MB

Tracklist:
1. Outer Heaven's Gate Pt. I: Higher Source 22:54
2. Outer Heaven's Gate Pt. II: Away Team 18:40
3. The Order Of The Ash Ra Solar Tempel 18:29
4. SurRaëlism 13:44
******************************
Total playing time: 1:13:47



[more=Technical info]
Input File: 01-Outer Heavens Gate Pt I - Higher Source.mp3
Channels : 2
Sample Rate : 44100
Precision : 16-bit
Duration : 00:22:54.85 = 60630797 samples = 103114 CDDA sectors
File Size : 55.2M
Bit Rate : 321k
Sample Encoding: MPEG audio (layer I, II or III)
Comments :
Title=Outer Heavens Gate Pt I: Higher Source
Artist=Junzo Suzuki And Snakes Dont Belong In Alaska
Album=The Ascended Master Teachings Of
Tracknumber=1
Year=2019
Genre=psychedelic rock

[/more]

Register
(6) Angry_Chair, Diflock, gena, marilin, Olethros, stub888,
Dec 2 2019, 18:15:18 Esoteric - A Pyrrhic Existence (2019)
ЦИТАТА(Faust_Vulkan_16 @ Dec 2 2019, 20:04:15) *
например СССР в 1945, учитывая как сейчас живет Россия и Германия. bye.gif


Мы даже зимбабве проиграли по всем основным показателям.

Альбом лучше прошлого, более выверенный.
(1) Faust_Vulkan_16,
Dec 2 2019, 15:54:10 Bestial Invasion - Monomania (2019)
ЦИТАТА(avkruchinin @ Dec 2 2019, 17:53:17) *
Ну не знаю даже, как по мне, так всё в рамках приличия)


Так ты даже когда выпьешь, становишься еще более культурным, не забывай 1488.gif
(1) avkruchinin,
Dec 2 2019, 11:55:27 Slayer - South Of Heaven (1988)
ЦИТАТА(Tarelka @ Dec 2 2019, 13:50:08) *
А вы эстет батенька.) Тады вам срочняком прослушать все творения Poppy pray.gif


Ты уже свою Poppu не знаешь, куда воткнуть)

(1) plfan93,

426 Pages V   1 2 3 > » 
- Lo-Fi Version Support form
Copyrights and abuse reports form
Time is now: 13th December 2019 - 02:06:42