Welcome Guest ( Log In | Register )

История благодарностей участнику vosmidesijatye ::: Спасибо сказали: 53891 раз(а)
Дата поста: В теме: За сообщение: Спасибо сказали:
Today, 15:51:26 Brodequin - Harbinger Of Woe (2024)
@320

Register


Register
(1) Carcharoth,
Yesterday, 12:27:55 Anneliese Michel - Ересь (2024)


*Artist: Anneliese Michel
*Album: Ересь
*Year: 2024
*Genre: Black Metal/Punk/Crust
*Country: Russian Federation
*Format: mp3@CBR320kbps
*Size: 67MB

Tracklist:
1. Самозабвение
2. Шлюха Сатаны
3. Хаос Из Глубин
4. Ересь
5. Anneliese Michel
6. Паника В Селе (Король И Шут Cover)
7. Чёрный Камень (Live)
******************************
Total playing time: 29:31

[more=Technical info]
Input File: 02 Шлюха сатаны.mp3
Channels : 2
Sample Rate : 44100
Precision : 16-bit
Duration : 00:03:58.56 = 10520364 samples = 17891.8 CDDA sectors
File Size : 9.54M
Bit Rate : 320k
Sample Encoding: MPEG audio (layer I, II or III)
Comments :
Title=Шлюха сатаны
Artist=Anneliese Michel
Album=Ересь
Tracknumber=2
Year=2024
Genre=Black Metal

[/more]

Register
(2) artscald, wreak,
Yesterday, 12:23:11 Carnivorous Neoplasm - Collection Of Deadly Pathologies [ep] (2024)


*Artist: Carnivorous Neoplasm
*Album: Collection Of Deadly Pathologies [ep]
*Year: 2024
*Genre: Brutal Death Metal
*Country: Russian Federation
*Format: mp3@CBR320kbps
*Size: 50MB

Tracklist:
1. Deformity Of The Body From Gout
2. Hashimoto's Thyroiditis
3. Lymphogenic Metastasizing Sarcoma
4. Necrotizing Fasciitis
5. Absorption Fibrosis
6. Asthmatic Suffocation
******************************
Total playing time: 21:47

[more=Technical info]
Input File: 02. Hashimoto\'s Thyroiditis.mp3
Channels : 2
Sample Rate : 44100
Precision : 16-bit
Duration : 00:03:16.00 = 8643600 samples = 14700 CDDA sectors
File Size : 7.81M
Bit Rate : 319k
Sample Encoding: MPEG audio (layer I, II or III)
Comments :
Title=Hashimoto's Thyroiditis
Artist=Carnivorous Neoplasm
Album=Collection of Deadly Pathologies
Tracknumber=2
Year=2024
Genre=Brutal Death Metal

[/more]

Register
(3) artscald, rominow, wreak,
Yesterday, 12:18:50 Hellicobacter - Головокрушение (2024)


*Artist: Hellicobacter
*Album: Головокрушение
*Year: 2024
*Genre: Thrash Metal
*Country: Russian Federation
*Format: mp3@CBR320kbps
*Size: 114MB

Tracklist:
1. Вструпление
2. Двигатель
3. Пожиратель Дней
4. Вирус
5. Молекулярная Хирургия
6. Естественный Отбор
7. Не В Себе
8. Ждун
9. Петля
10. Шрамы
11. Дистрибьютор
12. Апельсиновый Огонь
******************************
Total playing time: 49:14

[more=Technical info]
Input File: 02 Двигатель.mp3
Channels : 2
Sample Rate : 44100
Precision : 16-bit
Duration : 00:04:14.39 = 11218467 samples = 19079 CDDA sectors
File Size : 10.2M
Bit Rate : 320k
Sample Encoding: MPEG audio (layer I, II or III)
Comments :
Title=Двигатель
Artist=Hellicobacter
Album=Головокрушение
Tracknumber=2
Year=2024
Genre=Thrash Metal

[/more]

Register
(6) boby9052, cast_iron, infozahist, postal67, rominow, wanderer73,
Yesterday, 11:51:27 Новости Heavy/Power металла
Axel Rudi Pell - Risen Symbol - 14 // 06 // 24



1. The Resurrection (Intro)
2. Forever Strong
3. Guardian Angel
4. Immigrant Song
5. Darkest Hour
6. Ankhaia
7. Hell's on Fire
8. Crying in Pain
9. Right on Track
10. Taken by Storm
(1) avather,
Feb 25 2024, 10:22:51 Borknagar - Fall (2024)
ЦИТАТА(Bloodn Lord @ Feb 25 2024, 12:20:51) *
Ну вы тут и развели 15.gif

Всё же очень просто.

Скучно = скучно.

И точка 1488.gif 19.gif 8.gif


Молодец, кратко и по делу)))

А я вот не могу, включаю режим болтолога когда пытаюсь Жене донести ошибочность его занудства. Кстати уверен что вживую он наверняка прост и легок в общении, ведь правда же (особенно за бутылкой пойлеца)))
(1) Bloodn Lord,
Feb 25 2024, 10:04:21 Borknagar - Fall (2024)
ЦИТАТА(Daale @ Feb 25 2024, 11:58:45) *
Чем?


Тем что создают общее пространство дискуссий.

ЦИТАТА(Daale @ Feb 25 2024, 11:58:45) *
Любые точки зрения важны? А моя не важна получается?


Не важно (а точнее не нужно) докапывание с просьбами дальнейшего пояснения почему говно или почему не понравилось.

Я съел условный салат. Мне он не понравился. Я об этом сказал. Ты спросил почему? Я отвечу - не вкусный. И все. Но ты начнешь спрашивать - чем именно не вкусный, какие сосочки языка тебе сказали что он невкусный и т.д.

Вот также и ты о музле зудишь)))
(2) vadim31god, Фо,
Feb 25 2024, 09:53:06 Borknagar - Fall (2024)
Жень, твоя ошибка в том что ты НЕ можешь (или не хочешь, не желаешь) принять факт РАВНОЦЕННОСТИ любых мнений и оценок, поданных в ЛЮБЫХ обрамлениях. Например, условные развёрнутая рецензия от FullOfHate и лаконичное "Скучное говно" от какого нибудь другого юзера ОДИНАКОВО важны и нужны для портала ибо создают общий пул обсуждений (для чего собственно все тут и собрались). И неважно, что одно более аналитично, а другое - максимально краткий выплеск эмоций.
Аргументированное и апеллирующее к аналогиям и эпитетам - в равной степени не нуждаются в твоих "А докажи!", "А разъясни!", "А верифицируй!"

Тут это создает ненужную духоту, псевдонаучность тут не нужна, здесь не теоремы доказывают и не разводят новый сорт капусты. Всего лишь тут слушают (сердцем и душой) ор и лязг патлатых. smile3.gif
(1) vadim31god,
Feb 25 2024, 08:50:19 Bonestorm - Under The Sight Of Time (2024)
Действительно ШИКАРНЕЙШИЙ материал. Очередные продолжатели дела БТ, ну так это замечатлеьно, ребята талантливые, наворотили сочно-звучного, мощно-звучащего, башкотрясно-качающего, по правильному мелодичного вкусного дэта. В полку к Humiliation прибыло.

В топ года по поджанру (да и вообще) однозначно.

Строжайшие рекомендации. Вот такой дэт нам нужен, а не то что там новый Deicide выдаст 15.gif
(1) Andrew,
Feb 25 2024, 08:45:34 Borknagar - Fall (2024)
ЦИТАТА(Daale @ Feb 25 2024, 10:38:59) *
Повторяю: докажи, что твоё зёв значительней моего не_зёва.


Это тебе не вещь, которую можно пощупать, замерить, провести замеры.

Эмоционально-чувственное на то и оно что идет из глубин подсознания, это жывотное, а не рационально-математическое.

Тут все просто - прёт - не прёт, душа поёт под это или рука выключает занудство к середине (если не раньше). И никакой линейкой, аршином это не измерить.

Искусство на то и искусство, что апеллирует к душе, к чувствам, эмоциям, которые априори не калькуляберны.
(2) Mihalik, vadim31god,
Feb 25 2024, 08:39:14 My Dying Bride - A Mortal Binding (2024)
Да, музыкально пожещще стало, аллюзии к The Light At The End Of The World более, чем зримы (те же Thornwyck Hymn, The 2nd of Three Bells как будто с альбома 1999 года и сошли и вокалом и музлом), Аарон пошёл вразнос с гроулом в Her Dominion и The Apocalyptist.

Да вот только слушается это как второсортные объедки с гениального альбома, группа попыталась второй раз войти в ту же реку, однако повторить шедевр крайне редко получается и тут конечно же это не удалось. Песни звучат вымученно, зевотно, тянутся-тянутся как незнамо шо.

Понятно желание мущщин не застревать, не застаиваться в собственно-созданных рамках, но камон, ведь удавалось же им пересобирать, ревитализировать свое творчество, уходя от привычности в что-то иное (готишность на 2006 и романтизм на 2009 - вот они звучали и свежо и интересно и до сих пор слушаются просто великолепно).

Сабж же просто калька с прошлых (бесспорно шикарных) наработок, но такая конвеерная, как будто их заставляли наигрывать эти песни...

Ожидания не были высоки, но положительные комменты воодушевили, оказалось что таки нет, не смогли. Ну и ладно, ведь шикарное прошлое творчество по прежнему имеется.

А вот от второго The Map Of All Our Failures я бы не отказался, вот там они так скуку красиво музыкально подали, что аж вах-вах-вах как прекрасно.
(1) Shadowman,
Feb 24 2024, 09:21:35 Vanden Plas - The Ghost Xperiment - Illumination (2020)
Vanden Plas - The Empyrean Equation of the Long Lost Things - 19 // 04 // 24



1. The Empyrean Equation of the Long Lost Things
2. My Icarian Flight
3. Sanctimonarium
4. The Sacrilegious Mind Machine
5. They Call Me God
6. March of the Saints
(1) avather,
Feb 24 2024, 09:02:33 Новости направления MDM
Новым синглом поддадут 7 марта

(2) Emm Human, kostja,
Feb 24 2024, 08:51:57 Кирха - Thule (2023)


*Artist: Кирха
*Album: Thule
*Year: 2023
*Genre: Medieval Black Metal
*Country: Russian Federation
*Format: mp3@CBR320kbps
*Size: 67MB

Tracklist:
1. Jасень
2. Thule
3. Старого Лєса Покој
4. Жрава
5. Sieben Tage Lang
6. Иде Војак
7. Утгард
8. Ночлег
******************************
Total playing time: 29:24

[more=Technical info]
Input File: 02 Thule.mp3
Channels : 2
Sample Rate : 44100
Precision : 16-bit
Duration : 00:03:35.03 = 9482735 samples = 16127.1 CDDA sectors
File Size : 8.60M
Bit Rate : 320k
Sample Encoding: MPEG audio (layer I, II or III)
Comments :
Title=Thule
Artist=Кирха
Album=Thule
Tracknumber=2
Year=2023
Genre=Medieval Black Synth

[/more]

Register
(8) AlexSmith, artscald, infozahist, Surt, thenecromancer, vlad74, Wail, Xutun,
Feb 24 2024, 08:48:53 Кирха - Там Уж Jагода Дозрєла (2023)


*Artist: Кирха
*Album: Там Уж Jагода Дозрєла
*Year: 2023
*Genre: Medieval Black Metal
*Country: Russian Federation
*Format: mp3@CBR320kbps
*Size: 68MB

Tracklist:
1. Дары
2. Выјут Хладне Вєтры
3. Дрєвных Дрєвес Зов
4. Хорсов Стяг I
5. Там Уж Jагода Дозрєла
6. Хорсов Стяг II
7. Волотав Кров
8. Дрєвне Свиткы
9. Ramund
******************************
Total playing time: 29:58

[more=Technical info]
Input File: 01 Дары.mp3
Channels : 2
Sample Rate : 44100
Precision : 16-bit
Duration : 00:01:35.17 = 4197085 samples = 7137.9 CDDA sectors
File Size : 3.81M
Bit Rate : 320k
Sample Encoding: MPEG audio (layer I, II or III)
Comments :
Title=Дары
Artist=Кирха
Album=Там Уж Jагода Дозрєла
Tracknumber=1
Year=2023
Genre=Medieval Black Synth

[/more]

Register
(8) AlexSmith, artscald, dermarsoran, infozahist, Surt, vlad74, Wail, Weikai,
Feb 24 2024, 08:46:01 Кирха - Лије Се Тиха Наша Пєснь (2024)


*Artist: Кирха
*Album: Лије Се Тиха Наша Пєснь
*Year: 2024
*Genre: Atmospheric Black Metal
*Country: Russian Federation
*Format: mp3@CBR320kbps
*Size: 72MB

Tracklist:
1. Лије Се Тиха Наша Пєснь
2. Одломкы Бомб, Да Солзы Вдов
3. Половина
4. Крєпке Објетја Матере
5. Без Мене
6. Tourdion
7. Лєсного Дочеры Цара
8. Разстелье Покрывало Ноч
9. Льудоједам
10. Стрєчај Мене
******************************
Total playing time: 31:19

[more=Technical info]
Input File: 06 tourdion.mp3
Channels : 2
Sample Rate : 44100
Precision : 16-bit
Duration : 00:03:12.07 = 8470111 samples = 14405 CDDA sectors
File Size : 7.68M
Bit Rate : 320k
Sample Encoding: MPEG audio (layer I, II or III)
Comments :
Title=tourdion
Artist=Кирха
Album=лије се тиха наша пєснь
Tracknumber=6
Year=2024
Genre=Medieval Black Synth

[/more]

Register
(8) AlexSmith, artscald, dermarsoran, infozahist, Surt, vlad74, Wail, Weikai,
Feb 24 2024, 08:42:45 Srce - Агния (2024)


*Artist: Srce
*Album: Агния
*Year: 2024
*Genre: Post-Black Metal
*Country: Russian Federation
*Format: wv
*Size: 335MB

Tracklist:
01. Исход
02. Смута
03. Агния
04. Мороз
05. Море
06. Юдоль
07. Юдоль (Акустическая версия)
08. Эдем
09. Сон
******************************
Total playing time: 47:28

Register
(5) aleon, AndreFrancis, Aresson, SilentNidhogg, Wail,
Feb 24 2024, 08:38:08 Neuralectomy - Silent Valley Obituary (2024)


*Artist: Neuralectomy
*Album: Silent Valley Obituary
*Year: 2024
*Genre: Brutal Death Metal
*Country: International
*Format: mp3@CBR320kbps
*Size: 65MB

Tracklist:
1. Home: Call Of Silent Hill
2. Ode To Gray Children
3. Hell Encounter With The Red Pyramid
4. Ominous Devouring Parasite
5. Labyrinth Of Torment (feat. Abomination Putridus)
6. Symphony Written in Blood
7. Unholy Sins: Dark Nurses (feat. Extermination Dematerialization)
8. Colin: The Suffering Of A Lustful Martyr
9. Keys To Truth
******************************
Total playing time: 28:39

[more=Technical info]
Input File: 01. Home_Call of Silent Hill.mp3
Channels : 2
Sample Rate : 44100
Precision : 16-bit
Duration : 00:03:34.25 = 9448205 samples = 16068.4 CDDA sectors
File Size : 8.57M
Bit Rate : 320k
Sample Encoding: MPEG audio (layer I, II or III)
Comments :
Title=Home: Call of Silent Hill
Artist=Neuralectomy
Album=Silent Valley Obituary
Tracknumber=01
Year=2024
Genre=Death Metal

[/more]

Register
(12) artscald, Grabarz, grobator, infozahist, jollo, Korpse, maochen, respect, vyacheslav, Wail, wreak, xariton,
Feb 23 2024, 12:15:29 Новости Death Metal направления
Pestilence - Levels of Perception - 26 // 04 // 24



1. Horror Detox
2. Mvlti Dimensional
3. Mobvs Propagationem
4. Sinister
5. Dehydrated
6. Dominatvi Svbmissa
7. Land of Tears
8. Necromorph
9. Deificvs
10. Twisted Truth
11. Sempiternvs
12. Ovt of the Body
(3) avather, Emm Human, Thrashman,
Feb 22 2024, 16:49:01 Borknagar - Fall (2024)
Интересны также мнения Ghostb и paganheart. Ребьзя не затягивайте с прослушкой и отзывами)

Да и Женьчу Даале почитал бы с плезиром, ведь он уже хитрый жучара отслушал сабж раньше всех тута 15.gif
(1) BleedingSun,
Feb 22 2024, 15:29:24 Borknagar - Fall (2024)
Bleeding Sun, Эдик, твои пошли, гоу гоу гоу)))
(1) BleedingSun,
Feb 21 2024, 17:59:40 Freedom Call - M.E.T.A.L. (2019)
Freedom Call - Silver Romance - 10 // 05 // 24



1. Silver Romance
2. Symphony of Avalon
3. Supernova
4. Infinity
5. Out of Space
6. Distant Horizon
7. In Quest of Love
8. Blue Giant
9. Meteorite
10. Big Bang Universe
11. New Haven
12. High Above
13. Metal Generation
(1) Izverg,
Feb 21 2024, 17:59:24 Новости Heavy/Power металла
Freedom Call - Silver Romance - 10 // 05 // 24



1. Silver Romance
2. Symphony of Avalon
3. Supernova
4. Infinity
5. Out of Space
6. Distant Horizon
7. In Quest of Love
8. Blue Giant
9. Meteorite
10. Big Bang Universe
11. New Haven
12. High Above
13. Metal Generation
(3) avather, Emm Human, Foneg,
Feb 21 2024, 17:53:31 Новости Black-направления
Antichrist Siege Machine - Vengeance of Eternal Fire - 19 // 04 // 24



1. Son of Man
2. Only Evil
3. Piled Swine
4. Sisera
5. Cowering Lamb
6. Prey Upon Them
7. Vanquishing Spirit
8. Scalding Emnity
9. Lysergic War Psychosis
10. Abyssal Hate

Kawir - Kydoimos - 19 // 04 // 24



1. Teiresias
2. Fields of Flegra
3. Centauromachy
4. Hecatonchires
5. Myrmidons
6. Achilles & Hector
7. Achilles Funeral
8. Echetlaeus
9. Kydoimos
10. War is The Father of All
(2) avather, Occultas,
Feb 21 2024, 17:01:36 Enthroned Primordial - Dying Alone [ep] (2023)
Названия для следующих групп:

Immortal Burzum

Dimmu Cradle

Immolation Suffocation

Slayer Anthrax

Lost Bride

etc 1488.gif
(1) nsk2008,

563 Pages V   1 2 3 > » 
- Lo-Fi Version Support form
Copyrights and abuse reports form
Time is now: 5th March 2024 - 16:17:19