Welcome Guest ( Log In | Register )

История благодарностей участнику vosmidesijatye ::: Спасибо сказали: 37851 раз(а)
Дата поста: В теме: За сообщение: Спасибо сказали:
Yesterday, 18:11:21 Чудодейственные свойства гомеопатии, или Голосовалка за лучший альбом 2019 года, Тур 2, Плэй-офф
ЦИТАТА(Фо @ Apr 8 2020, 20:52:18) *
а вот это - Allegaeon Bestial Invasion Inanimate Existencе - ну, это, конечно, 22.gif


И еще дополнительная толика презрения выражена в смешении названий этих коллективов в одну кучку, без знаков разделения. 25.gif 1488.gif
(3) Baudolino, infiltrator, Фо,
Apr 7 2020, 18:53:02 Pearl Jam - Gigaton (2020)
ЦИТАТА(Snowblind @ Apr 7 2020, 21:39:47) *
ув.тов. 80-уго и Фроста за откровенную дезу по музыкальной части предлагаю забанить на сутки, как 20+ кратный штраф за почти часовой проходной кругляш


Пассажиром ошибся, я за жанр сего альбома ничего не писал.
(1) Faust_Vulkan_16,
Apr 7 2020, 17:55:10 The Flamingo Jones - The 5Th Floor Of The Tree (2020)


*Artist: The Flamingo Jones
*Album: The 5Th Floor Of The Tree
*Year: 2020
*Genre: Psychedelic/Acid Rock
*Country: Australia
*Format: mp3@CBR320kbps
*Size: 182MB

Tracklist:
1. Pearl and The Dreams 13:36
2. Leaving Town 11:12
3. Monkey Mind 02:44
4. Road Runner / Sun / Robot Baby 11:02
5. Night Train Electric 06:18
6. Krakatrain 05:03
7. 1, 2, 3 Cool 01:52
8. Witch Jam 03:16
9. Magma Pearl 23:14
******************************
Total playing time: 1:18:17



[more=Technical info]
Input File: The Flamingo Jones - The 5th Floor Of The Tree - 01 Pearl and The Dreams.mp3
Channels : 2
Sample Rate : 44100
Precision : 16-bit
Duration : 00:13:36.11 = 35990451 samples = 61208.2 CDDA sectors
File Size : 32.8M
Bit Rate : 321k
Sample Encoding: MPEG audio (layer I, II or III)
Comments :
Title=Pearl and The Dreams
Artist=The Flamingo Jones
Album=The 5th Floor Of The Tree
Tracknumber=1
Year=2020

[/more]

Register
(3) infiltrator, Occultas, Olethros,
Apr 7 2020, 17:24:05 Calhoun Conquer - And Now You're Gone [ep] (1987)
ЦИТАТА(troll_swamp @ Apr 7 2020, 20:05:31) *
та я тоже попытался и не нашёл, решил тут спросить 9.gif


Вот эта программка делать 320 из флака в пару кликов bye.gif

Register
(1) troll_swamp,
Apr 6 2020, 20:47:59 Paysage D'hiver - Im Wald (2020)
@320

Register


Register
(45) 666days, andivi, atavist, babanguida, BERZERK, Black Cat, cancer1974, cloaks, dermarsoran, exorcist1969, Fess, fuoco, garmonbozia, gena, helvetestoner, infiltrator, Kazoth, kolar666, Korpse, Leolomb, maochen, mardak666, metaljosue, Mist13Signifier, MMMMM, nadin85, nemx, Occultas, peppuzzo, randumbum, Raw1488, recber, robertho777, Shadechaser, Slavas, Ssphinx, stub888, supremo, thenecromancer, the_cleanser, vasiljev_sergej, Wail, wtk.412, Zahrim, Авел,
Apr 6 2020, 16:05:29 Ian Gillan Band - Child In Time (1976)
@320

Register


Register
(1) thenecromancer,
Apr 6 2020, 15:52:38 Sepultura - Roots (1996)
Отличнейший альбом, с годами становящийся все более сочным, как постепенно прожаривающийся стейк из первосортного мясца.
(1) SyncestrA,
Apr 6 2020, 12:20:21 The Warlocks - The Chain (2020)


*Artist: The Warlocks
*Album: The Chain
*Year: 2020
*Genre: Psychedelic Rock
*Country: United States
*Format: mp3@CBR320kbps
*Size: 92MB

Tracklist:
1. Dear Son 04:05
2. The Robbery 03:51
3. Mr. Boogeyman 03:41
4. Double Life 03:46
5. We Don’t Need Money 04:02
6. You Stooge You 04:18
7. Sucking Out Your Soul Like A Son Of A Bitch 04:23
8. Have Mercy On Me 03:57
9. Feel No Pain / You Hurt Me 03:51
10. I’m Not Good Enough / Party Like We Used To 04:09
******************************
Total playing time: 40:03



[more=Technical info]
Input File: 01 - Dear Son.mp3
Channels : 2
Sample Rate : 44100
Precision : 16-bit
Duration : 00:04:05.07 = 10807631 samples = 18380.3 CDDA sectors
File Size : 9.88M
Bit Rate : 322k
Sample Encoding: MPEG audio (layer I, II or III)
Comments :
Title=Dear Son
Artist=The Warlocks
Album=The Chain
Tracknumber=1
Year=2020
Genre=Psychedelic Rock
Discnumber=1

[/more]

Register
(4) infiltrator, oldvarg, Olethros, paganheart,
Apr 6 2020, 12:09:31 Jethro Tull - This Was (1968)


*Artist: Jethro Tull
*Album: This Was
*Year: 1968
*Genre: Progressive Rock
*Country: United Kingdom
*Format: mp3@CBR320kbps
*Size: 88MB

Tracklist:
1. My Sunday Feeling 03:42
2. Some Day The Sun Won't Shine For You 02:47
3. Beggar's Farm 04:17
4. Move On Alone 01:57
5. Serenade To A Cuckoo 06:10
6. Dharma For One 04:13
7. It's Breaking Me Up 05:01
8. Cat's Squirrel 05:40
9. A Song For Jeffrey 03:21
10. Round 00:57
******************************
Total playing time: 38:05



[more=Technical info]
Input File: 01. My Sunday Feeling.mp3
Channels : 2
Sample Rate : 44100
Precision : 16-bit
Duration : 00:03:41.00 = 9746100 samples = 16575 CDDA sectors
File Size : 8.91M
Bit Rate : 322k
Sample Encoding: MPEG audio (layer I, II or III)
Comments :
Title=My Sunday Feeling
Artist=Jethro Tull
Album=This Was
Tracknumber=01/10
Year=1968
Genre=Progressive Rock

[/more]

Register
(3) infiltrator, Olethros, Wail,
Apr 6 2020, 11:11:15 Edge Of Paradise - Universe (2019)
@320

Register


Register
(2) Bloodn Lord, smes,
Apr 4 2020, 19:34:38 Human Serpent - For I, The Misanthropist (2018)
@320

Register


Register
(2) rimfrost, sabr,
Apr 4 2020, 17:20:22 Edellom - Sirens (2019)
@320

Register


Register
(1) Razorbladeswaltz,
Apr 4 2020, 12:48:04 Helenes - My Inferno [ep] (2020)
@320

Register


Register
(2) Razorbladeswaltz, vasiljev_sergej,
Apr 4 2020, 12:13:46 Tētēma - Necroscape (2020)


*Artist: Tētēma
*Album: Necroscape
*Year: 2020
*Genre: Experimental Rock
*Country: United States
*Format: mp3@CBR320kbps
*Size: 92MB

Tracklist:
1. Necroscape 02:53
2. Cutlass Eye 02:19
3. Wait Till Mornin' 03:05
4. Haunted On the Uptake 03:07
5. All Signs Uncensored 03:10
6. Milked Out Million 03:09
7. Soliloquy 02:44
8. Flatliner's Owl 01:16
9. Dead Still 04:14
10. Invertebrate 01:58
11. We'll Talk Inside a Dream 04:22
12. Sun Undone 04:00
13. Funerale Di Un Contadino 04:12
******************************
Total playing time: 40:29



[more=Technical info]
Input File: 1. Necroscape.mp3
Channels : 2
Sample Rate : 44100
Precision : 16-bit
Duration : 00:02:53.23 = 7639311 samples = 12992 CDDA sectors
File Size : 6.93M
Bit Rate : 320k
Sample Encoding: MPEG audio (layer I, II or III)
Comments :
Title=Necroscape
Artist=tētēma
Album=necroscape
Tracknumber=01/13
Year=2020-20-20
Discnumber=1/1

[/more]

Register
(7) as71, Ghostb, infiltrator, Olethros, popen13, Tular, Zhelezjaka,
Apr 2 2020, 17:56:31 The Ruins Of Beverast & Mourning Beloveth - Don't Walk On The Mass Graves [split] (2020)
Зело неожиданное соседство headcrab.png

@320

Register


Register
(14) Chasm, Deze, El_Chibo, gena, GFW, helvetestoner, infiltrator, maochen, metaljosue, nemx, supremo, tOmV, Vidder242, yuratroll,
Apr 2 2020, 17:39:01 Axel Rudi Pell - Wings Of The Storm [single] (2020)


*Artist: Axel Rudi Pell
*Album: Wings Of The Storm [single]
*Year: 2020
*Genre: Heavy Metal
*Country: Germany
*Format: mp3@CBR320kbps
*Size: 13MB

Tracklist:
1. Wings Of The Storm 05:47
******************************
Total playing time: 5:47



[more=Technical info]
Input File: 01 Wings of the Storm.mp3
Channels : 2
Sample Rate : 44100
Precision : 16-bit
Duration : 00:05:47.81 = 15338553 samples = 26086 CDDA sectors
File Size : 14.4M
Bit Rate : 331k
Sample Encoding: MPEG audio (layer I, II or III)
Comments :
Title=Wings of the Storm
Artist=Axel Rudi Pell
Album=Wings of the Storm
Genre=Heavy Metal

[/more]

Register
(9) cesar, finmetal, infiltrator, morbidangelo, Olethros, senecazm, sergsazan, thenecromancer, varlam4,
Apr 2 2020, 13:12:03 Чудодейственные свойства гомеопатии, или Голосовалка за лучший альбом 2019 года, Тур 1
ЦИТАТА(Deze @ Apr 2 2020, 16:10:50) *
Интересно, сколько из списка vosmidesijatye реально метала)


Только что проверил по RYMу претендентов.

Все что не метал, убрал (включая последнего Мальмстина 25.gif 1488.gif)
(2) Deze, infiltrator,
Apr 1 2020, 11:28:56 Rainbow - Down To Earth (1979)
@320 2 CD Version

Register
(1) thenecromancer,
Apr 1 2020, 10:23:06 Лучший советчик МА - Часть 666 (Тру-блэк)
Поставьте Daale смотрящим и вопрос решен. 25.gif

Предствляю, как будет Экза корёжить от прослушивания сего этапа 15.gif
(2) Alexis The Best, infiltrator,
Mar 31 2020, 21:33:56 Ville Valo & Agents - Ville Valo & Agents (2019)
@320

Register
(2) Battaleon, KKK1488,
Mar 31 2020, 21:15:08 Funeral Rites - Rite Of Damnation (2020)
Хоть БМ слушаю не столь часто уже, но этот релиз послушал не без удовольствия. Торжественно-марширующий трэк-интро срывается в мелодичный водоворот Age Of Fire со звенящими барабанчиками. И далее...Релиз монолитен настроением, в нем грамотно сочетается характерное для жанра трещоточное жужжание, то замедляющееся, то убыстряющееся, приправленное уместным вокалом. Отмечу выразительные гитарные партии, раскиданные по альбому и рокенрольно-расколбасно торжественную Hand Of Glory, а также Lord's Funeral - вот эти трэки выделяются на фоне полотна. Звук на пласте приятно-читаемый без излишней пластмассы или, напротив, подвальной грязнотцы.

Качественный релиз отечественного производства.

(6) Bulldozzzzzzer, DEZZIARA, infiltrator, older68, sethurius, Абигор,
Mar 31 2020, 21:13:22 Nightwish - Hvman. :||: Natvre. (2020)
ЦИТАТА(6666666 @ Apr 1 2020, 00:08:31) *
А 80-й как же?


Помимо меня, не забывай Митвульфа, который высоко ценит тот же 2007.

Да и помимо нас, еще множество любителей сих записей имеется, которые не сидят на машке.
(2) Ghostb, infiltrator,
Mar 31 2020, 17:23:14 Nightwish - Hvman. :||: Natvre. (2020)
ЦИТАТА(6666666 @ Mar 31 2020, 20:19:32) *
Пока обожду, всё-таки, не чужая группа, хоть давно уже и не вывозящая за всю хурму.


Всего лишь на последнем альбоме не вывезли. А на 2007 и на утонченном, жанрово разнообразном и сложном 2011 такая хурма была, что вах-вах.
(2) Ghostb, infiltrator,
Mar 31 2020, 17:12:53 Nightwish - Hvman. :||: Natvre. (2020)
@320

Register


Register


VBR

Register
(5) djsema4, Forest, infiltrator, MAYH, StabWound,
Mar 31 2020, 15:01:51 Ville Valo - Gothica Fennica Vol. 1 [ep] (2020)
ЦИТАТА(6666666 @ Mar 31 2020, 18:00:05) *
Поешь говна толчённого.


Зачем мне есть тебя?
(2) Anger, infiltrator,

440 Pages V   1 2 3 > » 
- Lo-Fi Version Support form
Copyrights and abuse reports form
Time is now: 9th April 2020 - 00:04:26