Welcome Guest ( Log In | Register )

История благодарностей участнику vosmidesijatye ::: Спасибо сказали: 44064 раз(а)
Дата поста: В теме: За сообщение: Спасибо сказали:
Yesterday, 19:28:53 Новости Heavy/Power металла
Running Wild - Blood On Blood - 29 // 10 // 21



1. Blood on Blood 04:07
2. Wings of Fire 03:57
3. Say Your Prayers 05:14
4. Diamonds & Pearls 04:44
5. Wild & Free 05:28
6. Crossing the Blades 06:00
7. One Night, One Day 04:59
8. The Shellback 06:11
9. Wild, Wild Nights 04:30
10. The Iron Times (1618 - 1648) 10:29
(3) avather, Deze, Emm Human,
Yesterday, 12:14:57 Cradle Of Filth
Альбом 22 // 10 //21

[youtube]-tjUsXet8Sc[/youtube]

Назад в 1998!
(1) plfan93,
Jul 29 2021, 13:08:04 Helvete - Mystic Spell Of Hatred (2021)
[youtube]Nbm8A1VllJM[/youtube]
(1) Occultas,
Jul 27 2021, 11:26:28 Новости Death Metal направления
Rivers of Nihil - The Work - 24 // 09 // 21



1. The Tower (Theme from "the Work")
2. Dreaming Black Clockwork
3. Wait
4. Focus
5. Clean
6. The Void from Which No Sound Escapes
7. More?
8. Tower 2
9. Episode
10. Maybe One Day
11. Terrestria IV: Work

Register
(3) avather, infiltrator, troll_swamp,
Jul 26 2021, 12:25:06 Lucifugum - Infernalistica (2018) (1) Grzechu,
Jul 25 2021, 22:43:44 Неживой - Пять Башен (2020)
ЦИТАТА(Metalass @ Jun 22 2021, 22:04:54) *
Будучи человеком предвзятым в отношении отечественных групп, думал, проходняк, но это крепчайший, крышесносный блэкодэт, все по канонам, как я люблю, за уши не оттянешь.


Спасибо за отзыв 9.gif , заинтересовался, оценил. Действительно хорошо - вроде бы и свирепствуют на одной ноте, а получается сытно - и утопленный вокал и периодически всплывающие гитарные выкрутасы и канонада ударных и общая атмосфера крошева. Группа будет достойно смотреться на всяческих экстремальных западных фестах типа NWN и т.п. У Pseudogod получилось - и этим можно пожелать всяческих успехов 25.gif
(1) Metalass,
Jul 25 2021, 14:24:23 Necrogod - In Extremis (2021)
ЦИТАТА(metamfer @ Jul 25 2021, 14:36:16) *
но барабанит The Master Butcher


Вокалит.
(1) metamfer,
Jul 25 2021, 14:11:49 Yngwie Malmsteen - Parabellum (2021)
Хороший альбом для тех, кому по душе последние инструментальные творения Маэстро, начиная с Relentless. Боевая Wolves at the Door, перекликающаяся с World On Fire с предыдущего альбома, даёт отличный старт альбому. Relentless Fury - лучший трэк релиза. Скоростная (Si Vis Pacem) Parabellum буквально пышит внутренней энергией, лепота. Неплохая баллада Eternal Bliss, достойные инструменталы Toccata, God Particle, Magic Bullet.

Безусловно, фанатам эры 80-х - середины 90-х здесь ловить нечего, ибо здесь нет ни звёздных вокалистов, ни радиоформатных песенок. Как отметил сам Мальм, сабж - сугубо для ценителей его творчества в самом бескомпромиссном гитарно-инструментальном воплощении. И далеко не самый плохой, стоит отметить.

Теперь ждём сольный альбом Joe Stump (17 сентября) и новый студийник Alcatrazz (15 октября) и гитарный 2021 можно будет закрывать.
(2) Messian, Сварог Барг,
Jul 24 2021, 21:53:04 Depeche Mode - Music For The Masses (1987)


*Artist: Depeche Mode
*Album: Music For The Masses
*Year: 1987
*Genre: Synthpop/Electronic
*Country: United Kingdom
*Format: mp3@CBR320kbps
*Size: 139MB

Tracklist:
1. Never Let Me Down Again 04:47
2. The Things You Said 04:02
3. Strangelove 04:55
4. Sacred 04:49
5. Little 15 04:18
6. Behind The Wheel 05:18
7. I Want You Now 03:44
8. To Have And To Hold 02:51
9. Nothing 04:18
10. Pimpf 05:25
11. Agent Orange 05:05
12. Never Let Me Down Again (Aggro Mix) 04:57
13. To Have And To Hold (Spanish Taster) 02:36
14. Pleasure, Little Treasure 05:35
******************************
Total playing time: 1:02:40



[more=Technical info]
Input File: 01. Never Let Me Down Again.mp3
Channels : 2
Sample Rate : 44100
Precision : 16-bit
Duration : 00:04:47.65 = 12685497 samples = 21574 CDDA sectors
File Size : 11.6M
Bit Rate : 323k
Sample Encoding: MPEG audio (layer I, II or III)
Comments :
Title=Never Let Me Down Again
Artist=Depeche Mode
Album=Music For The Masses
Tracknumber=01/14
Year=1987
Genre=Electronic
Discnumber=[CDSTUMM 47]

[/more]

Register
(6) 6666666, marilin, NathanSS, Occultas, Olethros, recber,
Jul 23 2021, 15:32:48 Lucifugum - Infernalistica (2018)


*Artist: Lucifugum
*Album: Infernalistica
*Year: 2018
*Genre: Black Metal
*Country: Ukraine
*Format: mp3@CBR320kbps
*Size: 75MB

Tracklist:
1. Замок Преддверия 06:22
2. Огульная 06:58
3. Нетварное Преображение 05:25
4. Огонь За Последним 04:00
5. Затмевающее Высокомерие 04:50
6. Возгорание Величия Внизхождения 05:31
******************************
Total playing time: 33:06



[more=Technical info]
Input File: 01 - Замок преддверия.mp3
Channels : 2
Sample Rate : 44100
Precision : 16-bit
Duration : 00:06:19.30 = 16726954 samples = 28447.2 CDDA sectors
File Size : 15.2M
Bit Rate : 320k
Sample Encoding: MPEG audio (layer I, II or III)
Comments :
Title=Замок преддверия
Artist=Lucifugum
Album=Infernalistica
Tracknumber=1
Year=2018
Genre=Black Metal
Discnumber=1

[/more]

Register
(23) AlexSmith, andivi, Antichrist, caro, craP_cillA, Ildjarn, infiltrator, kim666, Lafii, multizwilling, Olethros, recber, SilentNidhogg, Slavas, smysl, supremo, Taakeferd, terron, thenecromancer, the_cleanser, VALERY, varlam4, vasiljev_sergej,
Jul 23 2021, 12:55:55 Aborted - Drag Me To Hell [single] (2021)


*Artist: Aborted
*Album: Drag Me To Hell [single]
*Year: 2021
*Genre: Death Metal
*Country: Belgium
*Format: mp3@CBR320kbps
*Size: 12MB

Tracklist:
1. Drag Me To Hell 05:03
******************************
Total playing time: 5:03



[more=Technical info]
Input File: 01 Drag Me to Hell.mp3
Channels : 2
Sample Rate : 44100
Precision : 16-bit
Duration : 00:05:03.85 = 13399653 samples = 22788.5 CDDA sectors
File Size : 12.2M
Bit Rate : 320k
Sample Encoding: MPEG audio (layer I, II or III)
Comments :
Title=Drag Me to Hell
Artist=Aborted
Album=Drag Me to Hell
Tracknumber=01/01
Year=2021-21-20
Discnumber=1/1

[/more]

Register
(11) ALEXSATHANAS, caro, garml2, gwar, infiltrator, infozahist, maochen, noel666, Olethros, Reverend, Taakeferd,
Jul 21 2021, 12:31:19 Gun - Gun (1968)
Ха-ра-шо! banana.gif Особенно понравились The Sad Saga of the Boy and the Bee, а также Rat Race, Take off, Running Wild. Отдельных слов похвалы заслуживает звук - так сочно и современно всё записано, что и не скажешь, что записи 50 с гаком лет.
(2) Amadeus, paganheart,
Jul 19 2021, 20:08:14 Gun - Gun (1968)
Ок, тогда это стоит непременного ознакомления. На рутрекере, кстати, есть версии с бонусами + 2 их альбом https://rutracker.org/forum/viewtopic.php?t=3775913 smile1.gif
(1) paganheart,
Jul 19 2021, 20:03:00 Новости Heavy/Power металла
Iron Maiden - Senjutsu - 03 // 09 // 21



1. Senjutsu
2. Stratego
3. The Writing On The Wall
4. Lost In A Lost World
5. Days Of Future Past
6. The Time Machine
7. Darkest Hour
8. Death Of The Celts
9. The Parchment
10. Hell On Earth
(2) Emm Human, SAPOGi,
Jul 17 2021, 16:15:03 High´n´heavy - V (2021)


*Artist: High´n´heavy
*Album: V
*Year: 2021
*Genre: Stoner/Doom Metal
*Country: United Kingdom
*Format: mp3@CBR320kbps
*Size: 102MB

Tracklist:
1. Cleansed With Blood 06:05
2. Gather Flame 03:38
3. Power Of Arachnid 06:31
4. Onward To Oblivion 05:40
5. Screaming Moon 06:00
6. Rise 05:20
7. Death In The Unknown 02:43
8. We Will Burn 06:30
******************************
Total playing time: 42:27



[more=Technical info]
Input File: 02. Gather Flame.mp3
Channels : 2
Sample Rate : 44100
Precision : 16-bit
Duration : 00:03:38.35 = 9629059 samples = 16376 CDDA sectors
File Size : 9.41M
Bit Rate : 345k
Sample Encoding: MPEG audio (layer I, II or III)
Comments :
Title=Gather Flame
Artist=High n' Heavy
Album=V
Tracknumber=2/8
Year=2021
Genre=Alternative
Discnumber=1/1

[/more]

Register
(10) bOOLty, caro, djsema4, eddbuzz, HMHamster, infiltrator, marilin, Olethros, sludge666, vlad74,
Jul 17 2021, 15:25:13 U.D.O. - Metal Never Dies [single] (2021)


*Artist: U.D.O.
*Album: Metal Never Dies [single]
*Year: 2021
*Genre: Heavy Metal
*Country: Germany
*Format: mp3@CBR320kbps
*Size: 12MB

Tracklist:
1. Metal Never Dies 05:06
******************************
Total playing time: 5:06



[more=Technical info]
Input File: 01. Metal Never Dies.mp3
Channels : 2
Sample Rate : 44100
Precision : 16-bit
Duration : 00:05:06.35 = 13510211 samples = 22976.5 CDDA sectors
File Size : 12.3M
Bit Rate : 320k
Sample Encoding: MPEG audio (layer I, II or III)
Comments :
Title=Metal Never Dies
Artist=U.D.O.
Album=Metal Never Dies
Tracknumber=01/01
Year=2021-21-20
Discnumber=1/1

[/more]

Register
(20) Aresson, atavist, aviacademy, BlackTroll, caro, chipsgott, gwar, gwynnbleid, infiltrator, infozahist, Kaotik, LightWizard, Marek, Olethros, Reverend, sergsazan, Shub, smysl, Taakeferd, Vitald,
Jul 17 2021, 15:12:33 Diablo Swing Orchestra
Diablo Swing Orchestra - Swagger & Stroll Down The Rabbit Hole - 02 //11// 21



01. Sightseeing In The Apocalypse
02. War Painted Valentine
03. Celebremos Lo Inevitable
04. Speed Dating An Arsonist
05. Jig Of The Century
06. The Sound Of An Unconditional Surrender
07. Malign Monologues
08. Out Came The Hummingbirds
09. Snake Oil Baptism
10. Les Invulnéables
11. Saluting The Reckoning
12.The Prima Donna Gauntlet
13. Overture To A Ceasefir
(1) kostja,
Jul 15 2021, 21:09:06 Rage - Virginity [single] (2021)


*Artist: Rage
*Album: Virginity [single]
*Year: 2021
*Genre: Heavy/Speed/Power Metal
*Country: Germany
*Format: mp3@CBR320kbps
*Size: 9MB

Tracklist:
1. Virginity 03:41
******************************
Total playing time: 3:41

[more=Technical info]
Input File: 01 Virginity.mp3
Channels : 2
Sample Rate : 44100
Precision : 16-bit
Duration : 00:03:41.74 = 9778690 samples = 16630.4 CDDA sectors
File Size : 8.87M
Bit Rate : 320k
Sample Encoding: MPEG audio (layer I, II or III)
Comments :
Title=Virginity
Artist=Rage
Album=Virginity
Tracknumber=01/01
Year=2021-21-20
Discnumber=1/1

[/more]

Register
(19) ---MAX---, Aresson, aviacademy, caro, chipsgott, CTPEMLEHIE, dulak, gwar, gwynnbleid, hellbibber, infiltrator, infozahist, Mannard, Olethros, piwimetal, Reverend, sergsazan, smysl, Taakeferd,
Jul 15 2021, 20:57:37 Insomnium - The Antagonist [single] (2021)


*Artist: Insomnium
*Album: The Antagonist [single]
*Year: 2021
*Genre: Melodic Death Metal
*Country: Finland
*Format: mp3@CBR320kbps
*Size: 12MB

Tracklist:
1. The Antagonist 05:03
******************************
Total playing time: 5:03

[more=Technical info]
Input File: 01 The Antagonist.mp3
Channels : 2
Sample Rate : 44100
Precision : 16-bit
Duration : 00:05:03.66 = 13391582 samples = 22774.8 CDDA sectors
File Size : 12.1M
Bit Rate : 320k
Sample Encoding: MPEG audio (layer I, II or III)
Comments :
Title=The Antagonist
Artist=Insomnium
Album=The Antagonist
Tracknumber=01/01
Year=2021-21-20
Discnumber=1/1

[/more]

Register
(16) ALEXSATHANAS, Aresson, Bloodn Lord, boby9052, caro, chipsgott, dulak, gwynnbleid, infiltrator, krotovich, Olethros, Olrak, Reverend, serjred, Taakeferd, varlam4,
Jul 14 2021, 18:35:48 Дрём - 4 (2021)
ЦИТАТА(Deze @ Jul 14 2021, 21:07:27) *
Ок, и как это мешает им быть фьюнералом?


Не мешают совершенно) Собственно, с этим я и не спорил.


Мне видится так. Изначально ты просто обозначил две группы в одной стилистике (Иа и Коматозы) без излишнего копания в нюансах подхода каждого из коллективов к нему.

Вася решил пойти далее.

Возможно он не совсем корректно выразился, употребив термин "стилистика" (ибо стилистика у этих групп конечно же одна - фьюнерал).

Более уместен был бы термин "подход" в рамках общей стилистики (но это моя трактовка его мыслей, не уверен, что это так, но исходя из контекста возможно).

Так, условным фьюнералом является и Rigor Sardonicus и Worship и Сolossum и Nortt но у всех у них он очень разный в плане подхода к нему (у кого то больше дэта, у кого то больший упор в эмбиент? бм и т.д.). поэтому и твое "кидание в один котёл" Коматозов и Иа и показалось ему не правильным. А вот окончательная причина почему не правильно надо спросить у него.

Ждём разъяснений.
(1) Bloodn Lord,
Jul 14 2021, 17:27:32 Дрём - 4 (2021)
ЦИТАТА(Deze @ Jul 14 2021, 18:49:43) *
Если же говорить о лидере направления, то тут у меня однозначный выбор - Эзотерик.


Эзотерик шикарны, спору нет, да вот только не могу их отнести в топы "фьюнерал дум" как направления поскольку считаю, что несмотря на изрядную долю содержания оного, их музыка намного более многогранна и сложна и стилестически не ограничивается исключительно фьюнералом.

ЦИТАТА(Bloodn Lord @ Jul 14 2021, 19:42:03) *
Приведенные в пример ЕА совсем не вяжутся в той стилистике, в которой играют CV.


Согласен, так как Иа более разряженны и светлы мелодически, в их музыке нет той давящей и гнетущей атмосферности, как у Коматозов. bye.gif
(1) Bloodn Lord,
Jul 14 2021, 09:02:49 Xasthur - Victims Of The Times (2021)
ЦИТАТА(Penetralia @ Jul 14 2021, 11:59:59) *
Это что, кофе такое?


Кофе - АмериканО, а это - https://ru.wikipedia.org/wiki/%D0%90%D0%BC%...8B%D0%BA%D0%B0)
(2) NachtWulf, Paatddal,
Jul 14 2021, 07:59:35 Xasthur - Victims Of The Times (2021)
Продолжение вектора, заданного Малефиком в рамках проекта Nocturnal Poisoning и A Subject To Change`2016 от Xasthur.
(2) Occultas, Tvoyu_mamu_ebal,
Jul 13 2021, 18:13:37 Rostro Del Sol - Rostro Del Sol (2021)


*Artist: Rostro Del Sol
*Album: Rostro Del Sol
*Year: 2021
*Genre: Psychedelic Jazz
*Country: Mexico
*Format: mp3@CBR320kbps
*Size: 94MB

Tracklist:
1. Effect Of Creation 08:53
2. Solar Flare 02:51
3. Backyard's Blues 06:28
4. Bop C Sketches 07:08
5. Tales... I-III 07:24
6. Cynical Mind 08:15
******************************
Total playing time: 40:59



[more=Technical info]
Input File: 01 - Effect Of Creation.mp3
Channels : 2
Sample Rate : 44100
Precision : 16-bit
Duration : 00:08:53.08 = 23509004 samples = 39981.3 CDDA sectors
File Size : 21.5M
Bit Rate : 323k
Sample Encoding: MPEG audio (layer I, II or III)
Comments :
Title=Effect Of Creation
Artist=Rostro Del Sol
Album=Rostro del Sol
Genre=Psychedelic Rock

[/more]

Register
(3) marilin, Olethros, thenecromancer,
Jul 13 2021, 17:58:27 Дрём - 4 (2021)
ЦИТАТА(Bloodn Lord @ Jul 13 2021, 18:36:03) *
Коматозы - это действительно российская веха фюнерала, да такого, что и некоторым западникам не снилосьsmile3.gif


Шедевр Not A Gleam Of Hope по всем параметрам уверенно достоин находиться во всевозможных топ 5, топ 10 и т.д. альбомов фьюнерал дума, причём в первой пятерке списков. НИЧЕГО более сильного по атмосфере и музыке наша сцена не выдавала ни до, ни после.
(2) Bloodn Lord, infiltrator,

483 Pages V   1 2 3 > » 
- Lo-Fi Version Support form
Copyrights and abuse reports form
Time is now: 31st July 2021 - 08:10:28