Welcome Guest ( Log In | Register )

История благодарностей участнику vosmidesijatye ::: Спасибо сказали: 40288 раз(а)
Дата поста: В теме: За сообщение: Спасибо сказали:
Yesterday, 22:28:20 Lik - Misanthropic Breed (2020)
Аплодисментов гулом разрезая ночную тишь
Громкоголосо заявляю - Оратор выше - Молодец, малыш!

А что собственно по сабжу, скажешь, а?
Достойная ли в этот раз выдалась шведа?
(1) kranger,
Yesterday, 20:59:31 Electric Moon - Live At Freak Valley Festival 2019 [live] (2020)


*Artist: Electric Moon
*Album: Live At Freak Valley Festival 2019 [live]
*Year: 2020
*Genre: Psychedelic/Space Rock
*Country: Germany
*Format: mp3@CBR320kbps
*Size: 210MB

Tracklist:
1. Increase 19:26
2. 777 20:31
3. The Picture 18:27
4. D-Tune 07:37
5. Der Mondsenator Auf Dem Weg Zur Erde 03:05
******************************
Total playing time: 1:09:06



[more=Technical info]
Input File: 01 Increase.mp3
Channels : 2
Sample Rate : 44100
Precision : 16-bit
Duration : 00:19:26.33 = 51435021 samples = 87474.5 CDDA sectors
File Size : 56.0M
Bit Rate : 384k
Sample Encoding: MPEG audio (layer I, II or III)
Comments :
Title=Increase
Artist=Electric Moon
Album=Live at Freak Valley Festival 2019
Tracknumber=1
Year=2020-09-04
Genre=Psychedelic Rock / Heavy Psych
Discnumber=1

[/more]

Register
(4) gena, marilin, Olethros, Vidyadharov,
Yesterday, 20:17:47 Lik - Misanthropic Breed (2020)
ЦИТАТА(6666666 @ Sep 20 2020, 22:59:10) *
Лойсы 80-го как форма зашквара. Поздравляю.


Ворчать и ныть по поводу тегов, которые можно исправить в 5 минут - вот это зашквар.

Тебе на халяву принесли релиз, а ты еще и возникаешь по мелочам.

(1) Samaritianin,
Sep 19 2020, 21:07:43 Лучший советчик МА - Часть 10 (Умнодэт) - Тур 2, Рейтингование
ЦИТАТА(FunZombie @ Sep 19 2020, 23:49:55) *
то лучше King Crimson включу, причём после "VROOOM" (включительно).


А чем период 70-х не канает? Там же волшебство волшебное 20.gif

(2) Exorcist, kranger,
Sep 19 2020, 17:43:03 Haryon & Thangorodrim - Under The Reign Of A New Power (Split) [split] (2018)
Thangorodrim - один из топовейших современных данж синт проектов. pray.gif
(2) Dreamtale, infiltrator,
Sep 19 2020, 12:26:14 Mørkt Tre - Земля Забута Богом І Людьми (2020)
ЦИТАТА(Moonshtook @ Sep 19 2020, 14:03:02) *
За себя говори!


А он за кого говорил?
(1) Maximvs,
Sep 17 2020, 22:57:51 Mistress Of The Dead - The River Of The Quiterest Death [demo] (2005)
@320

Register
(3) infiltrator, thenecromancer, Wail,
Sep 17 2020, 22:16:59 Ace Frehley - Origins Vol.2 (2020)


*Artist: Ace Frehley
*Album: Origins Vol.2
*Year: 2020
*Genre: Hard Rock
*Country: United States
*Format: mp3@CBR320kbps
*Size: 107MB

Tracklist:
1. Good Times Bad Times (Led Zeppelin cover)
2. Never in My Life (Mountain cover)
3. Space Truckin' (Deep Purple cover)
4. I'm Down (The Beatles cover)
5. Jumpin' Jack Flash (The Rolling Stones cover)
6. Politician (Cream cover)
7. Lola (The Kinks cover)
8. 30 Days in the Hole (Humble Pie cover)
9. Manic Depression (The Jimi Hendrix Experience cover)
10. Kicks (Paul Revere & the Raiders cover)
11. We Gotta Get out of This Place (The Animals cover)
12. She (KISS cover)
******************************
Total playing time: 46:40



[more=Technical info]
Input File: 09. Manic Depression.mp3
Channels : 2
Sample Rate : 44100
Precision : 16-bit
Duration : 00:04:01.31 = 10641727 samples = 18098.2 CDDA sectors
File Size : 9.75M
Bit Rate : 323k
Sample Encoding: MPEG audio (layer I, II or III)
Comments :
Title=Manic Depression
Artist=Ace Frehley
Album=Origins Vol.2
Tracknumber=9
Year=2020
Genre=Hard Rock
Discnumber=1

[/more]

Register
(5) canadaspaceman, infiltrator, multizwilling, Olethros, Wail,
Sep 17 2020, 21:19:13 Steel Prophet - The God Machine (2019)
@320

Register
(1) smes,
Sep 17 2020, 21:17:57 Devil's Gun - Sing For The Chaos (2019)
@320

Register
(1) smes,
Sep 17 2020, 20:48:24 Christmass - Vigil (2019)
ЦИТАТА(GRAF @ Sep 15 2020, 23:42:14) *
примеси Sludge


которых нет в релизе 1488.gif
(3) Bloodn Lord, infiltrator, kranger,
Sep 17 2020, 20:12:26 Marilyn Manson - We Are Chaos (2020)
ЦИТАТА(FunZombie @ Sep 17 2020, 23:11:05) *
про роли в кино - нет.


Лабиринт (1986) вцени. pray.gif
(1) Ghostb,
Sep 17 2020, 19:57:26 Marilyn Manson - We Are Chaos (2020)
ЦИТАТА(FunZombie @ Sep 17 2020, 22:53:04) *
Невзрачная музыка,


Он - талантливый и предельно разноплановый музыкант, который в каждом десятилетии делал прорывные релизы. Не будем забывать его ярчайшие сценические шоу, визуальный облик, роли в кино.

По степени общего вклада в музыку и значимости он значительно превосходит и Трента и Брайана (при всем уважении и к тому и к другому).
(1) Ghostb,
Sep 17 2020, 19:43:27 Ihsahn - Pharos [ep] (2020)
ЦИТАТА(RUSP73 @ Sep 17 2020, 22:39:41) *
На сим заканчиваю, потому как здесь как раз собрались любители данного коллектива, поэтому что-либо доказывать бессмысленно


Любители сабжа вполне могут полюблять и группу Аспы (вот я или Даале, например).

Как говаривал наше солнышко Александр Сергеевич - Быть можно дельным человеком и думать о красе ногтей.

Так и сферический металист запросто может полюблять и иные жанры.

Ибо хорошей музыки море и неправильно сознательно ограничивать себя только тяжем и металлом.
(2) BleedingSun, Ghostb,
Sep 17 2020, 19:32:48 Khors - Where The Word Acquires Eternity (2020)
ЦИТАТА(kranger @ Sep 17 2020, 22:26:44) *
Давайте как раньше -70-80 читали помню Варга после отсидки.


Не сравнивай подлинного Гения (тем более после стольких лет заточения) с этими просто хорошими музыкантами.

Это как сравнить Роллс Ройс или Бентли с неплохим масс маркет иностранным авто.
(2) infiltrator, kranger,
Sep 17 2020, 19:30:35 Marilyn Manson - We Are Chaos (2020)
ЦИТАТА(Ghostb @ Sep 17 2020, 22:29:06) *
Не говоря уже о Боуи 20.gif


Ну до Дэвида и тому и другому как запорожцу до Роллс Ройса. bye.gif
(1) Ghostb,
Sep 17 2020, 19:20:04 Khors - Where The Word Acquires Eternity (2020)
ЦИТАТА(kranger @ Sep 17 2020, 22:17:52) *
Под кортошкой он пишет.


Отварная, с селёдочкой, да с лучком - мммм, лепота, под такую не грех и музычки навернуть pray.gif
(2) infiltrator, kranger,
Sep 17 2020, 19:05:43 Ihsahn - Pharos [ep] (2020)
ЦИТАТА(Brann @ Sep 17 2020, 21:53:44) *
Музыкальные предпочтения местных как бы металлистов забавляют.


Так здесь все же большинство, слава Богу, не ограничивает себя прослушиванием исключительно металла и тяжа. И причем уже давно.
(1) Ghostb,
Sep 17 2020, 18:18:01 Khors - Where The Word Acquires Eternity (2020)
ЦИТАТА(Deze @ Sep 17 2020, 21:14:34) *
На фото нормальные, открытые лица. 21.gif


Да, кроме того, кто в середине стоит.

(2) infiltrator, kranger,
Sep 17 2020, 15:50:48 Avatar - Hunter Gatherer (2020)
@320

Register


И Ауткаст еще иди качай.
(1) 6666666,
Sep 17 2020, 14:37:53 Massemord - The Whore Of Hate (2008)
@320

Register
(3) lafuma, vasiljev_sergej, Wail,
Sep 17 2020, 14:27:55 Varg - Zeichen (2020)
@320

Register


Register
(3) infiltrator, MadCarrot, nemx,
Sep 17 2020, 14:26:01 Новости Thrash Metal направления
[youtube]cIHydHQanfI[/youtube]

Альбом Sea Savage - 4 декабря сего года.
(1) Emm Human,
Sep 17 2020, 14:19:45 Draconian - Moon Over Sabaoth [single] (2020)
@320

Register
(1) thenecromancer,
Sep 17 2020, 14:15:12 Finntroll - Vredesvävd (2020)
@320

Register
(12) BandR75, infiltrator, kluval, lafuma, neoatheist, Penetralia, smes, troll_swamp, yuratroll, zhol, дивин, Сварог Барг,

460 Pages V   1 2 3 > » 
- Lo-Fi Version Support form
Copyrights and abuse reports form
Time is now: 21st September 2020 - 14:56:59