Welcome Guest ( Log In | Register )

История благодарностей участнику vosmidesijatye ::: Спасибо сказали: 33170 раз(а)
Дата поста: В теме: За сообщение: Спасибо сказали:
Yesterday, 09:38:08 Wings - Diatribe (1995)
FLAC

Register
(1) thenecromancer,
Aug 18 2019, 18:12:16 Aguaturbia - Psychedelic Drugstore (1970)


*Artist: Aguaturbia
*Album: Psychedelic Drugstore
*Year: 1970
*Genre: Psychedelic Rock/Heavy Psych
*Country: Chile
*Format: mp3@CBR320kbps
*Size: 123MB

Tracklist:
1. Somebody To Love
2. Erotica
3. Rolling 'n' Tumbling
4. Ah ah ah ay
5. Crimson & Clover
6. Heartbreaker
7. Blues On the Westside
8. Waterfall
9. Evol
10. I Wonder Who
11. Aguaturbia
******************************
Total playing time: 53:15



[more=Technical info]
Input File: 01 - Somebody To Love.mp3
Channels : 2
Sample Rate : 44100
Precision : 16-bit
Duration : 00:03:02.86 = 8064126 samples = 13714.5 CDDA sectors
File Size : 8.16M
Bit Rate : 357k
Sample Encoding: MPEG audio (layer I, II or III)
Comments :
Title=Somebody To Love
Artist=Aguaturbia
Album=Psychedelic Drugstore (1970) [FLAC] {CDR}
Tracknumber=01

[/more]

Register
(2) MEmethuselah, Olethros,
Aug 18 2019, 17:01:59 Wicked Lady - Psychotic Overkill (1972)


*Artist: Wicked Lady
*Album: Psychotic Overkill
*Year: 1972
*Genre: Hard Rock/Heavy Psych
*Country: United Kingdom
*Format: mp3@CBR320kbps
*Size: 128MB

Tracklist:
1. I'm a Freak 05:04
2. Tell the Truth 05:10
3. Voodoo Chile (Slight Return) 04:44
4. Why Don't You Let Me Try Your P.C.P. 05:04
5. Sin City 07:07
6. Passion 09:32
7. Ship of Ghosts 22:00
******************************
Total playing time: 58:41



[more=Technical info]
Input File: 01. I\'m a Freak.mp3
Channels : 2
Sample Rate : 44100
Precision : 16-bit
Duration : 00:05:03.82 = 13398638 samples = 22786.8 CDDA sectors
File Size : 12.2M
Bit Rate : 323k
Sample Encoding: MPEG audio (layer I, II or III)
Comments :
Title=I'm a Freak
Artist=Wicked Lady
Album=Psychotic Overkill
Tracknumber=1/7
Year=1994
Genre=Psychedelic Rock

[/more]

Register
(2) MEmethuselah, Olethros,
Aug 16 2019, 17:24:48 Новости Death Metal направления
ЦИТАТА(biroutios @ Aug 16 2019, 20:21:39) *
Thanks for this plastic death deathcore dose!


15.gif
(1) biroutios,
Aug 16 2019, 17:20:32 Killswitch Engage - Atonement (2019)
ЦИТАТА(biroutios @ Aug 16 2019, 20:19:39) *
Да, конечно


Рад, что ты со мною согласен 27.gif
(1) biroutios,
Aug 16 2019, 10:03:01 Devourment - Obscene Majesty (2019)
ЦИТАТА(xax @ Aug 16 2019, 12:52:13) *
Ну неправда. Слемминга сейчас столько, сколько joпa непрожуёт. Возможно в вашей деревне не так, но в моей и соседних все модники исключительно по мошпитам на слемминг тусуют. Ну и по количеству новых релизов в жанре легко заметить, что слемминг нормально так доминирует 21.gif


Не путай моду как широкую популярность среди определенной прослойки населения (и связанную с ней инфраструктуру) и большое количество жанровых релизов. Сейчас, в эру доступности информации, техники и программ максимально большое кол-во людей может сидеть дома записывать музло (тот же слэм и брутал) но это музло так и останется андерграундным явлением. А коры же получили в свое время массовый хай среди подростков и школьников, до фига было пупсов в шмотье Suicide Silence, As I Lay Dying и прочего попсового шрота.
(4) babanguida, Dargaud, infiltrator, troll_swamp,
Aug 15 2019, 23:04:12 Saluki - Saluki (1976)


*Artist: Saluki
*Album: Saluki
*Year: 1976
*Genre: Progressive/Jazz Rock/Fusion
*Country: Norway
*Format: mp3@CBR320kbps
*Size: 114MB

Tracklist:
1. Come Down 05:13
2. Autumn 05:52
3. The Awakening 03:45
4. Love to the Sun 09:32
5. Uranus in Cancer 06:26
6. Fantasy Suns 01:51
7. Hidden Path III 10:06
8. Take the Road Across the Bridge 07:17
******************************
Total playing time: 50:02



[more=Technical info]
Input File: 01. Come Down.mp3
Channels : 2
Sample Rate : 44100
Precision : 16-bit
Duration : 00:05:13.28 = 13815648 samples = 23496 CDDA sectors
File Size : 12.6M
Bit Rate : 323k
Sample Encoding: MPEG audio (layer I, II or III)
Comments :
Title=Come Down
Artist=Saluki
Album=Saluki
Tracknumber=01
Year=1976
Genre=Progressive Rock

[/more]

Register
(1) KKK1488,
Aug 15 2019, 22:14:12 Bastard Grave - Diorama Of Human Suffering (2019)
Больше от тебя хотелось бы рецензий, дружище, особенно в ФИРМЕННОМ КРОВОЖАДНОМ СТИЛЕ pray.gif 25.gif
(1) defamer666,
Aug 15 2019, 22:07:43 Hammerfall - Dominion (2019)
Не тот это могущественный пауэр что был раньше.

Громоподобный хитовейший Renegade where are you ?

Строго для фанатиков.

ЦИТАТА(babanguida @ Aug 16 2019, 00:49:10) *


И эти рожи отфотошопили как гламурные инста курицы, тьфу, метросексуализм какой.
(3) Emm Human, infiltrator, Nomad,
Aug 15 2019, 22:05:31 Bastard Grave - Diorama Of Human Suffering (2019)
ЦИТАТА(defamer666 @ Aug 16 2019, 01:01:45) *
Сменили истеричного вокалиста на прошлом ДЕТИЩЕ на классически-ДЭТОВЫЙ гроул,что пошло только на пользу,плюс невнятно-гнусавый саунд превратили в истинно-ШВЕДСКОЕ звучание! 9.gif

P.S Отличный ОЛДСКУЛ от шведов!!! dwarf-1.gif dwarf-1.gif dwarf-1.gif


Брат, здесь уже по иссиня-красной мерцающей обложке все понятно. 25.gif 9.gif
(1) defamer666,
Aug 15 2019, 21:26:28 Клипы (не просто, а ЛУЧШИЕ). Обсуждение с объяснением
ЦИТАТА(Фо @ Aug 16 2019, 00:20:57) *
Избавь нас, господи, от ярости норманов глупости восьмидесятого


Клип Dopethrone зацени, там глупость которую ты одобряешь творится 25.gif
(1) Eisbar,
Aug 15 2019, 21:22:41 Absence Of Life - The Fall [ep] (2018)
@320

Register


ЦИТАТА(SatanicPanzer @ Aug 15 2019, 23:08:52) *
Вот например с Беларусь лично у меня вызывает ассоциации с бессменным лидером А.Г. Лукашенко, конечно же картошкой (куда же без нее?) и ансамблем Песняры. Если копнуть ещё, то думаю много чего будет, как вариант Ляпис Трубецкой и его лидер Сергей Михалок, но я как-то никогда не вдохновлялся творчеством как данного коллектива, так и персонажа в частности.


Ангара забыл, Ангара, он один стоит всяких толстопузых Михалк OFF ых с картошкой вперемешку 1488.gif
(1) vasiljev_sergej,
Aug 15 2019, 19:29:58 Killswitch Engage - Atonement (2019)
ЦИТАТА(babanguida @ Aug 15 2019, 22:27:55) *
Try it if you're constipated. I recommend Trivium as well. One of the best laxatives on the market.


Nah, leave it fo those who want to take extreme measures.
(2) babanguida, infiltrator,
Aug 15 2019, 19:26:30 Killswitch Engage - Atonement (2019)
ЦИТАТА(babanguida @ Aug 15 2019, 22:24:36) *
It's dangerous if you're not trained. 1488.gif


Vomiting is useful for ya healh 1488.gif
(2) babanguida, infiltrator,
Aug 15 2019, 19:20:30 Killswitch Engage - Atonement (2019)
ЦИТАТА(babanguida @ Aug 15 2019, 22:18:42) *
You're goddamn right


I`m always right (even when I`m not) bye.gif 25.gif 1488.gif
(2) babanguida, infiltrator,
Aug 15 2019, 18:04:09 Korn - Korn (1994)
@320

Register
(1) LVXXVL,
Aug 15 2019, 17:50:08 Devourment - Obscene Majesty (2019)
Here ya go

Real @320

Register


Register
(4) babanguida, infiltrator, spazm, troll_swamp,
Aug 15 2019, 17:27:48 Pantera - Far Beyond Driven (1994)
ЦИТАТА(adeptus_custodes @ Aug 15 2019, 20:23:11) *
Ничего жирного, пантера и правда омерзительна. Всегда это говорил и говорить буду. Просто образец мтв митальчка. Нирвана от метала.


Да, да, да особенно вот это МТВ метал, аж патока прет 1488.gif

[youtube]Y4pOIndfTzI[/youtube]
(1) Exorcist,
Aug 15 2019, 17:17:55 Pantera - Far Beyond Driven (1994)
ЦИТАТА(adeptus_custodes @ Aug 15 2019, 20:16:38) *
Одна из худших групп в истории.


Жирно, жирно вбрасываешь bye.gif
(1) Emm Human,
Aug 15 2019, 16:50:28 Killswitch Engage - Atonement (2019)
ЦИТАТА(dalek @ Aug 15 2019, 19:45:44) *
Хм, получается Slipknot не формат, но Killswitch Engage формат?


Потому что коры эти имеют притсавку Мятал поэтому и в формате они. Хотя к металу никакого отношения не имеют.

Хотя те же Ню или Альтернатив тоже металы но по непонятной причине они не в формате.

(1) babanguida,
Aug 15 2019, 12:38:46 Killswitch Engage - Atonement (2019)
This band deserves no attention at all as well as modern metalcore and deathcore. Tried to listen to it - pop music in its worst form.

Fucking shit! False Metal!

(3) babanguida, biroutios, wolverine,
Aug 14 2019, 21:15:57 Various Artists - Marijuanaut Vol​.​i [compilation] (2014)


*Artist: Various Artists
*Album: Marijuanaut Vol​.​i [compilation]
*Year: 2014
*Genre: Psychedelic Stoner/Sludge/Doom Metal/Heavy Psych
*Country: Italy
*Format: mp3@CBR320kbps
*Size: 290MB

Tracklist:
CD1

1. Killer Boogie - My Queen (Inedito) 03:09
2. L'Ira Del Baccano - The Infinite Improbability Drive PT.1 13:14
3. Eremite - Drift Away 09:33
4. Otehi - Psychonaut In The Forest 09:00
5. Kröwnn - Wyvernking 08:19
6. Atomic Mold - Never Heard (Inedito) 10:44
7. Lili Refrain - Baptism of Fire 04:57
8. DSW - The Giant (Inedito - Live version) 07:09

CD2

1. Anuseye - Push Magic Button 08:33
2. Black Capricorn - Hammer of the Witches 07:16
3. Liquido Di Morte - In Death Of Space / Of Death In Space 10:32
4. Obake - Seven Rotten Globes 04:25
5. Prehistoric Pigs - Zug (Inedito) 04:03
6. Naga - Hēn 11:38
7. Orion - Builders of Cosmos (Inedito) 06:20
8. The Haunting Green - The Mournful Sons 07:38
******************************
Total playing time: 2:06:30




[more=Technical info]
Input File: Atomic Mold - Marijuanaut Vol.I - CD1 - 06 Never Heard (Inedito).mp3
Channels : 2
Sample Rate : 44100
Precision : 16-bit
Duration : 00:10:45.03 = 28445603 samples = 48376.9 CDDA sectors
File Size : 26.0M
Bit Rate : 323k
Sample Encoding: MPEG audio (layer I, II or III)
Comments :
Title=Never Heard (Inedito)
Artist=Atomic Mold
Album=Marijuanaut Vol.I - CD1
Tracknumber=6
Year=2014

[/more]

Register
(11) craP_cillA, infiltrator, Korpse, MEmethuselah, robertho777, Rosen, Sanctus, stub888, stumpheavyrock, TAKATAEL, VALERY,
Aug 14 2019, 20:51:55 Новости Death Metal направления
ЦИТАТА(babanguida @ Aug 14 2019, 23:48:39) *
not bad


Too polished.
(2) babanguida, infiltrator,
Aug 14 2019, 20:48:43 Various Artists - Marijuanaut Vol​.​ii [compilation] (2015)


*Artist: Various Artists
*Album: Marijuanaut Vol​.​ii [compilation]
*Year: 2015
*Genre: Psychedelic Stoner/Sludge/Doom Metal/Heavy Psych
*Country: Italy
*Format: mp3@CBR320kbps
*Size: 300MB

Tracklist:
1. Isaak - Lesson N.1 03:44
2. Doomraiser - Addiction 07:37
3. Black Rainbows - Hawkdope 08:57
4. Grime - Decay In Hades 03:47
5. Sunpocrisy - Kairos Through Aion 08:29
6. My Home On Trees - My Home On Trees 07:48
7. Giöbia - Sun Spectre 15:00
8. Satori Junk - Lord Of The Pigs 09:18
9. Fabio Cuomo - Return To Planet Zero 14:56
10. Void Of Sleep - Ordo Ab Chao 05:25
11. Humulus - Glider 04:58
12. OssO - Squirter 03:47
13. IZŌ - We Are What We Are 07:31
14. Three Eyes Left - Beyond The Mountain 07:58
15. Nibiru - Khem 20:50
******************************
Total playing time: 2:10:05



[more=Technical info]
Input File: Black Rainbows - Marijuanaut Vol.II - 03 Hawkdope.mp3
Channels : 2
Sample Rate : 44100
Precision : 16-bit
Duration : 00:08:57.39 = 23699075 samples = 40304.5 CDDA sectors
File Size : 21.7M
Bit Rate : 323k
Sample Encoding: MPEG audio (layer I, II or III)
Comments :
Title=Hawkdope
Artist=Black Rainbows
Album=Marijuanaut Vol.II
Tracknumber=3
Year=2015

[/more]

Register
(8) infiltrator, Korpse, marilin, robertho777, Rosen, stub888, TAKATAEL, VALERY,
Aug 14 2019, 20:42:10 Новости Death Metal направления
Послухать чутка Эксхьюмда

[youtube]bqTqIL_EYYQ[/youtube]
(2) infiltrator, troll_swamp,

401 Pages V   1 2 3 > » 
- Lo-Fi Version Support form
Copyrights and abuse reports form
Time is now: 20th August 2019 - 07:18:00

Кедровые орехи 500 купить.