Welcome Guest ( Log In | Register )

История благодарностей участнику vosmidesijatye ::: Спасибо сказали: 39468 раз(а)
Дата поста: В теме: За сообщение: Спасибо сказали:
Today, 13:45:09 Urnscent - Of Simurgh And Ascent (2020)
ЦИТАТА(Bloodn Lord @ Jul 15 2020, 14:45:50) *
Вокал действительно как от мальчика, сидящего на горшке в дет-садике smile1.gif


Ну те как отцу двух мальчиков, верю 1488.gif 25.gif
(2) Bloodn Lord, Samaritianin,
Yesterday, 14:36:09 Vampire - Rex (2020)
The one and the only true Rex is

(1) Samaritianin,
Jul 12 2020, 17:46:20 Inferior Wretch - Dedicated To The Blood Countess [demo] (2020)


*Artist: Inferior Wretch
*Album: Dedicated To The Blood Countess [demo]
*Year: 2020
*Genre: Black Metal
*Country: Japan
*Format: mp3@CBR320kbps
*Size: 57MB

Tracklist:
1. Dedicated to the Blood Countess 04:35
2. From the Cursed Castle 03:38
3. False Glory 05:31
4. Under the Cold Moon 04:03
5. The Twilight of Life 03:37
6. Time Distortion 01:40
******************************
Total playing time: 23:04



[more=Technical info]
Input File: Inferior Wretch - Dedicated to the Blood Countess - 01 Dedicated to the Blood Countess.mp3
Channels : 2
Sample Rate : 44100
Precision : 16-bit
Duration : 00:04:35.53 = 12150785 samples = 20664.6 CDDA sectors
File Size : 11.2M
Bit Rate : 324k
Sample Encoding: MPEG audio (layer I, II or III)
Comments :
Title=Dedicated to the Blood Countess
Artist=Inferior Wretch
Album=Dedicated to the Blood Countess
Tracknumber=1
Year=2020

[/more]

Register
(12) Bzth, grimoir, infiltrator, kim666, Lukittaz, Olethros, Qliphoth, randumbum, thenecromancer, VALERY, vasiljev_sergej, Wail,
Jul 11 2020, 11:18:50 Маврик - Скиталец (1998)
ЦИТАТА(BRUTAL06 @ Jul 11 2020, 13:56:41) *
диск "Крещение огнём" очень даже неплох.


Бери выше - замечательный альбом, который уже стал классикой группы (хоть времени с момента его релиза прошло не так много).
(1) Faust_Vulkan_16,
Jul 10 2020, 17:33:32 The Ocean Collective - Jurassic | Cretaceous [single] (2020)


*Artist: The Ocean Collective
*Album: Jurassic | Cretaceous [single]
*Year: 2020
*Genre: Post Metal
*Country: Germany
*Format: mp3@CBR320kbps
*Size: 31MB

Tracklist:
1. Jurassic | Cretaceous (feat. Jonas Renkse of Katatonia) 13:24
******************************
Total playing time: 13:24



[more=Technical info]
Input File: The Ocean - Jurassic _ Cretaceous.mp3
Channels : 2
Sample Rate : 44100
Precision : 16-bit
Duration : 00:13:25.04 = 35502132 samples = 60377.8 CDDA sectors
File Size : 32.7M
Bit Rate : 325k
Sample Encoding: MPEG audio (layer I, II or III)
Comments :
Title=Jurassic | Cretaceous
Artist=The Ocean
Album=Jurassic | Cretaceous
Tracknumber=1
Year=2020-07-01
Genre=Metal
Discnumber=1

[/more]

Register
(3) infiltrator, Olethros, sludge666,
Jul 10 2020, 17:14:51 Новости DOOM Metal
[youtube]OuH3pX8tqCg[/youtube]
(1) Lux,
Jul 10 2020, 17:08:42 Новости Thrash Metal направления
[youtube]E_Xrx_h7ry0[/youtube]
(1) Samaritianin,
Jul 9 2020, 17:06:02 Laetitia In Holocaust - Heritage (2020)
Говнодавы, говноступы, вас на обложку еще не помещали блэкеры 15.gif

@320

Register


Register
(2) infiltrator, yuratroll,
Jul 9 2020, 16:46:55 Leeched - To Dull The Blades Of Your Abuse (2020)
@320

Register


Register
(3) 6666666, infiltrator, thecyclops,
Jul 9 2020, 16:39:24 Taake & Deathcult - Jaertegn [split] (2020)
Норвежские блэкеры настолько суровы 15.gif

@320

Register


Register
(7) infiltrator, kranger, milosdjor, Ostinato, squall8fr, tamerz, Vidder242,
Jul 9 2020, 15:06:32 Leeched - To Dull The Blades Of Your Abuse (2020)


*Artist: Leeched
*Album: To Dull The Blades Of Your Abuse
*Year: 2020
*Genre: Metalcore
*Country: United Kingdom
*Format: flac
*Size: 263MB

Tracklist:
1. The Hound's Jaw 02:38
2. The Grey Tide 05:05
3. I, Flatline 04:14
4. Now It Ends 03:24
5. Earth and Ash 04:05
6. Famine at the Gates 03:13
7. Praise Your Blades 02:14
8. Burn With Me 01:30
9. Let Me Die 03:32
10. Black Sun Ceremony 06:15
******************************
Total playing time: 36:10



Register
(4) Bloodn Lord, infiltrator, Olethros, zhol,
Jul 8 2020, 12:18:08 Bury Tomorrow - Cannibal (2020)
Несчастные, слушать металкор в 2020 15.gif

Вась, жанр же этот крайне шаблонен и однообразен, ты еще не устал от него?
(1) Ghostb,
Jul 6 2020, 16:35:12 Bloodlust - Black Mass (2019)
ЦИТАТА(Samaritianin @ Jul 6 2020, 19:31:54) *
там вполне возможно будут просить гораздо больше! bye.gif


Так многие исполнители делают. Особенно начинающие. Вначале вывешивают на халяву для прикорма мяталистов, а как волна пошла - ну и денюжку начинают клянчить 1488.gif И это разумно, хотя мне ближе позиция "весь стафф - всегда на шару", как делают те же Dopethrone. 25.gif
(1) Samaritianin,
Jul 6 2020, 16:13:11 Ensiferum - Thalassic (2020)
ЦИТАТА(kranger @ Jul 6 2020, 18:58:28) *
У фолка по определению обложки должны быть дизлайковые ,если мерить жестко.


Главная проблема фолковых обложек для меня - чрезмерное увлечение изображениями всяких народных мотивов, сказочных вымышленных персонажей, а в случае нашей страны - еще и лубка подвалить любят.

Но это штампы и особенности жанра и что уж поделаешь, в дэт метале вон черепушки да старуха с косой, в блэк тарахтелке свои кунштюки.

(1) Ghostb,
Jul 5 2020, 13:31:22 Boris - No (2020)


*Artist: Boris
*Album: No
*Year: 2020
*Genre: Hardcore/Sludge
*Country: Japan
*Format: mp3@CBR320kbps
*Size: 92MB

Tracklist:
1. Genesis 06:28
2. Anti-Gone 02:57
3. Non Blood Lore 03:40
4. Temple of Hatred 02:06
5. Zerkalo 05:02
6. HxCxHxC -Perforation Line- 02:42
7. Kikinoue 02:06
8. Lust 02:51
9. Fundamental Error 02:43
10. Loveless 06:40
11. Interlude 03:00
******************************
Total playing time: 40:15



[more=Technical info]
Input File: 01 - Genesis .mp3
Channels : 2
Sample Rate : 48000
Precision : 16-bit
Duration : 00:06:28.37 = 18641808 samples ~ 29127.8 CDDA sectors
File Size : 15.6M
Bit Rate : 321k
Sample Encoding: MPEG audio (layer I, II or III)
Comments :
Title=Genesis
Artist=Boris
Album=NO
Tracknumber=01
Year=2020
Genre=Rock

[/more]

Register
(17) Aresson, boby9052, gena, Ghostb, helvetestoner, HMHamster, infiltrator, kolar666, LEGION69, marilin, mirotvorets, nemx, Olethros, Reverend, Shub, sunkilmoon, Wail,
Jul 5 2020, 12:45:48 Coffins - March Of Despair/Craving To Eternal Slumber [compilation] (2020)
@320

Register
(6) Infidel, infiltrator, kluval, maochen, Reverend, Tino,
Jul 4 2020, 08:16:34 Poltergeist - Feather Of Truth (2020)
Ожидал бурную реакцию руса а он чет молчит...

ЦИТАТА(babanguida @ Jul 4 2020, 10:11:41) *
The word legendary is not appropriated to any of these bands actually, even if Cirith were kind of, and their last album is very good, which is not the case of these Polter.


Cirith deserves to be labelled as legendary for being one of the first to play heavy. As for polter - its argueable, yeah
(2) babanguida, infiltrator,
Jul 2 2020, 14:27:14 Grace Disgraced - Immortech (2020)
ЦИТАТА(babanguida @ Jul 2 2020, 17:21:40) *
Crappy logo is not matching at all with cover.


Yeah but I prefer considering it an immanent part of the cover art in general.
(1) babanguida,
Jul 2 2020, 14:03:24 Archaic - How Much Blood Would You Shed To Stay Alive? (2017)
Зело повеселило бомболео юзеров выше, все в лучших традициях 15.gif

Название альбома явно по Пиле.

@320

Register
(1) potap03020100,
Jul 2 2020, 12:42:46 Inhaling Cold - Фаталист (2020)
Люблю, когда Самаритянин подбамбливает 1488.gif
(1) Metalass,
Jul 2 2020, 11:38:20 Grave Disgrace - Rest In Peace (2020)
@320

Register


Кач-во чуть жиже

Register
(1) Tular,
Jul 2 2020, 11:09:01 Hollow Ship - Future Remains (2020)


*Artist: Hollow Ship
*Album: Future Remains
*Year: 2020
*Genre: 60´s Acid/Psychedelic Rock/Afrobeat
*Country: Sweden
*Format: mp3@CBR320kbps
*Size: 92MB

Tracklist:
01. Take Off 05:16
02. We Came Too Late 03:32
03. Agent 05:08
04. Chasing Shadows 03:08
05. Magic Mountain 03:32
06. In the End 02:28
07. Built to Last 01:49
08. Stay Sane 05:40
09. We Were Kings 04:54
10. Air (bonus track) 04:35
******************************
Total playing time: 40:02



[more=Technical info]
Input File: 01 - Take Off.mp3
Channels : 2
Sample Rate : 44100
Precision : 16-bit
Duration : 00:05:16.86 = 13973482 samples = 23764.4 CDDA sectors
File Size : 12.7M
Bit Rate : 322k
Sample Encoding: MPEG audio (layer I, II or III)
Comments :
Title=Take Off
Artist=Hollow Ship
Album=Future Remains
Tracknumber=01/10
Year=2020
Genre=93

[/more]

Register
(6) gena, gikaki, infiltrator, marilin, Olethros, paganheart,
Jul 1 2020, 13:52:59 Typhon - Unholy Trilogy/Demo Rehearsal [compilation] (2013)
Register
(1) troll_swamp,
Jul 1 2020, 11:03:00 Fox Forty Five - The Nature Of Paper (2020)


*Artist: Fox Forty Five
*Album: The Nature Of Paper
*Year: 2020
*Genre: Stoner/Doom Metal/Psychedelic Rock
*Country: United States
*Format: mp3@CBR320kbps
*Size: 108MB

Tracklist:
1. Paçoquita 04:55
2. A Tiger In The Ivy 06:31
3. Psychedelicate 02:53
4. Awake In The Dark 03:46
5. The Huntress In The Armchair 05:04
6. Mutual Desperation 05:46
7. The Nature Of Paper 04:18
8.The In-Between 03:55
9.Jane's Inferno 06:44
******************************
Total playing time: 43:52



[more=Technical info]
Input File: 02. A Tiger in the Ivy.mp3
Channels : 2
Sample Rate : 44100
Precision : 16-bit
Duration : 00:06:31.29 = 17255713 samples = 29346.5 CDDA sectors
File Size : 16.3M
Bit Rate : 334k
Sample Encoding: MPEG audio (layer I, II or III)
Comments :
Title=A Tiger in the Ivy
Artist=Fox 45
Album=The Nature of Paper
Tracknumber=2/9
Year=2020
Genre=Rock
Discnumber=1/1

[/more]

Register
(7) 555, autumnwood, HMHamster, infiltrator, marilin, Olethros, VALERY,
Jul 1 2020, 10:03:04 Dimmu Borgir - Spiritual Black Dimensions (1999)
ЦИТАТА(vo140182fav @ Jul 1 2020, 12:33:45) *
Дальше группа выпустила еще два отличных альбома, но немного в другом ключе.


2001 немногим уступает сабжу. Звук стал вообще эталонным. Музыка, сменив чутка вектор, не утратила ни в хитовости (в хорошем смысле этого слова), ни в атмосферности. Как и сабж, 2001 - эта такая уникальная вещь в себе.

2003 не стал бы ставить в один ряд с вышеобозначенными релизами. Ибо он выглядит просто продолжением 2001 (да еще и менее ярким), а не самостоятельным произведением.
(2) infiltrator, vo140182fav,

452 Pages V   1 2 3 > » 
- Lo-Fi Version Support form
Copyrights and abuse reports form
Time is now: 15th July 2020 - 19:55:51