Welcome Guest ( Log In | Register )

История благодарностей участнику vosmidesijatye ::: Спасибо сказали: 44864 раз(а)
Дата поста: В теме: За сообщение: Спасибо сказали:
Today, 12:47:57 Massacre - Resurgence (2021)
Line Up:

Mike Borders - Bass (1985-1986, 2019-present)

Kam Lee - Vocals (1985-1987, 1989-1992, 1993-1996, 2006-2007, 2019-present)

Brynjar Helgetun - Drums (2020-present)

Scott Fairfax - Guitars (2020-present)

Jonny Pettersson - Guitars (2020-present)

Rogga Johansson - Guitars (2020-present)
(1) Shadowman,
Today, 11:52:57 Ulcerate - Stare Into Death And Be Still (2020)
The Temple - Death/Black Metal side project from members of Ulcerate. Release is scheduled on November 19.



(1) Cdub,
Oct 19 2021, 14:57:25 Iron Attack! - No Loser, No Winner (2021)


*Artist: Iron Attack!
*Album: No Loser, No Winner
*Year: 2021
*Genre: Melodic Power Metal
*Country: Japan
*Format: mp3@CBR320kbps
*Size: 105MB

Tracklist:
1. No Loser, No Winner 05:08
2. Masquerade 04:58
3. ムーン・アタック! 04:27
4. Lights of Deliverance 04:38
5. Depths of Void 03:38
6. Flashing Raid! 04:08
7. Snow Assault 03:23
8. 憂鬱なスミレは閉じない夢を見る 04:18
9. Masquerade (Off vocal) 04:59
10. No Loser, No Winner (Off Vocal) 05:14
******************************
Total playing time: 44:51

[more=Technical info]
Input File: 07. Snow assault.mp3
Channels : 2
Sample Rate : 44100
Precision : 16-bit
Duration : 00:03:22.62 = 8935542 samples = 15196.5 CDDA sectors
File Size : 8.26M
Bit Rate : 326k
Sample Encoding: MPEG audio (layer I, II or III)
Comments :
Title=Snow Assault
Artist=Iron Attack!
Album=No Loser, No Winner
Tracknumber=7/10
Year=2021
Genre=Metal
Discnumber=1/1

[/more]

Register
(14) after21allD, boby9052, dcatagua, gwar, hate_eternal, HMHamster, kimkayoung, Lukittaz, markblasi, regorgitated, Reverend, Rover, sergsazan, Сварог Барг,
Oct 19 2021, 14:43:21 Новости Death Metal направления
Итальянские прогрессив-дэт-металлисты SADIST подписали контракт с лейблом Agonia. В настоящее время они работают над девятым студийным альбомом под названием “Firescorched”, релиз которого ожидается в 2022 году. Гитарист, клавишник и композитор Томми Таламанка заявил: "Партнерство с Agonia Records видится мне началом новой главы в истории Sadist, и мы предвкушаем отличное сотрудничество".

Размышляя о грядущем альбоме, Томми добавил: "’Firescorched’, пожалуй, самый экстремальный, скоростной и при этом экспериментальный альбом за всю карьеру Sadist. Возможность иметь на нашей стороне отличную команду определенно делает нас чрезвычайно счастливыми".
(1) Emm Human,
Oct 17 2021, 12:45:56 Новости направления MDM
In Mourning - The Bleeding Veil - 26 // 11 // 21



1. Sovereign
2. At the Behest of Night
3. Solitude and Silence
4. Thornwalker
5. Blood in the Furrows
6. Lights on the Mire
7. Beyond Thunder
(1) Emm Human,
Oct 17 2021, 12:25:19 Новости Black-направления
Gaahls Wyrd - The Humming Mountain (EP) - 05 // 11 // 21



1. The Seed 09:12
2. The Humming Mountain 04:46
3. The Dwell 05:01
4. Awakening Remains – Before Leaving 07:18
5. The Sleep 03:00

Cân Bardd - Devoured by the Oak - 12 // 11 // 21



1. Echoes of the Moss
2. Une Couronne de Branches
3. Devoured by the Oak Pt.I
4. Devoured by the Oak Pt.II
5. Crépuscule
6. Spleen by the Pond
7. Autumn Shore
8. Blomsterkransen

Darkestrah - Chong Aryk - 05 // 12 // 21



1. Gift of Mud and Venom
2. The Warrior Poet
3. Broken Wheel

Vampirska - Vermilion Apparitions Frozen in Chimera Twilight - 01 // 01 // 22



1. Dreamblack: Drowning in Anhedonia
2. Midnight: An Illusive Vision into the Boundless Sky of Mourning Stars with Prominent Eyes
3. Astral Transfixion: My Heart Devoid of Any Entity
4. Pareidolia: The Bringer of Poison & Toxic Passion
5. Vermilion Apparitions: Five Hundred Sleepless Nights... Drained by Distress, All I See is Red...
6. The Vampyric Condition: Romanticism & Mystique Masked by an Empty Face... to Never be Seen Again...
(3) Chasm, Occultas, thenecromancer,
Oct 15 2021, 19:56:47 Новости Black-направления
Nocturnal Graves - An Outlaw's Stand - 07 // 01 // 22



1. Death to Pigs 05:30
2. Command For Conflict 04:32
3. Ruthless Fight 03:46
4. Across the Acheron 04:05
5. No Mercy For Weakness 04:01
6. Law of the Blade 05:13
7. Beyond the Flesh 04:56
8. An Outlaw’s Stand 04:28
(2) Ainar, Antichrist,
Oct 14 2021, 21:08:26 Новости Thrash Metal направления
Nocturnal Graves - An Outlaw's Stand - 07 // 01 // 22



1. Death to Pigs 05:30
2. Command For Conflict 04:32
3. Ruthless Fight 03:46
4. Across the Acheron 04:05
5. No Mercy For Weakness 04:01
6. Law of the Blade 05:13
7. Beyond the Flesh 04:56
8. An Outlaw’s Stand 04:28
(2) Antichrist, DarkHorde,
Oct 14 2021, 20:42:19 Wooden Fields - Wooden Fields (2021)


*Artist: Wooden Fields
*Album: Wooden Fields
*Year: 2021
*Genre: 70's Hard Rock
*Country: Sweden
*Format: mp3@CBR320kbps
*Size: 91MB

Tracklist:
1. Read The Signs 03:58
2. Shiver And Shake 04:43
3. Should We Care 04:04
4. I'm Home 06:27
5. Don't Be A Fool 06:52
6. Wind Of Hope 06:11
7. Endless Time 06:20
******************************
Total playing time: 38:35



[more=Technical info]
Input File: 01. Read the Signs.mp3
Channels : 2
Sample Rate : 44100
Precision : 16-bit
Duration : 00:03:58.07 = 10498887 samples = 17855.2 CDDA sectors
File Size : 9.91M
Bit Rate : 333k
Sample Encoding: MPEG audio (layer I, II or III)
Comments :
Title=Read the Signs
Artist=Wooden Fields
Album=Wooden Fields
Tracknumber=1/7
Year=2021
Genre=Hard Rock

[/more]

Register
(4) boby9052, Mihalik, Olethros, paganheart,
Oct 14 2021, 19:48:34 Alcatrazz - V (2021)
Крутой альбом, материал немного напомнил первые два релиза стамповского The Reign Of Terror и Attack!!! Ингви. Вторая половина записи особенно понравилась, по композициям отмечу Turn of the Wheel, Return to Nevermore, Target, Maybe Tomorrow, Alice’s Eyes. За микрофоном теперь Дуги Уайт, отметившийся и у Блэкмора и у Мальмстина. С ними он записал хорошие альбомы, вот и тут порадовало его участие, так как его вокал идеально подходит данной музыке.

После прошлого альбома эта запись особенно выразительна, но она кайфово слушается и без учёта оного.
(2) Olrak, smes,
Oct 14 2021, 13:59:14 Новости направления MDM
Arch Enemy - Deceiver, Deceiver (Single) - 21 // 10 // 21

(1) Emm Human,
Oct 13 2021, 14:01:41 Alcahest - Alcahest (2021)
Алкотест true_black.gif
(1) stub888,
Oct 10 2021, 13:47:11 Tarpitorchestra - Pop (2021)


*Artist: Tarpitorchestra
*Album: Pop
*Year: 2021
*Genre: Stoner/Doom Metal
*Country: Finland
*Format: mp3@CBR320kbps
*Size: 89MB

Tracklist:
1. The Final Countdown 05:08
2. Flat Earth Conspiracy 04:32
3. Hale-Bopp 07:03
4. Doombearer 10:45
5. World Goes Pop 06:01
6. Singularity 04:28
7. The Homecoming 00:44
******************************
Total playing time: 38:41



[more=Technical info]
Input File: 02. Flat Earth Conspiracy.mp3
Channels : 2
Sample Rate : 44100
Precision : 16-bit
Duration : 00:04:32.58 = 12020734 samples = 20443.4 CDDA sectors
File Size : 11.1M
Bit Rate : 325k
Sample Encoding: MPEG audio (layer I, II or III)
Comments :
Title=Flat Earth Conspiracy
Artist=TarpitOrchestra
Album=POP
Tracknumber=2
Year=2021
Genre=Rock
Discnumber=1

[/more]

Register
(6) autumnwood, caro, HMHamster, julianotidre, marilin, Olethros,
Oct 10 2021, 13:45:56 Thunder Volt - Wanted Man (2020)


*Artist: Thunder Volt
*Album: Wanted Man
*Year: 2020
*Genre: Stoner/Doom Metal
*Country: Russian Federation
*Format: mp3@CBR320kbps
*Size: 144MB

Tracklist:
1. Gone With No Regrets 04:30
2. Hurt My Baby 05:31
3. Wanted Man 05:04
4. Lust For Freedom 04:43
5. Under Electric Light 03:49
6. Citizens Of Hell 05:10
7. The Volts Of Blood 06:30
8. Remnants 04:29
9. Damage Is Done 05:21
10. Doomed To Desecration 10:52
******************************
Total playing time: 55:59



[more=Technical info]
Input File: Thunder Volt - Wanted Man - 11 Routine.mp3
Channels : 2
Sample Rate : 44100
Precision : 16-bit
Duration : 00:05:42.95 = 15124271 samples = 25721.5 CDDA sectors
File Size : 13.8M
Bit Rate : 323k
Sample Encoding: MPEG audio (layer I, II or III)
Comments :
Title=Routine
Artist=Thunder Volt
Album=Wanted Man
Tracknumber=11
Year=2020

[/more]

Register
(6) caro, HMHamster, julianotidre, lordsloth, Olethros, stumpheavyrock,
Oct 7 2021, 21:35:20 Новости DOOM Metal
Count Raven - The Sixth Storm - 29 // 10 // 21

[youtube]wbc8eU4JWv4[/youtube]
(3) Oskulum, thenecromancer, Wise.man,
Oct 1 2021, 16:30:57 Megalith Levitation - Void Psalms (2021)


*Artist: Megalith Levitation
*Album: Void Psalms
*Year: 2021
*Genre: Stoner/Doom Metal
*Country: Russian Federation
*Format: mp3@CBR320kbps
*Size: 123MB

Tracklist:
1. Phantasmagoric Journey 13:07
2. Datura Revelations / Lysergic Phantoms 12:47
3. Temple Of Silence / Pillars Of Creation 19:44
4. Last Vision 07:35
******************************
Total playing time: 53:13



[more=Technical info]
Input File: 01 Phantasmagoric Journey.mp3
Channels : 2
Sample Rate : 44100
Precision : 16-bit
Duration : 00:13:08.03 = 34751991 samples = 59102 CDDA sectors
File Size : 31.8M
Bit Rate : 322k
Sample Encoding: MPEG audio (layer I, II or III)
Comments :
Title=Phantasmagoric Journey
Artist=Megalith Levitation
Album=Void Psalms
Tracknumber=1
Year=2021

[/more]

Register
(12) Brutal, caro, Forest Silence, HMHamster, julianotidre, Mencae77, obituarydark, Olethros, SatanicPanzer, skidnik, stumpheavyrock, VALERY,
Oct 1 2021, 13:40:00 Новости Death Metal направления
[youtube]BPDMjNG0xV0[/youtube]
(3) Decapitated, obscenity, Occultas,
Oct 1 2021, 13:35:52 Yes - The Quest (2021)


*Artist: Yes
*Album: The Quest
*Year: 2021
*Genre: Progressive Rock
*Country: United Kingdom
*Format: mp3@CBR320kbps
*Size: 140MB

Tracklist:
CD 1

1. The Ice Bridge 06:59
2. Dare to Know 05:57
3. Minus the Man 05:34
4. Leave Well Alone 08:05
5. The Western Edge 04:24
6. Future Memories 05:07
7. Music to My Ears 04:39
8. A Living Island 06:51

CD 2

1. Sister Sleeping Soul 04:49
2. Mystery Tour 03:33
3. Damaged World 05:19
******************************
Total playing time: 1:01:17

[more=Technical info]
Input File: 01 The Ice Bridge.mp3
Channels : 2
Sample Rate : 48000
Precision : 16-bit
Duration : 00:07:02.65 = 20287392 samples ~ 31699 CDDA sectors
File Size : 17.0M
Bit Rate : 321k
Sample Encoding: MPEG audio (layer I, II or III)
Comments :
Title=The Ice Bridge
Artist=Yes
Album=The Quest
Tracknumber=1
Year=2021
Genre=Pop/Rock
Discnumber=1

[/more]

Register
(10) Aresson, canadaspaceman, gwar, jahbless, KLOP, lucifix, Olethros, paganheart, VALERY, yuratroll,
Sep 30 2021, 11:46:14 Chelsea Wolfe - Woodstock/Green Altar [single] (2021)
ЦИТАТА(zoog @ Sep 30 2021, 02:15:47) *
но всё же и не Scorpions после 93го.


У Scorpions и после 1993 года имеются шикарные песни, ничуть не уступающие их классическим вещам 1970-1980-х genius.gif
(1) Maestrovs,
Sep 30 2021, 11:42:31 Ghost
Тут это, новая песня вышла:

[youtube]rtkaUZvMaG8[/youtube]
(1) Tular,
Sep 29 2021, 09:47:24 Converge - Blood Moon [single] (2021)


*Artist: Converge
*Album: Blood Moon [single]
*Year: 2021
*Genre: Metalcore
*Country: United States
*Format: mp3@CBR320kbps
*Size: 20MB

Tracklist:
1. Blood Moon 07:50
******************************
Total playing time: 7:50



[more=Technical info]
Input File: Converge - Blood Moon.mp3
Channels : 2
Sample Rate : 44100
Precision : 16-bit
Duration : 00:07:50.76 = 20760296 samples = 35306.6 CDDA sectors
File Size : 21.2M
Bit Rate : 359k
Sample Encoding: MPEG audio (layer I, II or III)
Comments :
Title=Blood Moon
Artist=Converge & Chelsea Wolfe
Album=Blood Moon
Tracknumber=1/1
Year=2021
Genre=Рок
Discnumber=1/1

[/more]

Register
(4) caro, chipsgott, maxxxy, Ostinato,
Sep 29 2021, 09:39:40 Chelsea Wolfe - Woodstock/Green Altar [single] (2021)


*Artist: Chelsea Wolfe
*Album: Woodstock/Green Altar [single]
*Year: 2021
*Genre: Acoustic/Dark Folk
*Country: United States
*Format: mp3@CBR320kbps
*Size: 23MB

Tracklist:
1. Woodstock 04:33
2. Green Altar 04:30
******************************
Total playing time: 9:03



[more=Technical info]
Input File: 01 Woodstock.mp3
Channels : 2
Sample Rate : 44100
Precision : 16-bit
Duration : 00:04:33.57 = 12064525 samples = 20517.9 CDDA sectors
File Size : 11.8M
Bit Rate : 344k
Sample Encoding: MPEG audio (layer I, II or III)
Comments :
Title=Woodstock
Artist=Chelsea Wolfe
Album=Woodstock / Green Altar
Tracknumber=1
Year=2021
Genre=Dark Folk
Discnumber=1/1

[/more]

Register
(4) Cartman223, Olethros, popen13, zoog,
Sep 28 2021, 15:15:43 Amer - Birth Of Winds (2021)


*Artist: Amer
*Album: Birth Of Winds
*Year: 2021
*Genre: Experimental/Progressive Metal
*Country: Russian Federation
*Format: mp3@CBR320kbps
*Size: 101MB

Tracklist:
1. Castles Of Mountain Spirits 06:52
2. Cyclone 06:16
3. Chulyshman Valley 07:28
4. Day-Spring Of The Sun 06:38
5. Last Vision 07:11
6. Climbing Everest 09:02
******************************
Total playing time: 43:27



[more=Technical info]
Input File: Amer - Birth of Winds - 01 Castles of Mountain Spirits.mp3
Channels : 2
Sample Rate : 44100
Precision : 16-bit
Duration : 00:06:52.08 = 18172640 samples = 30905.9 CDDA sectors
File Size : 16.6M
Bit Rate : 321k
Sample Encoding: MPEG audio (layer I, II or III)
Comments :
Title=Castles of Mountain Spirits
Artist=Amer
Album=Birth of Winds
Tracknumber=1
Year=2021

[/more]

Register
(7) caro, HMHamster, kimkayoung, metala, Ogidni, Olethros, varlam4,
Sep 28 2021, 08:11:38 Skepticism - Companion (2021)
На Фармаконе имеется одна из лучших композиций группы - атмосфернейшая The Raven And The Backward Funeral pray.gif
(1) Black Cat,
Sep 26 2021, 10:07:36 Новости Death Metal направления


Записаны все партии (гитары, басы, барабаны, вокалы, оркестровки) нового альбома The Project Hate MCMXCIX под названием Spewing Venom Into The Eyes Of Deities. Все отправлено Дэну Свано на микс, который займет пару месяцев.
(1) Emm Human,

489 Pages V   1 2 3 > » 
- Lo-Fi Version Support form
Copyrights and abuse reports form
Time is now: 21st October 2021 - 13:54:41