Welcome Guest ( Log In | Register )

История благодарностей участнику vosmidesijatye ::: Спасибо сказали: 43208 раз(а)
Дата поста: В теме: За сообщение: Спасибо сказали:
Today, 14:00:44 Новости Heavy/Power металла
Британская хэви-метал супергруппа KK's Priest, в которую входят бывшие участники Judas Priest Кей Кей Даунинг (гитарист) и вокалист Тим ''Riper'' Оуэнс, а также гитарист Эй-Джей Миллс, басист Тони Ньютон и барабанщик Шон Элг, выпустит свой дебютный 10-трековый полноформатник "Sermons Of The Sinner" 20 августа этого года на лейбле Explorer1 Music Group/EX1 Records. И первый сингл "Hellfire Thunderbolt", на который также команда представила своё перформанс-видео, даёт некоторое представление о том, что будет ждать слушателей на альбоме.
Сегодня фэны могут сделать предзаказ диска в различных форматах, включая эксклюзивный лимитированный тираж "серебряного" винила с автографом и с бонусным CD-альбомом, через интернет-магазин группы.
Кей Кей Даунинг говорит: "Мы очень рады, что наконец-то смогли выпустить наш первый трек, который доступен по всему миру. Он демонстрирует всю звуковую палитру и колорит, которые вы сможете услышать на диске и представляет прекрасных музыкантов, с которыми я имею честь играть в одной команде. Мы не можем дождаться дня, когда фэны услышат нашу пластинку."



Трек-лист "Sermons Of The Sinner":

01. Incarnation
02. Hellfire Thunderbolt
03. Sermons Of The Sinner
04. Sacerdote Y Diablo
05. Raise Your Fists
06. Brothers Of The Road
07. Metal Through And Through
08. Wild And Free
09. Hail For The Priest
10. Return Of The Sentinel

[youtube]cqOZJAZR1XM[/youtube]
(1) Slam91,
May 11 2021, 19:47:26 Euclid - Heavy Equipment (1970)


*Artist: Euclid
*Album: Heavy Equipment
*Year: 1970
*Genre: Acid/Hard Rock
*Country: United States
*Format: mp3@CBR320kbps
*Size: 77MB

Tracklist:
1. Shadows Of Life 11:32
2. Gimme Some Lovin' 03:38
3. First Time Last Time 02:52
4. Lazy Livin' 05:57
5. 97 Days 03:11
6. She's Gone 02:47
7. It's All Over Now 03:23
******************************
Total playing time: 33:20



[more=Technical info]
Input File: 01 - Shadows of Life, On the Way, Bye Bye Baby.mp3
Channels : 2
Sample Rate : 44100
Precision : 16-bit
Duration : 00:11:35.66 = 30678430 samples = 52174.2 CDDA sectors
File Size : 27.9M
Bit Rate : 320k
Sample Encoding: MPEG audio (layer I, II or III)
Comments :
Title=Shadows of Life, On the Way, Bye Bye Baby
Artist=Euclid
Album=Heavy Equipment
Tracknumber=1
Year=2005

[/more]

Register
(5) infiltrator, marilin, Olethros, stumpheavyrock, Xtohar,
May 11 2021, 18:42:05 John Uzonyi's Peacepipe - Peacepipe (1970)


*Artist: John Uzonyi's Peacepipe
*Album: Peacepipe
*Year: 1970
*Genre: Heavy Psychedelic Rock
*Country: United States
*Format: mp3@CBR320kbps
*Size: 114MB

Tracklist:
1. Sea Of Nightmares 06:26
2. Angel Of Love 04:10
3. I Can Never Take Your Dreams Away 06:24
4. Carry On Together 02:43
5. A Bikers Tune 02:49
6. Open Your Mind 04:49
7. The Day The War Has Ended 10:08
8. Love Shines 03:12
9. Keep A Smilin' Cari 02:49
10. The Sun Won't Shine Forever 02:51
11. Lazy River Blues 03:39
******************************
Total playing time: 50:00



[more=Technical info]
Input File: 02 - Angel Of Love.mp3
Channels : 2
Sample Rate : 44100
Precision : 16-bit
Duration : 00:04:10.56 = 11049564 samples = 18791.8 CDDA sectors
File Size : 10.0M
Bit Rate : 320k
Sample Encoding: MPEG audio (layer I, II or III)
Comments :
Title=Angel Of Love
Artist=Jon Uzonyi's Peacepipe
Album=Peacepipe
Tracknumber=2
Year=1970
Genre=Progressive Rock

[/more]

Register
(5) infiltrator, marilin, Olethros, s810ic1, Xtohar,
May 11 2021, 14:31:27 The Firebirds - Light My Fire (1969)


*Artist: The Firebirds
*Album: Light My Fire
*Year: 1969
*Genre: Hard Rock/Heavy Psych
*Country: United Kingdom
*Format: mp3@CBR320kbps
*Size: 70MB

Tracklist:
1. Warm Up 02:30
2. Reflections 04:22
3. By Baby 05:29
4. Free Bass, Free Drum, Free Fuzz 02:37
5. Gypsy Fire 04:31
6. Delusions 02:39
7. No Tomorrows 05:02
8. Light My Fire 04:18
******************************
Total playing time: 31:28



[more=Technical info]
Input File: 01 - Warm Up.mp3
Channels : 2
Sample Rate : 44100
Precision : 16-bit
Duration : 00:02:29.80 = 6606048 samples = 11234.8 CDDA sectors
File Size : 6.03M
Bit Rate : 322k
Sample Encoding: MPEG audio (layer I, II or III)
Comments :
Title=Warm Up
Artist=The Firebirds
Album=Light My Fire
Tracknumber=1
Year=1969
Genre=Psychedelic Rock

[/more]

Register
(4) infiltrator, marilin, Olethros, Xtohar,
May 11 2021, 13:01:58 Orang-Utan - Orang-Utan (1971)


*Artist: Orang-Utan
*Album: Orang-Utan
*Year: 1971
*Genre: Psychedelic/Acid/Hard Rock
*Country: United Kingdom
*Format: mp3@CBR320kbps
*Size: 86MB

Tracklist:
1. I Can See Inside Your Head
2. Slipping Away
3. Love Queen
4. Chocolate Piano
5. If You Leave
6. Fly Me High
7. Country Hike
8. Magic Playground
******************************
Total playing time: 38:48



[more=Technical info]
Input File: 03 - Love Queen.mp3
Channels : 2
Sample Rate : 44100
Precision : 16-bit
Duration : 00:04:33.84 = 12076300 samples = 20537.9 CDDA sectors
File Size : 11.0M
Bit Rate : 320k
Sample Encoding: MPEG audio (layer I, II or III)
Comments :
Title=Love Queen
Artist=Orang-Utan
Album=Orang-Utan
Tracknumber=03
Year=1971
Genre=Progressive Rock

[/more]

Register
(5) infiltrator, marilin, oldvarg, Olethros, Xtohar,
May 11 2021, 12:54:41 Acid's Trip - Strings Of Soul (2021)


*Artist: Acid's Trip
*Album: Strings Of Soul
*Year: 2021
*Genre: Psychedelic/Hard Rock
*Country: Sweden
*Format: mp3@CBR320kbps
*Size: 92MB

Tracklist:
1. Prelude 01:29
2. Strings Of Soul 04:00
3. The Kiss Riff 03:26
4. No More Fucks 02:16
5. High Time 03:20
6. Just A Man 04:05
7. Faster, Chopper, Boogie 03:21
8. Creature Of The Lagoon 03:25
9. Get It Right 03:17
10. Delusions Of Grandeur 04:04
11. If Only (I Were the Only) 03:11
12. Come Hell Or High Water 04:01
******************************
Total playing time: 39:55



[more=Technical info]
Input File: 02 - Strings of Soul.mp3
Channels : 2
Sample Rate : 44100
Precision : 16-bit
Duration : 00:04:00.89 = 10623293 samples = 18066.8 CDDA sectors
File Size : 9.78M
Bit Rate : 325k
Sample Encoding: MPEG audio (layer I, II or III)
Comments :
Title=Strings of Soul
Artist=Acid's Trip
Album=Strings of Soul
Tracknumber=02
Year=2021
Genre=Psychedelic | Hard Rock

[/more]

Register
(6) A.L.Rapsod, infiltrator, marilin, Ningizzida, oldvarg, Olethros,
May 8 2021, 21:51:40 John Zorn - Chaos Magick (2021)


*Artist: John Zorn
*Album: Chaos Magick
*Year: 2021
*Genre: Avant-Garde/Contemporary Jazz
*Country: United States
*Format: mp3@CBR320kbps
*Size: 90MB

Tracklist:
1. The Initiate 03:50
2. Corinthians I 05:24
3. The Servitor 05:45
4. St. Augustine 06:58
5. Egregore 04:36
6. Crossing The Abyss 03:50
7. Liber 15 02:48
8. Imp Of The Perverse 02:52
9. Corinthians II 03:43
******************************
Total playing time: 39:46

[more=Technical info]
Input File: 01 - The Initiate.mp3
Channels : 2
Sample Rate : 44100
Precision : 16-bit
Duration : 00:03:50.13 = 10148645 samples = 17259.6 CDDA sectors
File Size : 9.22M
Bit Rate : 321k
Sample Encoding: MPEG audio (layer I, II or III)
Comments :
Title=The Initiate
Artist=John Zorn
Album=Chaos Magick
Tracknumber=1
Year=2021
Genre=Jazz
Discnumber=1

[/more]

Register
(9) A.L.Rapsod, gena, Hell_Is_Here, infiltrator, kimkayoung, marilin, nemx, thenecromancer, yuratroll,
May 7 2021, 14:33:46 Earth Wind & Fire - I Am (1979)


*Artist: Earth Wind & Fire
*Album: I Am
*Year: 1979
*Genre: Jazz/Funk/Soul
*Country: United States
*Format: mp3@CBR320kbps
*Size: 103MB

Tracklist:
1. In The Stone 04:48
2. Can't Let Go 03:28
3. After The Love Has Gone 04:38
4. Let Your Feelings Show 05:12
5. Boogie Wonderland 04:48
6. Star 04:23
7. Wait 03:39
8. Rock That! 03:07
9. You And I 03:34
10. Diana 04:08
11. Dirty (Interlude) 00:52
12. Dirty (Junior's Juke) 03:44
******************************
Total playing time: 46:21



[more=Technical info]
Input File: 06_Star.mp3
Channels : 2
Sample Rate : 44100
Precision : 16-bit
Duration : 00:04:24.50 = 11664230 samples = 19837.1 CDDA sectors
File Size : 10.6M
Bit Rate : 320k
Sample Encoding: MPEG audio (layer I, II or III)
Comments :
Artist=Earth, Wind & Fire
Album=I Am
Year=1979
Genre=Jazz+Funk

[/more]

Register
(3) infiltrator, marilin, thenecromancer,
May 7 2021, 11:26:08 Frankie And The Witch Fingers - Monsters Eating People Eating Monsters​.​.​. (2020)


*Artist: Frankie And The Witch Fingers
*Album: Monsters Eating People Eating Monsters​.​.​.
*Year: 2020
*Genre: Psychedelic/Funk Rock
*Country: United States
*Format: mp3@CBR320kbps
*Size: 121MB

Tracklist:
1. Activate 07:56
2. Reaper 03:46
3. Sweet Freak 04:14
4. Where's Your Reality? 04:17
5. Michaeldose 02:20
6. Can You Hear Me Now? 01:07
7. Simulator 06:03
8. Urge You 02:20
9. Cavehead 04:34
10. MEPEM... 08:25
******************************
Total playing time: 45:02



[more=Technical info]
Input File: 01 - Activate.mp3
Channels : 2
Sample Rate : 44100
Precision : 16-bit
Duration : 00:07:56.45 = 21011313 samples = 35733.5 CDDA sectors
File Size : 19.3M
Bit Rate : 325k
Sample Encoding: MPEG audio (layer I, II or III)
Comments :
Title=Activate
Artist=Frankie and the Witch Fingers
Album=Monsters Eating People Eating Monsters...
Year=2020
Genre=Garage Psych

[/more]

Register
(6) infiltrator, marilin, Olethros, p4B10, snot, whitebros,
May 7 2021, 03:31:08 Year Of No Light - Vampyr (2013)
2 июля - новый полноформат.

(1) Un4given,
May 7 2021, 03:17:17 Sabaton - Defence Of Moscow [single] (2021)


*Artist: Sabaton
*Album: Defence Of Moscow [single]
*Year: 2021
*Genre: Power Metal
*Country: Sweden
*Format: mp3@CBR320kbps
*Size: 9MB

Tracklist:
1. Defence Of Moscow 04:09
******************************
Total playing time: 4:09



[more=Technical info]
Input File: 1. Defence of Moscow.mp3
Channels : 2
Sample Rate : 44100
Precision : 16-bit
Duration : 00:04:09.07 = 10983767 samples = 18679.9 CDDA sectors
File Size : 9.96M
Bit Rate : 320k
Sample Encoding: MPEG audio (layer I, II or III)
Comments :
Title=Defence of Moscow
Artist=Sabaton
Album=Defence of Moscow
Tracknumber=01/01
Year=2021-21-20
Discnumber=1/1

[/more]

Register
(16) Aresson, aviacademy, boby9052, caro, DTGB, gwar, gwynnbleid, infiltrator, kluval, mikerx, Olethros, Olrak, Reverend, Rover, sergsazan, Сварог Барг,
May 5 2021, 15:39:49 Knife - Torture..... Darkness..... The Craft Of Sorrow [demo] (2018)
@320

Register
(3) Occultas, rimfrost, thenecromancer,
May 2 2021, 21:53:11 Steve Von Till - A Deep Voiceless Wilderness (2021)


*Artist: Steve Von Till
*Album: A Deep Voiceless Wilderness
*Year: 2021
*Genre: Acoustic/Folk
*Country: United States
*Format: mp3@CBR320kbps
*Size: 84MB

Tracklist:
01. Called From the Wind 06:27
02. We'll Always Have the Sea 05:09
03. The Emptiness Swallows Us All 07:03
04. Shelter in Surrender 04:12
05. The Spiraling Away 07:19
06. Nightshade High Country 07:02
******************************
Total playing time: 37:12



[more=Technical info]
Input File: 01 Called From the Wind.mp3
Channels : 2
Sample Rate : 44100
Precision : 16-bit
Duration : 00:06:27.50 = 17088662 samples = 29062.4 CDDA sectors
File Size : 15.6M
Bit Rate : 321k
Sample Encoding: MPEG audio (layer I, II or III)
Comments :
Title=Called From the Wind
Artist=Steve Von Till
Album=A Deep Voiceless Wilderness
Tracknumber=1/6
Year=2021
Genre=Indie-Folk

[/more]

Register
(7) Brann, Cartman223, gwar, infiltrator, marilin, Olethros, p4B10,
May 2 2021, 21:33:55 Witchrot - Hollow (2021)


*Artist: Witchrot
*Album: Hollow
*Year: 2021
*Genre: Psychedelic/Stoner/Doom Metal
*Country: Canada
*Format: mp3@CBR320kbps
*Size: 98MB

Tracklist:
1. Million Shattered Swords 07:03
2. Colder Hands 05:43
3. Spiral Of Sorrow 05:58
4. Fog 02:47
5. Devil In Your Eyes 05:09
6. Burn Me Down 05:27
7. I Know My Enemy 04:16
8. Hollow 05:05
******************************
Total playing time: 41:28



[more=Technical info]
Input File: 01 Million Shattered Swords.mp3
Channels : 2
Sample Rate : 44100
Precision : 16-bit
Duration : 00:07:03.11 = 18658931 samples = 31732.9 CDDA sectors
File Size : 17.1M
Bit Rate : 322k
Sample Encoding: MPEG audio (layer I, II or III)
Comments :
Title=Million Shattered Swords
Artist=Witchrot
Album=Hollow
Tracknumber=1
Year=2021
Genre=Stoner Doom;Psych;Sludge Metal

[/more]

Register
(12) BlutWut, chipsgott, gena, HMHamster, infiltrator, marilin, Olethros, Ostinato, pahail, skidnik, StabWound, VALERY,
May 2 2021, 21:19:32 Sleep - Iommic Life [ep] (2021)


*Artist: Sleep
*Album: Iommic Life [ep]
*Year: 2021
*Genre: Stoner/Doom Metal
*Country: United States
*Format: mp3@CBR320kbps
*Size: 60MB

Tracklist:
1. The Clarity 09:53
2. Leagues Beneath 16:49
******************************
Total playing time: 26:42



[more=Technical info]
Input File: 01. The Clarity.mp3
Channels : 2
Sample Rate : 44100
Precision : 16-bit
Duration : 00:09:53.22 = 26161178 samples = 44491.8 CDDA sectors
File Size : 23.8M
Bit Rate : 320k
Sample Encoding: MPEG audio (layer I, II or III)
Comments :
Title=The Clarity
Artist=Sleep
Album=Iommic Life EP
Tracknumber=01
Year=2021
Genre=Stoner Doom

[/more]

Register
(20) boby9052, canadaspaceman, hell_armageddon, HMHamster, infiltrator, krotovich, lordbathor, maochen, MEmethuselah, metaljosue, NOMIDIMON, Olethros, Ostinato, ripper33, sludge666, spazm, Tular, Un4given, VALERY, vlad74,
Apr 30 2021, 15:06:22 Uratsakidogi - Black Hop. Epos (2021)
@320

Register


Register
(2) KKK1488, zerger,
Apr 30 2021, 11:46:45 The 69 Cats - Seven Year Itch (2021)
Юрка не теряет времени даром, пока простаивают Глаза. Очень хороший проект.
(1) KKK1488,
Apr 29 2021, 20:44:35 Hekate - Sermons To The Black Owl (2021)
Sorry for this but sampo contains the right file.

Here`s another host

Register


Enjoy!
(2) multizwilling, squall8fr,
Apr 29 2021, 18:57:28 Vreid - Wild North West (2021)
@320

Register


(8) 6666666, infiltrator, mardak666, MMMMM, Ostinato, vasiljev_sergej, westwall, Xor,
Apr 29 2021, 18:45:14 Evile - Hell Unleashed (2021)
@320

Register


Register


Register
(9) DTGB, fuoco, Golfzilla, hell_armageddon, infiltrator, insufferable, matiasvoltaje, metaljosue, StoneTemple,
Apr 29 2021, 12:29:08 Black Sabbath - Born Again Unmixed Demos [demo] (1983)
ЦИТАТА(Maximvs @ Apr 29 2021, 10:49:38) *
Мда, что микшированное, что не микшированное - всё равно жуткое гуано.


Вы неправы, альбом Born Again - один из лучших, записанных группой. Звучит оригинально и до сих пор слушается крайне приятно (как и шикарные The Seventh Star, Eternal Idol, The Headless Cross (на которых вообще нет проходных песен). Также в пост-Осборновскую эру очень круты Heaven & Hell и Dehumanizer.
(1) DTGB,
Apr 28 2021, 22:53:54 The 69 Cats - Seven Year Itch (2021)


*Artist: The 69 Cats
*Album: Seven Year Itch
*Year: 2021
*Genre: Dark Rockabilly/Gothic Rock
*Country: United States
*Format: mp3@CBR320kbps
*Size: 90MB

Tracklist:
1. She's Hot 02:48
2. Hollywood's Bleeding 03:46
3. (You're) The Kind of Girl I Need 03:05
4. Good Time to Die 03:24
5. Graveyard Blues 03:48
6. Hey World [feat. Sky Saxon] 02:53
7. (Let's Go) Psycho 02:56
8. Vampire Shuffle 02:59
9. Teddy Boy Boogie 03:21
10. The Hell of The Mountain King 03:01
11. I'm Evil 03:56
12. It Ain't Enough [feat. Larry Wallis] 03:17
******************************
Total playing time: 39:14



[more=Technical info]
Input File: 06 - Hey World.mp3
Channels : 2
Sample Rate : 44100
Precision : 16-bit
Duration : 00:02:53.39 = 7646367 samples = 13004 CDDA sectors
File Size : 7.00M
Bit Rate : 323k
Sample Encoding: MPEG audio (layer I, II or III)
Comments :
Title=Hey World
Artist=The 69 Cats; Sky Saxon
Album=Seven Year Itch
Tracknumber=6
Year=2021-04-16
Genre=Rock / Rock & Roll/Rockabilly
Discnumber=1

[/more]

Register
(12) Cartman223, dunkelvarg, gwar, infiltrator, KKK1488, Konst, kostja, Nattfodd, oldvarg, Olethros, v.v.m, VALERY,
Apr 28 2021, 22:01:35 Black Sabbath - Born Again Unmixed Demos [demo] (1983)


*Artist: Black Sabbath
*Album: Born Again Unmixed Demos [demo]
*Year: 1983
*Genre: Heavy Metal/Hard Rock
*Country: United Kingdom
*Format: mp3@CBR320kbps
*Size: 115MB

Tracklist:
1. Hot Line 04:54
2. Keep It Warm 05:44
3. The Fallen 04:28
4. Digital Bitch 03:46
5. Stonehenge 04:54
6. Trashed 03:47
7. Zero The Hero 09:09
8. Born Again 06:33
9. Disturbing The Priest 05:38
******************************
Total playing time: 48:53



[more=Technical info]
Input File: 01 Hot Line.mp3
Channels : 2
Sample Rate : 44100
Precision : 16-bit
Duration : 00:04:53.79 = 12956227 samples = 22034.4 CDDA sectors
File Size : 11.8M
Bit Rate : 320k
Sample Encoding: MPEG audio (layer I, II or III)
Comments :
Title=Hot Line
Artist=Black Sabbath
Album=Born Again Unmixed Demos
Tracknumber=01/09
Year=1983
Genre=Heavy Metal

[/more]

Register
(20) caro, chipsgott, craP_cillA, DTGB, ENDSMOUTH, Golfzilla, infiltrator, killingod, Lanceatum, Marek, marilin, Olethros, Reverend, Rover, supremo, Svafrlami, thenecromancer, varlam4, vir2al, Wail,
Apr 28 2021, 17:32:37 Dopelord - Reality Dagger [ep] (2021)


*Artist: Dopelord
*Album: Reality Dagger [ep]
*Year: 2021
*Genre: Stoner/Doom Metal
*Country: Poland
*Format: mp3@CBR320kbps
*Size: 49MB

Tracklist:
1. Dark Coils 05:46
2. Your Blood 05:04
3. Reality Dagger 10:42
******************************
Total playing time: 21:32



[more=Technical info]
Input File: 01 - Dark Coils.mp3
Channels : 2
Sample Rate : 44100
Precision : 16-bit
Duration : 00:05:46.00 = 15258600 samples = 25950 CDDA sectors
File Size : 13.9M
Bit Rate : 321k
Sample Encoding: MPEG audio (layer I, II or III)
Comments :
Title=Dark Coils
Artist=Dopelord
Album=Reality Dagger
Tracknumber=1
Year=2021-02-19
Genre=Metal
Discnumber=1

[/more]

Register
(11) Boozer, chipsgott, djsema4, HMHamster, infiltrator, krotovich, lary_veel, marilin, stumpheavyrock, VALERY, vlad74,
Apr 28 2021, 17:28:13 Lunar Funeral - Road To Siberia (2021)


*Artist: Lunar Funeral
*Album: Road To Siberia
*Year: 2021
*Genre: Psychedelic Doom Metal
*Country: Russian Federation
*Format: mp3@CBR320kbps
*Size: 122MB

Tracklist:
1. Introduce 04:54
2. The Thrill 11:10
3. 25th Hour 06:04
4. Black Bones 05:30
5. Silence 08:04
6. Your Fear Is Giving Me Fear 05:54
7. Don't Send Me To Rehab 11:44
******************************
Total playing time: 53:20



[more=Technical info]
Input File: 03 - 25th Hour.mp3
Channels : 2
Sample Rate : 44100
Precision : 16-bit
Duration : 00:06:04.00 = 16052400 samples = 27300 CDDA sectors
File Size : 14.7M
Bit Rate : 323k
Sample Encoding: MPEG audio (layer I, II or III)
Comments :
Title=25th Hour
Artist=Lunar Funeral
Album=Road to Siberia
Tracknumber=3
Year=2021-04-22
Genre=Metal
Discnumber=1

[/more]

Register
(12) chipsgott, HMHamster, infiltrator, kimkayoung, marilin, metala, robertho777, sarcophagus, Shadechaser, skidnik, squall8fr, VALERY,

478 Pages V   1 2 3 > » 
- Lo-Fi Version Support form
Copyrights and abuse reports form
Time is now: 18th May 2021 - 15:55:01