Welcome Guest ( Log In | Register )

Объявления

* gmail.com упорно продолжает считать почту с нас "unsolicited" и отбивает в том числе и письма активации, поэтому просьба использовать альтернативные почтовые ящики.
------------
* gmail.com continues reject all mail from us as "unsolicited" (activation mails too) therefore please use alternate mail servers.
История благодарностей участнику vosmidesijatye ::: Спасибо сказали: 54543 раз(а)
Дата поста: В теме: За сообщение: Спасибо сказали:
Apr 3 2024, 14:33:36 Новости Black-направления
Limbonic Art - Opus Daemoniacal - 28 // 06 // 24



1. Ad Astra et Abyssos
2. Deify Thy Master
3. Consigned to the Flames
4. Vir Triumphalis
5. I Am Your Demon
6. The Wrath of Storms
7. Ars Diavoli

Werewolves - Die for Us - 12 // 07 // 24



1. Die for Us
2. Beaten Back to Life 03:22
3. Fuck You Got Mine
4. My Hate Is Strong
5. The Company Wolves
6. Spittle-Flecked Rant
7. We All Deserve to Be Slaves
8. Under a Urinal Moon
9. Stay Down
(4) Nerevar, Occultas, rimfrost, thenecromancer,
Apr 3 2024, 14:08:17 Monocast - Детства Край (2024)


*Artist: Monocast
*Album: Детства Край
*Year: 2024
*Genre: Alternative/Modern Metal
*Country: Russian Federation
*Format: mp3@CBR320kbps
*Size: 125MB

Tracklist:
1. Дропшот (feat. Юла)
2. В Поисках Мечты (feat. Дмитрий Борисенков / Чёрный Обелиск)
3. После Поцелуя Неба (feat. Пётр Елфимов / Гран-КуражЪ & Виктор Смольский)
4. Циклон
5. Детства Край (feat. Александр Кэп / Революция)
6. Лунатик
7. Их Нет
8. Наркоз
9. Танцуй И Пой
10. MVP
11. Истоки
12. После Поцелуя Неба (Instrumental)
13. Их Нет (Instrumental)
14. В Поисках Мечты (Instrumental)
******************************
Total playing time: 54:36

[more=Technical info]
Input File: 06 Лунатик.mp3
Channels : 2
Sample Rate : 44100
Precision : 16-bit
Duration : 00:03:27.47 = 9149471 samples = 15560.3 CDDA sectors
File Size : 8.30M
Bit Rate : 320k
Sample Encoding: MPEG audio (layer I, II or III)
Comments :
Title=Ëóíàòèê
Artist=Monocast
Album=Äåòñòâà Êðàé
Tracknumber=6
Year=2024
Genre=Alternative Metal

[/more]

Register
(5) AndreFrancis, Aresson, Bloodn Lord, VALERY, Wail,
Apr 3 2024, 14:05:06 Minuala - В Агонии (2024)


*Artist: Minuala
*Album: В Агонии
*Year: 2024
*Genre: Dark Hardcore/Blackened Hardcore/Post Black Metal
*Country: Russian Federation
*Format: mp3@CBR320kbps
*Size: 98MB

Tracklist:
1. В Агонии
2. Дух лес
3. Исход
4. Место Веры
5. Путь В Неизвестность
6. Гроза
7. Земля, Где Камни Говорят
8. Онего
9. В Объятиях Огня
10. Заснеженная Даль
******************************
Total playing time: 43:08

[more=Technical info]
Input File: 02. Дух лес.mp3
Channels : 2
Sample Rate : 44100
Precision : 16-bit
Duration : 00:04:03.81 = 10751933 samples = 18285.6 CDDA sectors
File Size : 9.75M
Bit Rate : 320k
Sample Encoding: MPEG audio (layer I, II or III)
Comments :
Title=Äóõ ëåñ
Artist=Minuala
Album=Â Àãîíèè
Tracknumber=2
Year=2024
Genre=Dark Hardcore / Blackened Hardcore

[/more]

Register
(9) acerbus, Ainar, Aresson, IamTLR, LoveSan, Victim of fate, Vidyadharov, Wail, Yanek,
Apr 3 2024, 13:59:23 Imutenvrv - I:mutenara [ep] (2024)


*Artist: Imutenvrv
*Album: I:mutenara [ep]
*Year: 2024
*Genre: Progressive Metal
*Country: Russian Federation
*Format: mp3@CBR320kbps
*Size: 44MB

Tracklist:
1. Seket (feat. Shane)
2. Nehet (feat. Kyle Kujira)
3. Nehet
4. Leviathan
******************************
Total playing time: 19:11

[more=Technical info]
Input File: 01 - Seket (feat. Shane).mp3
Channels : 2
Sample Rate : 44100
Precision : 16-bit
Duration : 00:03:51.00 = 10187100 samples = 17325 CDDA sectors
File Size : 9.23M
Bit Rate : 320k
Sample Encoding: MPEG audio (layer I, II or III)
Comments :
Title=Seket (feat. Shane)
Artist=Imutenvrv
Album=I:mutenara
Tracknumber=1
Year=2024-03-31
Genre=Progressive Metal

[/more]

Register
(4) artscald, infozahist, Occultas, Wail,
Apr 3 2024, 13:55:55 Eleanore Begin - Клан (2024)


*Artist: Eleanore Begin
*Album: Клан
*Year: 2024
*Genre: Alternative Metal/Djent
*Country: Russian Federation
*Format: mp3@CBR320kbps
*Size: 85MB

Tracklist:
1. Таинственная Неизвестность (Intro)
2. Клан
3. Заклятие
4. Станем Пеплом
5. Пока Не Погаснет Свет
6. Зеркала
7. Станем Пеплом
8. Crawl
******************************
Total playing time: 37:21

[more=Technical info]
Input File: 06 - Зеркала.mp3
Channels : 2
Sample Rate : 44100
Precision : 16-bit
Duration : 00:04:39.00 = 12303900 samples = 20925 CDDA sectors
File Size : 11.2M
Bit Rate : 320k
Sample Encoding: MPEG audio (layer I, II or III)
Comments :
Title=Зеркала
Artist=Eleanore Begin
Album=Клан
Tracknumber=6
Year=2024-03-31
Genre=Djent

[/more]

Register
(2) Aresson, Wail,
Apr 3 2024, 13:50:26 Красная Плесень - Вечный Бульбец Бибизинского (2024)


*Artist: Красная Плесень
*Album: Вечный Бульбец Бибизинского
*Year: 2024
*Genre: Post-Punk/Electronic/Punk Rock
*Country: Russian Federation
*Format: mp3@CBR320kbps
*Size: 72MB

Tracklist:
1. Рецепт Щей. Кулинарная Битва
2. Тихо В Лесу (Eins Fantastisch Mix)
3. Сантехник Лёша Кабанов И Мачта
4. Гимн Хоккею
5. Резиновая Зина Из Секс-Шопа
6. Жареная Жаба (Porno-Toad-Mix)
7. По Кривой Дороге. Треш-Стрим
8. Трамвай 10 (WTF-Tram)
9. Тихо В Лесу 2 (Zwei Fantastisch Mix)
10 Я Пою Вместе Рамштайн Sonne Folk
11. Кантугэза На Пляже (Cum Together Bitch)
12. Клиническая Смерть (Gothic-Punk)
******************************
Total playing time: 31:26

[more=Technical info]
Input File: 01. Рецепт Щей. Кулинарная Битва.mp3
Channels : 2
Sample Rate : 44100
Precision : 16-bit
Duration : 00:02:44.21 = 7241705 samples = 12315.8 CDDA sectors
File Size : 6.57M
Bit Rate : 320k
Sample Encoding: MPEG audio (layer I, II or III)
Comments :
Title=Рецепт щей. Кулинарная битва
Artist=Красная Плесень
Album=Вечный Бульбец Бибизинского
Tracknumber=1
Year=2024
Genre=Punk Rock / Post-Punk / Electronic

[/more]

Register
(11) A.L.Rapsod, Chasm, DarkHorde, gwar, judaz, Occultas, oldvarg, TeamatSE, VALERY, Wail, warrior101,
Mar 31 2024, 17:36:49 Moanhand - Ркацители [ep] (2024)


*Artist: Moanhand
*Album: Ркацители [ep]
*Year: 2024
*Genre: Sludge/Doom Metal
*Country: Russian Federation
*Format: mp3@CBR320kbps
*Size: 28MB

Tracklist:
1. Ркацители
2. Недуги
3. Ничтожество
4. Царство
******************************
Total playing time: 12:06

[more=Technical info]
Input File: 01. Ркацители.mp3
Channels : 2
Sample Rate : 44100
Precision : 16-bit
Duration : 00:03:25.85 = 9078029 samples = 15438.8 CDDA sectors
File Size : 8.24M
Bit Rate : 320k
Sample Encoding: MPEG audio (layer I, II or III)
Comments :
Title=Ркацители
Artist=Moanhand
Album=Ркацители
Tracknumber=1
Year=2024
Genre=Sludge Metal / Stoner Metal / Black Metal / Doom Metal / Post-Metal

[/more]

Register
(8) artscald, djsema4, Grev, Piriaka_Power_Station, stumpheavyrock, VALERY, Wail, wreak,
Mar 31 2024, 17:35:05 Чёрные Часы - Звезда (2024)


*Artist: Чёрные Часы
*Album: Звезда
*Year: 2024
*Genre: Folk Metal/Celtic Rock
*Country: Russian Federation
*Format: mp3@CBR320kbps
*Size: 103MB

Tracklist:
1. Джонни
2. Эль
3. Русалка
4. История Моряка
5. Пинта
6. Бей Первым
7. Свобода
8. Звезда
9. Салливан
10. Роб Рой
11. Чёрные Часы
12. Стеклянные Бока
******************************
Total playing time: 45:11

[more=Technical info]
Input File: 01 - Джонни.mp3
Channels : 2
Sample Rate : 44100
Precision : 16-bit
Duration : 00:04:24.00 = 11642400 samples = 19800 CDDA sectors
File Size : 10.6M
Bit Rate : 320k
Sample Encoding: MPEG audio (layer I, II or III)
Comments :
Title=Джонни
Artist=Чёрные Часы
Album=Звезда
Tracknumber=1
Year=2024-03-15
Genre=Folk Metal

[/more]

Register
(18) Altkiller, apostol_13, Aresson, artscald, aviacademy, Cartman223, chipsgott, Geodude420, gwar, infozahist, Mogozoz, Prostod, talismanFS, tt2008, VALERY, Wail, Weikai, wreak,
Mar 30 2024, 10:29:34 Новости Heavy/Power металла
ADX - L'empire du crépuscule - 31 // 05 // 24



1. Les charognards 03:55
2. Tout en puissance 05:00
3. Hors contrôle 04:40
4. Légions 04:29
5. Le malgré nous 04:33
6. Paradis royal 04:38
7. Le couvent des possédées 05:22
8. Montfaucon 03:32
9. Septembriseurs 05:06
10. Paris un 13 03:31
(1) Emm Human,
Mar 30 2024, 09:47:09 Sum 41 - Heaven :x: Hell (2024)


*Artist: Sum 41
*Album: Heaven :x: Hell
*Year: 2024
*Genre: Punk Rock
*Country: Canada
*Format: mp3@CBR320kbps
*Size: 126MB

Tracklist:
1. Waiting On a Twist of Fate 02:46
2. Landmines 02:55
3. I Can't Wait 02:05
4. Time Won't Wait 02:30
5. Future Primitive 02:12
6. Dopamine 03:06
7. Not Quite Myself 02:54
8. Bad Mistake 03:03
9. Johnny Libertine 01:35
10. Radio Silence 03:23
11. Preparasi a Salire 01:08
12. Rise Up 03:16
13. Stranger In These Times 02:57
14. I Don't Need Anyone 03:10
15. Over the Edge 03:09
16. House of Liars 03:06
17. You Wanted War 03:32
18. Paint It Black 02:42
19. It's All Me 02:18
20. How the End Begins 03:16
******************************
Total playing time: 55:03

[more=Technical info]
Input File: 09 Johnny Libertine.mp3
Channels : 2
Sample Rate : 44100
Precision : 16-bit
Duration : 00:01:35.54 = 4213226 samples = 7165.35 CDDA sectors
File Size : 3.86M
Bit Rate : 323k
Sample Encoding: MPEG audio (layer I, II or III)
Comments :
Title=Johnny Libertine
Artist=Sum 41
Album=Heaven :x: Hell
Tracknumber=9
Year=2024
Genre=Punk-Rock / Pop-Punk
Discnumber=1

[/more]

Register
(6) Aresson, gwar, nemx, Occultas, Victim of fate, Wail,
Mar 30 2024, 09:40:46 Революция - Живи Сейчас (2024)


*Artist: Революция
*Album: Живи Сейчас
*Year: 2024
*Genre: Heavy/Modern Metal
*Country: Russian Federation
*Format: mp3@CBR320kbps
*Size: 114MB

Tracklist:
1. Я Не Скажу Тебе Прощай...
2. Мы (feat. Дмитрий Борисенков)
3. Звучи
4. Тайна Двух Начал (feat. Юрий Мелисов)
5. Поколение Fake
6. Зеркала
7. Революция Души
8. Выбирай
9. Навстречу Цели
10. Друзья
11. Искажение
12. Живи Сейчас
******************************
Total playing time: 50:11

[more=Technical info]
Input File: 06 - Зеркала.mp3
Channels : 2
Sample Rate : 44100
Precision : 16-bit
Duration : 00:03:52.00 = 10231200 samples = 17400 CDDA sectors
File Size : 9.29M
Bit Rate : 320k
Sample Encoding: MPEG audio (layer I, II or III)
Comments :
Title=Зеркала
Artist=Революция
Album=Живи сейчас
Tracknumber=6
Year=2024-03-29
Genre=Heavy Metal

[/more]

Register
(10) alikkon, Aresson, artscald, Bloodn Lord, gwar, infozahist, Kasper969, postal67, Wail, wreak,
Mar 30 2024, 09:34:28 Decomfront - Культуризация Оккультизма [single] (2024)


*Artist: Decomfront
*Album: Культуризация Оккультизма [single]
*Year: 2024
*Genre: Black Metal
*Country: Russian Federation
*Format: mp3@CBR320kbps
*Size: 11MB

Tracklist:
1. Культуризация Оккультизма 05:01
******************************
Total playing time: 5:01

[more=Technical info]
Input File: 01 Культуризация оккультизма.mp3
Channels : 2
Sample Rate : 44100
Precision : 16-bit
Duration : 00:05:01.75 = 13307087 samples = 22631.1 CDDA sectors
File Size : 12.1M
Bit Rate : 320k
Sample Encoding: MPEG audio (layer I, II or III)
Comments :
Title=Культуризация оккультизма
Artist=Decomfront
Tracknumber=1
Year=2024
Genre=Black Metal

[/more]

Register
(4) artscald, Occultas, Wail, wreak,
Mar 29 2024, 14:20:47 Mütiilation - Black Metal Cult (2024)
ЦИТАТА(Vidyadharov @ Mar 29 2024, 13:44:41) *
к идиотизму под названием LLN.


А в чем идиотизм ЛЛН?

ЦИТАТА
Мне так нравятся эти критики корректные. Вот что пишет Блекволл:
ЦИТАТА
Уже больше 30 лет прошло с момента рождения M., проект подарил нам много отличных и ещё столько же просто хороших релизов, но к последнему альбому на данный момент я весьма скептичен. Он неплохой, но совершенно не вяжется у меня с картиной того как следовало продолжать творческий путь. Видимо воскрешение дарит нам абсолютно новую сущность, которой ещё только предстоит разлить свой яд и продемонстрировать своё величие.
Этот пост куда то пропал 1488.gif , ща там есть пост от сегодня

https://vk.com/blackwall?w=wall-26140698_420001

ЦИТАТА

Mütiilation — Black Metal Cult (2024)

Жертва амбиций и ожиданий. Это новый полноформатный альбом от Mütiilation, что выходит всего спустя неделю после анонса о воскрешении проекта, во главе которого стоит Meyhna'ch (Suicide Circle, ex-Hell Militia, ex-Sektemtum).

Если вдруг кто-то ожидал продолжения «Sorrow Galaxies», как это, например, было сделано со вторым лонгплеем упомянутых выше Suicide Circle, то спешу разочаровать: материал выдержан совершенно в ином ключе. Он более традиционный, без какой-либо меланхолии, лишь злоба и яд, что Вилли разбрызгивает своим вокалом.

Издателем выступает лейбл Osmose Productions.
(1) Occultas,
Mar 28 2024, 16:48:09 Mütiilation - Black Metal Cult (2024)
Зерцал на КУЛЬТ gop_spb.gif

@320

Register


Register
(10) 666days, Bardo, dermarsoran, desekrator, gena, gobblin, Occultas, Ominus_Nergal, stormhatt, vasiljev_sergej,
Mar 28 2024, 16:18:15 Vorga - Beyond The Palest Star (2024)
ЦИТАТА(Bloodn Lord @ Mar 28 2024, 18:01:52) *
Да почти не строчу))
так, выборочно))


Не хватает твоих обширно-текстовых восторженных, наполненных эмоциями и эпитетами полотен-рецензий которыми ты пулял с десяточек этак лет назад. Было бы неплохо если бы ты почаще расщедривался на подобное)
(1) Bloodn Lord,
Mar 28 2024, 13:48:04 Vorga - Beyond The Palest Star (2024)
ЦИТАТА(Bloodn Lord @ Mar 28 2024, 14:10:20) *
Круть! pray.gif pray.gif pray.gif


Обложка - да!
(1) Izverg,
Mar 27 2024, 14:24:54 Сварга - Гнездо Из Костей [single] (2024)


*Artist: Сварга
*Album: Гнездо Из Костей [single]
*Year: 2024
*Genre: Pagan/Folk Metal
*Country: Russian Federation
*Format: mp3@CBR320kbps
*Size: 13MB

Tracklist:
1. Гнездо Из Костей 05:40
******************************
Total playing time: 5:40

[more=Technical info]
Input File: 01. Гнездо Из Костей.mp3
Channels : 2
Sample Rate : 44100
Precision : 16-bit
Duration : 00:05:40.46 = 15014374 samples = 25534.6 CDDA sectors
File Size : 13.6M
Bit Rate : 320k
Sample Encoding: MPEG audio (layer I, II or III)
Comments :
Title=Гнездо из костей
Artist=Сварга
Tracknumber=1
Year=2024
Genre=Folk Metal

[/more]

Register
(15) andeimon, Aresson, artscald, Cartman223, chipsgott, Druidir, Immolator, infozahist, kostja, Reverend, smysl, Surt, tt2008, Wail, wreak,
Mar 27 2024, 14:21:21 Morblack - Пришествие [ep] (2024)


*Artist: Morblack
*Album: Пришествие [ep]
*Year: 2024
*Genre: Black Metal
*Country: Russian Federation
*Format: mp3@CBR320kbps
*Size: 32MB

Tracklist:
1. Храм Истины
2. Душегуб
3. Хозяин Леса
******************************
Total playing time: 14:20

[more=Technical info]
Input File: 03. Хозяин леса.mp3
Channels : 2
Sample Rate : 44100
Precision : 16-bit
Duration : 00:06:00.06 = 15878426 samples = 27004.1 CDDA sectors
File Size : 14.4M
Bit Rate : 320k
Sample Encoding: MPEG audio (layer I, II or III)
Comments :
Title=Хозяин леса
Artist=Morblack
Album=Пришествие
Tracknumber=3
Year=2024
Genre=Black Metal

[/more]

Register
(8) artscald, cenzored, mishasha, SilentNidhogg, VALERY, vasiljev_sergej, Wail, wreak,
Mar 27 2024, 14:18:27 Культура Курения - Поцелуй/Фотографии Со Старых Телефонов [ep] (2024)


*Artist: Культура Курения
*Album: Поцелуй/Фотографии Со Старых Телефонов [ep]
*Year: 2024
*Genre: Post-Black Metal/Blackgaze/Screamo
*Country: Russian Federation
*Format: mp3@CBR320kbps
*Size: 31MB

Tracklist:
1. Поцелуй
2. Фотографии Со Старых Телефонов
******************************
Total playing time: 13:23

[more=Technical info]
Input File: 01. Поцелуй.mp3
Channels : 2
Sample Rate : 44100
Precision : 16-bit
Duration : 00:06:35.68 = 17449268 samples = 29675.6 CDDA sectors
File Size : 15.8M
Bit Rate : 320k
Sample Encoding: MPEG audio (layer I, II or III)
Comments :
Title=Поцелуй
Artist=Культура Курения
Album=Поцелуй / Фотографии Со Старых Телефонов
Tracknumber=1
Year=2024
Genre=Blackgaze

[/more]

Register
(8) aleon, Aresson, artscald, Dante_D, Prostod, vlad74, Wail, wreak,
Mar 27 2024, 14:14:40 A Pregnant Light & Культура Курения - A Pregnant Light/Культура Курения [split] (2024)


*Artist: A Pregnant Light & Культура Курения
*Album: A Pregnant Light/Культура Курения [split]
*Year: 2024
*Genre: Post-Black Metal/Blackgaze | Screamo
*Country: United States | Russian Federation
*Format: mp3@CBR320kbps
*Size: 55MB

Tracklist:
1. A Pregnant Light - Balearic House
2. A Pregnant Light - Last Night I Heard A Voice So Strange
3. Культура Курения - Поцелуй (Demo)
4. Культура Курения - Фотографии Со Старых Телефонов (Demo)
******************************
Total playing time: 24:18

[more=Technical info]
Input File: 01. A Pregnant Light - Balearic House.mp3
Channels : 2
Sample Rate : 48000
Precision : 16-bit
Duration : 00:05:38.57 = 16251408 samples ~ 25392.8 CDDA sectors
File Size : 13.5M
Bit Rate : 320k
Sample Encoding: MPEG audio (layer I, II or III)
Comments :
Title=Balearic House
Artist=A Pregnant Light
Album=Split
Tracknumber=1
Year=2024
Genre=Black Metal

[/more]

Register
(10) aleon, artscald, Condehate, Dante_D, Lanceatum, Occultas, Prostod, vasiljev_sergej, Wail, wreak,
Mar 26 2024, 14:54:36 Новости Black-направления
Furze - Caw Entrance - 05 // 04 // 24



1. Intro
2. Foresee His Infernal Rites
3. Post Mortem Trippin'
4. W.I.R.E.
5. You Shall Prevail
6. Avail the Autocraft of Evil
(3) Alucarda, Daale, thenecromancer,
Mar 26 2024, 13:54:30 Сенат - Скоро Зима (2024)
Парламент - Скоро Весна!
(2) Emm Human, kalmametallinen,
Mar 25 2024, 17:02:50 Perky Macabre - Halo [ep] (2024)
ЦИТАТА
Perky Macabre


(1) bowelled,
Mar 25 2024, 15:52:31 My Dying Bride - Turn Loose The Swans (1993)
ЦИТАТА(Terrorizer @ Mar 25 2024, 15:46:20) *
В "лебедях" много сумбура.


Сумбур есть в дебюте, дэтовая сырость, а сабж гармоничен и по минималистичному лаконичен. 1993 отличен мелодиями и атмосферой, настоящая зрелая работа.

Что же до 1999, то он на мой взгляд менее тягуче-тянучен мелодически и более мрачен настроением, чем сабж.
(1) NeonKnight,
Mar 25 2024, 14:51:53 Труп Колдуна - Древний Костолом (2022)


*Artist: Труп Колдуна
*Album: Древний Костолом
*Year: 2022
*Genre: Dungeon Synth
*Country: Kazakhstan
*Format: flac
*Size: 187MB

Tracklist:
1. Тёмный Ход 02:31
2. Солью и Морем 02:56
3. Прах и Суета 00:58
4. Логово Повелителя Мух 01:58
5. Сохнет Трава 01:58
6. Чёрная Пустошь 02:56
7. Старый Замок на Холме 02:03
8. Древний Костолом 02:55
9. Пещера Неземных Тварей 02:48
10. Пропащие 00:58
11. Рогатый Бог 03:22
******************************
Total playing time: 25:23



[more=Technical info]
Input File: 04. Логово Повелителя Мух.flac
Channels : 2
Sample Rate : 44100
Precision : 16-bit
Duration : 00:01:58.06 = 5206645 samples = 8854.84 CDDA sectors
File Size : 14.9M
Bit Rate : 1.01M
Sample Encoding: 16-bit FLAC
Comments :
ALBUM=Древний Костолом
ARTIST=Труп Колдуна / Warlock Corpse
DATE=2022-01-01
ENCODEDBY=Switch Trial Version © NCH Software
GENRE=Dungeon Synth, Blck Metal
TITLE=Логово Повелителя Мух
TRACKNUMBER=4
image_count=1

[/more]

Register
(3) VALERY, Wail, zobero,

568 Pages V  < 1 2 3 4 > » 
- Lo-Fi Version Support form
Copyrights and abuse reports form
Time is now: 23rd April 2024 - 09:37:04