Welcome Guest ( Log In | Register )

История благодарностей участнику vasilisk ::: Спасибо сказали: 10412 раз(а)
Дата поста: В теме: За сообщение: Спасибо сказали:
Aug 3 2022, 10:38:32 Mamaev Kurgan - Destruction That Wasteth At Noonday (2022)


*Artist: Mamaev Kurgan
*Album: Destruction That Wasteth At Noonday
*Year: 2022
*Genre: Blackened Death Metal
*Country: Italy
*Format: mp3@CBR320kbps
*Size: 99MB

Tracklist:
01. Stormwatcher 05:36
02. Liberator 04:26
03. Schwarze Materie 06:27
04. Descend Into Misery 07:31
05. Divine Retribution 05:24
06. Holod 04:41
07. The Call 08:36
******************************
Total playing time: 42:41

[more=Technical info]
Input File: 03 - Schwarze Materie.mp3
Channels : 2
Sample Rate : 44100
Precision : 16-bit
Duration : 00:06:26.00 = 17022600 samples = 28950 CDDA sectors
File Size : 15.5M
Bit Rate : 322k
Sample Encoding: MPEG audio (layer I, II or III)
Comments :
Title=Schwarze Materie
Artist=Mamaev Kurgan
Album=Destruction That Wasteth At Noonday
Tracknumber=3
Year=2022-08-03
Genre=Metal
Discnumber=1

[/more]

Register
(14) AlexSmith, Altkiller, artscald, caro, dermarsoran, Mencae77, metala, Orgasmik, Papych, SadistikSlayer, supremo, VALERY, vyacheslav, wanderer73,
Jul 23 2022, 20:00:34 Dressed In Streams - लड़ाई का मैदान [ep] (2022)


*Artist: Dressed In Streams
*Album: लड़ाई का मैदान [ep]
*Year: 2022
*Genre: Black Metal
*Country: United States
*Format: mp3@CBR320kbps
*Size: 49MB

Tracklist:
01. The Queen of Awadh Addresses Her Fighters from an Elephant on the Battlefield 10:30
02. Lucknow Siege (I Will Not Bite This Greased Cartridge) 10:19
******************************
Total playing time: 20:49

[more=Technical info]
Input File: 02 - Lucknow Siege (I Will Not Bite This Greased Cartridge).mp3
Channels : 2
Sample Rate : 44100
Precision : 16-bit
Duration : 00:10:19.00 = 27297900 samples = 46425 CDDA sectors
File Size : 25.0M
Bit Rate : 323k
Sample Encoding: MPEG audio (layer I, II or III)
Comments :
Title=Lucknow Siege (I Will Not Bite This Greased Cartridge)
Artist=Dressed In Streams
Album=लड़ाई का मैदान
Tracknumber=2
Year=2022-07-22
Genre=Metal
Discnumber=1

[/more]

Register
(4) abob, artscald, kim666, stormhatt,
Jun 30 2022, 13:49:00 Новости Death Metal направления
BLOODBATH выпустят новую работу, получившую название "Survival Of The Sickest", девятого сентября
Трек-лист:

01. Zombie Inferno
02. Putrefying Corpse
03. Dead Parade
04. Malignant Maggot Therapy
05. Carved
06. Born Infernal
07. To Die
08. Affliction Of Extinction
09. Tales Of Melting Flesh
10. Environcide
11. No God Before Me
[youtube]QlDMQZYNoFU[/youtube]
(6) 6666666, Chasm, Decapitated, Emm Human, METALHUNTER, SatanicPanzer,
Jun 24 2022, 11:08:40 Totensucht - Trimurti (2022)


*Artist: Totensucht
*Album: Trimurti
*Year: 2022
*Genre: Atmospheric Black Metal
*Country: Germany
*Format: mp3@CBR320kbps
*Size: 126MB

Tracklist:
01. The Beginning 02:44
02. Shiva (Hammer of Destruction) 06:49
03. Gates of Compensation 05:47
04. Where the Wind blows 06:35
05. Invocation 03:19
06. Vishnu (Wings of Preservation) (07:02
07. Seven Suns to turn away 06:45
08. Embraced by Fire 05:59
09. Brahma (Claws of Creation) 09:01
******************************
Total playing time: 54:01

[more=Technical info]
Input File: 02 - Shiva (Hammer of Destruction).mp3
Channels : 2
Sample Rate : 44100
Precision : 16-bit
Duration : 00:06:48.00 = 17992800 samples = 30600 CDDA sectors
File Size : 16.6M
Bit Rate : 325k
Sample Encoding: MPEG audio (layer I, II or III)
Comments :
Title=Shiva (Hammer of Destruction)
Artist=Totensucht
Album=Trimurti
Tracknumber=2
Year=2022-06-24
Genre=Metal
Discnumber=1

[/more]

Register
(27) aleon, AlexSmith, alikkon, Altkiller, artscald, Carcharoth, caro, khestanow3001, kim666, metala, metaljosue, Mogozoz, nospeedlimit, oldvarg, Olethros, Olrak, robertho777, sergsazan, Shadechaser, SilentNidhogg, stormhatt, supremo, tim47, VALERY, vasiljev_sergej, wreak, yinchanghanhuang,
Jun 9 2022, 14:22:57 Kreator - Hate Über Alles (2022)
Лично я остался доволен ,после прослушивания альбома 20.gif
(1) Phlebotomized,
Jun 8 2022, 09:20:28 Новости Black-направления (2) Nerevar, Occultas,
Jun 6 2022, 13:49:40 Xasthur - Subliminal Genocide (Promo) [demo] (2005)
VASN, Ссылка выше ,рабочая
(1) Occultas,
May 28 2022, 17:31:11 Skognatt - The Swarm [ep] (2022)


*Artist: Skognatt
*Album: The Swarm [ep]
*Year: 2022
*Genre: Atmospheric Black Metal
*Country: Germany
*Format: mp3@CBR320kbps
*Size: 39MB

Tracklist:
01. Volcano 06:17
02. The Swarm 05:53
03. Tornado 04:33
******************************
Total playing time: 16:43

[more=Technical info]
Input File: 02 - The Swarm.mp3
Channels : 2
Sample Rate : 44100
Precision : 16-bit
Duration : 00:05:53.00 = 15567300 samples = 26475 CDDA sectors
File Size : 14.3M
Bit Rate : 324k
Sample Encoding: MPEG audio (layer I, II or III)
Comments :
Title=The Swarm
Artist=Skognatt
Album=The Swarm
Tracknumber=2
Year=2022-03-30
Genre=Metal
Discnumber=1

[/more]

Register
(26) Altkiller, artscald, caro, csgmnk, Dante_D, dermarsoran, doomTemplar, GorAtheist, gryphon666, kim666, maochen, Marek, Olethros, Olrak, Razorbladeswaltz, sergsazan, Shadechaser, SilentNidhogg, sludge666, stormhatt, thenecromancer, VALERY, varlam4, vasiljev_sergej, WOLAND, wreak,
May 20 2022, 10:29:32 Mutiara Damansara - Annual Winter Depression [ep] (2022)


*Artist: Mutiara Damansara
*Album: Annual Winter Depression [ep]
*Year: 2022
*Genre: Post-Black Metal/Shoegaze
*Country: France
*Format: mp3@CBR320kbps
*Size: 80MB

Tracklist:
01. Annual Winter Depression 07:58
02. Réminiscences 06:24
03. Laura Palmer's Spiritual Brother 07:40
04. Farewell 06:10
05. Obscured 06:30
******************************
Total playing time: 34:42

[more=Technical info]
Input File: 03 - Laura Palmer\'s Spiritual Brother.mp3
Channels : 2
Sample Rate : 44100
Precision : 16-bit
Duration : 00:07:40.10 = 20290278 samples = 34507.3 CDDA sectors
File Size : 18.5M
Bit Rate : 322k
Sample Encoding: MPEG audio (layer I, II or III)
Comments :
Title=Laura Palmer's Spiritual Brother
Artist=Mutiara Damansara
Album=Annual Winter Depression
Tracknumber=3
Year=2022
Discnumber=1/1

[/more]

Register
(17) aleon, AlexSmith, artscald, Buregon, caro, chromeskull88, Dante_D, dermarsoran, gena, kim666, nemx, Olethros, popen13, robertho777, stormhatt, WOLAND, wreak,
May 19 2022, 09:22:16 Shock Metamorphism - Work And Days (2022)


*Artist: Shock Metamorphism
*Album: Work And Days
*Year: 2022
*Genre: Sludge/Black Metal
*Country: Austria
*Format: mp3@CBR320kbps
*Size: 99MB

Tracklist:
01. A Drop to Spill Over 04:01
02. Borromean Rings 05:54
03. Decadence and the Cure 02:47
04. Oh Penthesilea! 04:53
05. A Serving Suggestion 03:45
06. Work and Days 06:30
07. Falling Action 03:06
08. Revaluation 04:31
09. In Becoming 05:13
******************************
Total playing time: 40:40

[more=Technical info]
Input File: Shock Metamorphism - Work and Days - 04 Oh Penthesilea!.mp3
Channels : 2
Sample Rate : 44100
Precision : 16-bit
Duration : 00:04:53.71 = 12952611 samples = 22028.2 CDDA sectors
File Size : 11.9M
Bit Rate : 325k
Sample Encoding: MPEG audio (layer I, II or III)
Comments :
Title=Oh Penthesilea!
Artist=Shock Metamorphism
Album=Work and Days
Tracknumber=4
Year=2022

[/more]

Register
(12) AlexSmith, artscald, caro, nemx, Occultas, Olethros, robertho777, stormhatt, supremo, VALERY, vlad74, wreak,
May 3 2022, 10:25:53 Lurker In Light - Acumen Of Joyful Sorrow (2022)


*Artist: Lurker In Light
*Album: Acumen Of Joyful Sorrow
*Year: 2022
*Genre: Melodic Death/Pagan Metal
*Country: Romania
*Format: mp3@CBR320kbps
*Size: 65MB

Tracklist:
01. The Stoneweaver 03:44
02. Defaced 04:55
03. Actuality 04:14
04. Set Sail 04:43
05. Corrosion of Fate 05:07
06. Acumen of Joyful Sorrow 05:17
******************************
Total playing time: 28:00

[more=Technical info]
Input File: 04 - Set Sail.mp3
Channels : 2
Sample Rate : 44100
Precision : 16-bit
Duration : 00:04:43.00 = 12480300 samples = 21225 CDDA sectors
File Size : 11.5M
Bit Rate : 324k
Sample Encoding: MPEG audio (layer I, II or III)
Comments :
Title=Set Sail
Artist=Lurker in Light
Album=Acumen of Joyful Sorrow
Tracknumber=4
Year=2022-05-01
Genre=Metal
Discnumber=1

[/more]

Register
(15) Altkiller, artscald, BugEyes, caro, csgmnk, Dante_D, gwynnbleid, infozahist, Mogozoz, Olethros, sergsazan, supremo, talismanFS, VALERY, wreak,
Apr 29 2022, 19:18:54 Teufelsberg - Ordre Du Diable (2022)


*Artist: Teufelsberg
*Album: Ordre Du Diable
*Year: 2022
*Genre: Black Metal
*Country: Poland
*Format: mp3@CBR320kbps
*Size: 80MB

Tracklist:
01. Devil's Praetorians 06:25
02. Malign Incantation 04:14
03. Procession of Dying Cherubs 04:20
04. In the Glare of Funeral Moon 05:31
05. Fiat Luceat Lux 06:31
06. Teufelsberg 07:04
******************************
Total playing time: 34:05

[more=Technical info]
Input File: 03 - Procession of dying cherubs.mp3
Channels : 2
Sample Rate : 44100
Precision : 16-bit
Duration : 00:04:19.00 = 11421900 samples = 19425 CDDA sectors
File Size : 10.6M
Bit Rate : 327k
Sample Encoding: MPEG audio (layer I, II or III)
Comments :
Title=Procession of dying cherubs
Artist=Teufelsberg
Album=Ordre Du Diable
Tracknumber=3
Year=2022-04-30
Genre=Metal
Discnumber=1

[/more]

Register
(32) Alexis The Best, AlexSmith, alikkon, artscald, Boozer, Carcharoth, caro, Cyrci, dermarsoran, Fallen Soul, fuoco, Ildjarn, judaz, kim666, Marek, MMMMM, multizwilling, obituarydark, Olethros, robertho777, sacrut, SilentNidhogg, Storky, stormhatt, supremo, VALERY, varlam4, vasiljev_sergej, vov7609, Wail, WOLAND, wreak,
Apr 29 2022, 10:36:09 Au-Dessus - Mend [ep] (2022)


*Artist: Au-Dessus
*Album: Mend [ep]
*Year: 2022
*Genre: Post-Black Metal
*Country: Lithuania
*Format: mp3@CBR320kbps
*Size: 59MB

Tracklist:
01. Negation I 03:50
02. Negation II 05:09
03. Lethargy 04:32
04. Epiphany 06:48
05. Alienation 05:08
******************************
Total playing time: 25:27

[more=Technical info]
Input File: 02 - Negation II.mp3
Channels : 2
Sample Rate : 44100
Precision : 16-bit
Duration : 00:05:09.00 = 13626900 samples = 23175 CDDA sectors
File Size : 12.4M
Bit Rate : 322k
Sample Encoding: MPEG audio (layer I, II or III)
Comments :
Title=Negation II
Artist=AU Dessus
Album=Mend
Tracknumber=2
Year=2022-04-29
Genre=Metal
Discnumber=1

[/more]

Register
(26) artscald, as71, caro, Dante_D, demogogron, dermarsoran, doomTemplar, Femto, garml2, GorAtheist, kim666, Mencae77, murian, nemx, Orphan, Shadechaser, SilentNidhogg, smes, stormhatt, VALERY, varlam4, vasiljev_sergej, Wail, wreak, yuratroll, Авел,
Apr 26 2022, 13:44:01 Decalius - Exiled In The Dark (2022)


*Artist: Decalius
*Album: Exiled In The Dark
*Year: 2022
*Genre: Depressive Black Metal
*Country: United States
*Format: mp3@CBR320kbps
*Size: 102MB

Tracklist:
01. The Lonely 07:30
02. Tortured 05:03
03. My Miserable Existence 05:47
04. Misanthropy 06:13
05. My Self-Destruction 03:56
06. The Darkness Inside My Mind 04:09
07. The Void Where I Am 03:29
08. Lifeless 06:47
09. Exiled In The Dark 01:23
******************************
Total playing time: 44:17

[more=Technical info]
Input File: 04 - Misanthropy.mp3
Channels : 2
Sample Rate : 44100
Precision : 16-bit
Duration : 00:06:12.58 = 16430866 samples = 27943.6 CDDA sectors
File Size : 14.9M
Bit Rate : 321k
Sample Encoding: MPEG audio (layer I, II or III)
Comments :
Title=Misanthropy
Artist=Decalius
Album=Exiled In The Dark
Tracknumber=4
Year=2022
Discnumber=1/1

[/more]

Register
(9) aleon, artscald, Danilodanilo, Dante_D, kim666, metala, Olethros, varlam4, vasiljev_sergej,
Apr 25 2022, 15:19:42 My Useless Life - Bittersweet Agon (2022)


*Artist: My Useless Life
*Album: Bittersweet Agon
*Year: 2022
*Genre: Depressive Black Metal
*Country: United States
*Format: mp3@CBR320kbps
*Size: 78MB

Tracklist:
01. A Desolate Heart 05:50
02. Locked Out 05:32
03. Beyond the Stars 06:28
04. Bittersweet Agony 07:09
05. End of the Tunnel 05:24
06. DГёd III 03:16
******************************
Total playing time: 33:39

[more=Technical info]
Input File: 03 - Beyond the Stars.mp3
Channels : 2
Sample Rate : 44100
Precision : 16-bit
Duration : 00:06:28.00 = 17110800 samples = 29100 CDDA sectors
File Size : 15.7M
Bit Rate : 323k
Sample Encoding: MPEG audio (layer I, II or III)
Comments :
Title=Beyond the Stars
Artist=My Useless Life
Album=Bittersweet Agony
Tracknumber=3
Year=2022-04-24
Genre=Alternative
Discnumber=1

[/more]

Register
(33) aleon, AlexSmith, apries, artscald, caro, Farfarello, Femto, infernallord, kefka, kim666, kimkayoung, libertine, metala, murian, Musta Kuu, OldY, Olethros, Reverend, robertho777, SatanicPanzer, SilentNidhogg, stormhatt, supremo, Teshub, Tyrone, Unscarted, VALERY, varlam4, vasiljev_sergej, vlad74, volostakoeto, wreak, yuratroll,
Feb 17 2022, 08:58:29 Новости DOOM Metal
[youtube]Ctmfn7fnfP8[/youtube]
(1) thenecromancer,
Feb 10 2022, 14:43:05 Release The River - Spirit Corrupt [ep] (2022)


*Artist: Release The River
*Album: Spirit Corrupt [ep]
*Year: 2022
*Genre: Blackened Death Metal/Deathcore
*Country: Netherlands
*Format: mp3@CBR320kbps
*Size: 56MB

Tracklist:
01. Spiritual Poison 03:41
02. Prometheus 05:04
03. River of Sorrow 03:27
04. Behold the Skygazer 04:23
05. Wide Eyed Worshipper 07:10
******************************
Total playing time: 23:45

[more=Technical info]
Input File: 02 - Prometheus.mp3
Channels : 2
Sample Rate : 44100
Precision : 16-bit
Duration : 00:05:04.16 = 13413588 samples = 22812.2 CDDA sectors
File Size : 12.3M
Bit Rate : 324k
Sample Encoding: MPEG audio (layer I, II or III)
Comments :
Title=Prometheus
Artist=Release the River
Album=Spirit Corrupt
Tracknumber=2
Year=2022
Discnumber=1/1

[/more]

Register
(8) artscald, caro, Dante_D, GorAtheist, john73, Marek, Olethros, wreak,
Feb 6 2022, 20:02:54 Новости Thrash Metal направления
DESTRUCTION 8 апреля
"Under The Spell"
"Diabolical"
"No Faith In Humanity"
"Repent Your Sins"
"Hope Dies Last"
"The Last Of A Dying Breed"
"State Of Apathy"
"Tormented Soul"
"Servant Of The Beast"
"The Lonely Wolf"
"Ghost From The Past"
"Whorefication"
"City Baby Attacked By Rats"
(2) avather, Emm Human,
Feb 5 2022, 09:53:37 Urban Nightmare - Memories (2022)


*Artist: Urban Nightmare
*Album: Memories
*Year: 2022
*Genre: Post-Black Metal
*Country: Colombia
*Format: mp3@CBR320kbps
*Size: 96MB

Tracklist:
01. Thoughts of a Quiet Moment 05:14
02. Cold Days 04:04
03. One Morning with Joy 05:34
04. Moments That Will Never Return 06:53
05. A Place That Means All for Me 03:57
06. With Stress and Looking at Nothing 05:46
07. The Last Disappointment 04:08
08. City Lights 03:48
******************************
Total playing time: 39:24

[more=Technical info]
Input File: Urban Nightmare - Memories - 04 Moments that will never return.mp3
Channels : 2
Sample Rate : 44100
Precision : 16-bit
Duration : 00:06:53.15 = 18219871 samples = 30986.2 CDDA sectors
File Size : 16.7M
Bit Rate : 322k
Sample Encoding: MPEG audio (layer I, II or III)
Comments :
Title=Moments that will never return
Artist=Urban Nightmare
Album=Memories
Tracknumber=4
Year=2022

[/more]

Register
(16) aleon, AlexSmith, artscald, bOOLty, Carcharoth, caro, kim666, Olethros, robertho777, SilentNidhogg, stormhatt, supremo, Taakeferd, VALERY, vasiljev_sergej, wreak,
Feb 4 2022, 10:43:08 Новости Folk/Pagan/Viking (4) avather, Mihalik, RUDACHUR, stone88,
Jan 27 2022, 14:12:52 Aegrus - The Carnal Temples [ep] (2022)


*Artist: Aegrus
*Album: The Carnal Temples [ep]
*Year: 2022
*Genre: Black Metal
*Country: Finland
*Format: mp3@CBR320kbps
*Size: 61MB

Tracklist:
01. The Carnal Temples 06:13
02. In Death Rapture 06:32
03. Moonlit Coffinspirit 06:04
04. Flesh and Blood 06:57
******************************
Total playing time: 25:46

[more=Technical info]
Input File: 02 - In Death Rapture.mp3
Channels : 2
Sample Rate : 44100
Precision : 16-bit
Duration : 00:06:32.00 = 17287200 samples = 29400 CDDA sectors
File Size : 15.9M
Bit Rate : 325k
Sample Encoding: MPEG audio (layer I, II or III)
Comments :
Title=In Death Rapture
Artist=Aegrus
Album=The Carnal Temples
Tracknumber=2
Year=2022-01-28
Genre=Rock
Discnumber=1

[/more]

Register
(39) andivi, AnthonyHipHopkins, artscald, Bekkerev, Bzth, caro, Hell_Is_Here, Hexer, Ildjarn, isvili, judaz, kim666, LEGION69, Lucifer1366613, Lucju, MadCarrot, madera, Marek, Mencae77, milosdjor, MorsPulchra, multizwilling, murian, NachtWulf, nemx, Olethros, rimfrost, robertho777, SilentNidhogg, smes, stormhatt, Taakeferd, THROWER666, VALERY, varlam4, vasiljev_sergej, Victim of fate, Vidder242, wreak,
Jan 11 2022, 13:26:40 Новости DOOM Metal
TRISTITIADoomystic"
Трек-лист:

01. The Withering
02. Doomystic
03. The Crosses
04. Witches Dawn
05. Frozen Solitude In The Coven Of Witches
06. Where Flowers Wither
07. Medievil Crucidiction
08. Moon Ghost
09. The Other Side
(3) kostja, Lux, thenecromancer,
Dec 20 2021, 10:18:58 Angr - I (2021)


*Artist: Angr
*Album: I
*Year: 2021
*Genre: Blackened Death Metal
*Country: International
*Format: mp3@CBR320kbps
*Size: 107MB

Tracklist:
01. Ymir 13:30
02. Restless god 07:54
03. Light of black flame 07:23
04. Hesychasm 09:06
05. Epiclesis Apocalypsis 07:54
******************************
Total playing time: 45:47

[more=Technical info]
Input File: 03. Light of black flame.mp3
Channels : 2
Sample Rate : 44100
Precision : 16-bit
Duration : 00:07:23.04 = 19537976 samples = 33227.9 CDDA sectors
File Size : 17.8M
Bit Rate : 322k
Sample Encoding: MPEG audio (layer I, II or III)
Comments :
Title=Light of black flame
Artist=ANGR
Album=I
Tracknumber=3
Year=2021
Discnumber=1

[/more]

Register
(13) artscald, caro, korovakaska, Marek, Olethros, robertho777, supremo, SyncestrA, VALERY, varlam4, vov7609, vyacheslav, wreak,
Dec 11 2021, 09:35:37 Новости Brutal Death Metal и Grind(core) направлений
NAPALM DEATH 11 февраля
Трек-лист:

01. Narcissus

02. Resentment Always Simmers

03. By Proxy

04. People Pie (SLAB! cover)

05. Man Bites Dogged

06. Slaver Through A Repeat Performance

07. Don't Need It (BAD BRAINS cover)

08. Resentment Is Always Seismic (Dark Sky Burial Dirge)
[youtube]qI8TS-hXF-8[/youtube]
(2) Chasm, Occultas,
Dec 7 2021, 10:08:37 Darker Sun - Adumbrated (2021)


*Artist: Darker Sun
*Album: Adumbrated
*Year: 2021
*Genre: Atmospheric Black/Doom Metal
*Country: Slovakia
*Format: mp3@CBR320kbps
*Size: 85MB

Tracklist:
01. Olympus Mons 02:56
02. The Gradual Retreat from Certainity 03:58
03. Adumbrated 03:57
04. Millenial Anxiety 03:51
05. The Nethermost Angles of Cosmic Dawn 04:35
06. Reionization 04:08
07. When Forever is Now 05:37
08. Journey 03:10
09. Yawning Sea 04:14
******************************
Total playing time: 36:26

[more=Technical info]
Input File: 03 - Adumbrated.mp3
Channels : 2
Sample Rate : 44100
Precision : 16-bit
Duration : 00:03:57.60 = 10478160 samples = 17820 CDDA sectors
File Size : 9.67M
Bit Rate : 326k
Sample Encoding: MPEG audio (layer I, II or III)
Comments :
Title=Adumbrated
Artist=Darker Sun
Album=Adumbrated
Tracknumber=3
Year=2021
Discnumber=1/1

[/more]

Register
(30) aleon, AlexSmith, artscald, caro, CheCoola, denver, gav-gafi, HMHamster, Ice Gnoll, infozahist, Ludwig Hagen, Mannard, metala, Metalass, Old Vyaine, oldvarg, Olethros, postal67, randumbum, robertho777, russ777, sergsazan, Shadechaser, supremo, Taakeferd, VALERY, varlam4, vasiljev_sergej, Wail, wreak,

58 Pages V   1 2 3 > » 
- Lo-Fi Version Support form
Copyrights and abuse reports form
Time is now: 14th August 2022 - 02:16:20