Welcome Guest ( Log In | Register )

История благодарностей участнику vasilisk ::: Спасибо сказали: 13484 раз(а)
Дата поста: В теме: За сообщение: Спасибо сказали:
Yesterday, 19:04:34 Theragon - Lumina [ep] (2024)


*Artist: Theragon
*Album: Lumina [ep]
*Year: 2024
*Genre: Power Metal
*Country: Spain
*Format: mp3@CBR320kbps
*Size: 50MB

Tracklist:
01. Heartbound 04:22
02. The Bird That Cannot Fly 06:17
03. We All Are One 04:54
04. In Valentia 05:16
******************************
Total playing time: 20:49

[more=Technical info]
Input File: 03 - We All Are One.mp3
Channels : 2
Sample Rate : 44100
Precision : 16-bit
Duration : 00:04:54.00 = 12965400 samples = 22050 CDDA sectors
File Size : 12.1M
Bit Rate : 331k
Sample Encoding: MPEG audio (layer I, II or III)
Comments :
Title=We All Are One
Artist=Theragon
Album=Lumina
Tracknumber=3
Year=2024-02-23
Genre=Metal
Discnumber=1

[/more]

Register
(6) artscald, boby9052, infozahist, Marek, sergsazan, Wail,
Yesterday, 15:24:50 Cycleam - Dream Cycle (2024)


*Artist: Cycleam
*Album: Dream Cycle
*Year: 2024
*Genre: Thrash Metal
*Country: France
*Format: mp3@CBR320kbps
*Size: 99MB

Tracklist:
01. Close Your Eyes 01:45
02. Followers of Light 05:30
03. Dream Cycle 04:34
04. Human Stupidity 03:29
05. Dawn of the Last Day 05:30
06. Wanderer of Dreams 04:00
07. From Beyond 03:45
08. Rebirth 04:28
09. Nameless City 04:10
10. Watchtower 04:11
******************************
Total playing time: 41:22

[more=Technical info]
Input File: 09 - Nameless City.mp3
Channels : 2
Sample Rate : 44100
Precision : 16-bit
Duration : 00:04:10.00 = 11025000 samples = 18750 CDDA sectors
File Size : 10.3M
Bit Rate : 330k
Sample Encoding: MPEG audio (layer I, II or III)
Comments :
Title=Nameless City
Artist=Cycleam
Album=Dream Cycle
Tracknumber=9
Year=2024-02-24
Genre=Metal
Discnumber=1

[/more]

Register
(8) amiroo, artscald, boby9052, infozahist, Marek, metala, sergsazan, stumpheavyrock,
Yesterday, 15:02:10 Новости Black-направления
Вы ещё подеритесь poke_g.gif
(1) Daale,
Feb 20 2024, 17:15:48 Новости направления MBM| Symphonic Black Metal| Post-BM
[youtube]Y9mBomOM-rQ[/youtube]
(2) Occultas, Old Vyaine,
Feb 9 2024, 16:13:49 Blasphemize - Anti God (2024)


*Artist: Blasphemize
*Album: Anti God
*Year: 2024
*Genre: Black Metal
*Country: Sweden
*Format: mp3@CBR320kbps
*Size: 101MB

Tracklist:
01. Enter Silence 05:28
02. Anti God 04:34
03. Down 03:31
04. Exodus 04:42
05. Northern Sky 03:09
06. Key to Greed 07:28
07. Shift 03:12
08. Soil 03:51
09. My Soul's Grave 06:14
******************************
Total playing time: 42:09

[more=Technical info]
Input File: 06 - Key to Greed.mp3
Channels : 2
Sample Rate : 44100
Precision : 16-bit
Duration : 00:07:28.00 = 19756800 samples = 33600 CDDA sectors
File Size : 18.4M
Bit Rate : 328k
Sample Encoding: MPEG audio (layer I, II or III)
Comments :
Title=Key to Greed
Artist=Blasphemize
Album=Anti God
Tracknumber=6
Year=2024-02-09
Genre=Металл
Discnumber=1

[/more]

Register
(17) 666days, AlexSmith, Altkiller, artscald, Bzth, dermarsoran, kim666, mishasha, nemx, Rover, SilentNidhogg, smes, supremo, VALERY, vasiljev_sergej, vov7609, Zer0,
Feb 7 2024, 11:37:39 Doncryus - Doncryus [ep] (2024)


*Artist: Doncryus
*Album: Doncryus [ep]
*Year: 2024
*Genre: Symphonic Progressive Metal
*Country: United States
*Format: mp3@CBR320kbps
*Size: 61MB

Tracklist:
01. Rise or Fall 05:56
02. Out of Time 07:48
03. The Call 05:40
04. When The Candle Burns 06:00
******************************
Total playing time: 25:24

[more=Technical info]
Input File: 04 - When The Candle Burns.mp3
Channels : 2
Sample Rate : 44100
Precision : 16-bit
Duration : 00:06:00.00 = 15876000 samples = 27000 CDDA sectors
File Size : 14.8M
Bit Rate : 329k
Sample Encoding: MPEG audio (layer I, II or III)
Comments :
Title=When The Candle Burns
Artist=Doncryus
Album=Doncryus
Tracknumber=4
Year=2024-02-07
Genre=Металл
Discnumber=1

[/more]

Register
(10) 747metaller, after21allD, artscald, Cartman223, chipsgott, hellraiser69, infozahist, metala, Mogozoz, Weikai,
Feb 5 2024, 16:05:23 Desir De Mourir - Collapsing Universes (2024)


*Artist: Desir De Mourir
*Album: Collapsing Universes
*Year: 2024
*Genre: Atmospheric Black Metal
*Country: Germany
*Format: mp3@CBR320kbps
*Size: 128MB

Tracklist:
01. Tortured I 01:49
02. Obsessive Disorder 06:12
03. Alienation from Yourself 04:42
04. War at the Catalaunian Fields 03:43
05. Collapsing Universes 06:28
06. Tortured II 01:33
07. Nihilist Decision 10:32
08. Zwangsgedanken 14:10
09. Cyclones 05:42
******************************
Total playing time: 54:51

[more=Technical info]
Input File: 05 - Collapsing Universes.mp3
Channels : 2
Sample Rate : 44100
Precision : 16-bit
Duration : 00:06:28.00 = 17110800 samples = 29100 CDDA sectors
File Size : 15.8M
Bit Rate : 326k
Sample Encoding: MPEG audio (layer I, II or III)
Comments :
Title=Collapsing Universes
Artist=Desir de Mourir
Album=Collapsing Universes
Tracknumber=5
Year=2024-02-02
Genre=Металл
Discnumber=1

[/more]

Register
(21) aleon, AlexSmith, Altkiller, artscald, Carcharoth, CuRSeD, kim666, MMMMM, Mogozoz, nemx, Olrak, Rover, sacrut, Sanctus, sergsazan, SilentNidhogg, supremo, Tyrone, VALERY, vasiljev_sergej, Weikai,
Feb 2 2024, 17:13:40 Новости направления MDM
[youtube]RaescU2M0Mw[/youtube]
(4) 6666666, Emm Human, LuryL, Mihalik,
Jan 26 2024, 16:58:25 Vanessa Funke - Lament [ep] (2024)


*Artist: Vanessa Funke
*Album: Lament [ep]
*Year: 2024
*Genre: Melodic Death/Gothic Metal
*Country: Germany
*Format: mp3@CBR320kbps
*Size: 35MB

Tracklist:
01. Will the Sun Rise 05:19
02. Wind of Time 04:04
03. Void 04:58
******************************
Total playing time: 14:21

[more=Extended info][/more]

[more=Technical info]
Input File: 02 - Wind of Time.mp3
Channels : 2
Sample Rate : 44100
Precision : 16-bit
Duration : 00:04:04.00 = 10760400 samples = 18300 CDDA sectors
File Size : 10.2M
Bit Rate : 334k
Sample Encoding: MPEG audio (layer I, II or III)
Comments :
Title=Wind of Time
Artist=Vanessa Funke
Album=Lament
Tracknumber=2
Year=2024-01-26
Genre=Металл
Discnumber=1

[/more]

Register
(14) aleon, artscald, Cartman223, chipsgott, HMHamster, marraz, oldvarg, quarantine, sergsazan, TeamatSE, VALERY, Weikai, wreak, zhol,
Jan 23 2024, 09:17:05 Monstrum Magnus - Tabula Rasa (2024)


*Artist: Monstrum Magnus
*Album: Tabula Rasa
*Year: 2024
*Genre: Progressive Death Metal
*Country: Argentina
*Format: mp3@CBR320kbps
*Size: 138MB

Tracklist:
01. Las Murallas E Babel 04:25
02. Semper Fidelis 04:17
03. Prometeo 04:20
04. La Muerte Helada 05:22
05. La Marcha De Los Naugrim 05:35
06. Disforia 05:29
07. Regicidio 04:19
08. La Octava Fosa 02:24
09. Homine 06:01
10. Niebla 06:26
11. Tras Las Puertas Del Hades 04:41
12. Un Lugar a Donde Ir 06:06
******************************
Total playing time: 59:25

[more=Technical info]
Input File: 12 - Un Lugar a Donde Ir.mp3
Channels : 2
Sample Rate : 44100
Precision : 16-bit
Duration : 00:06:06.00 = 16140600 samples = 27450 CDDA sectors
File Size : 14.8M
Bit Rate : 324k
Sample Encoding: MPEG audio (layer I, II or III)
Comments :
Title=Un Lugar a Donde Ir
Artist=Monstrum Magnus
Album=Tabula Rasa
Tracknumber=12
Year=2024-01-15
Genre=Металл
Discnumber=1

[/more]

Register
(10) alikkon, AndreFrancis, artscald, chipsgott, LiarOfAngmar, metala, stumpheavyrock, VALERY, vyacheslav, wreak,
Jan 20 2024, 10:34:14 Egribor - Neurossicism [ep] (2024)


*Artist: Egribor
*Album: Neurossicism [ep]
*Year: 2024
*Genre: Black Metal
*Country: France
*Format: mp3@CBR320kbps
*Size: 62MB

Tracklist:
01. Drowning Sailor 07:23
02. The Last Crusade 05:12
03. Old Tower Bell 06:40
04. Triumph of Sisyphus 07:18
******************************
Total playing time: 26:33

[more=Technical info]
Input File: 04 - Triumph of Sisyphus.mp3
Channels : 2
Sample Rate : 44100
Precision : 16-bit
Duration : 00:07:18.00 = 19315800 samples = 32850 CDDA sectors
File Size : 17.8M
Bit Rate : 324k
Sample Encoding: MPEG audio (layer I, II or III)
Comments :
Title=Triumph of Sisyphus
Artist=Egribor
Album=Neurossicism
Tracknumber=4
Year=2024-01-19
Genre=Рок/Металл
Discnumber=1

[/more]

Register
(13) AlexSmith, Altkiller, artscald, Condehate, dermarsoran, kim666, SilentNidhogg, stormhatt, supremo, VALERY, vasiljev_sergej, Weikai, wreak,
Jan 19 2024, 09:51:59 Of Grace - Of Grace [single] (2024)


*Artist: Of Grace
*Album: Of Grace [single]
*Year: 2024
*Genre: Progressive Death/Doom Metal
*Country: United States
*Format: mp3@CBR320kbps
*Size: 39MB

Tracklist:
01. Waste Of Air 04:57
02. From The Sun 06:20
03. Destined 05:03
******************************
Total playing time: 16:20

[more=Technical info]
Input File: 01 - Waste Of Air.mp3
Channels : 2
Sample Rate : 44100
Precision : 16-bit
Duration : 00:04:57.00 = 13097700 samples = 22275 CDDA sectors
File Size : 12.2M
Bit Rate : 329k
Sample Encoding: MPEG audio (layer I, II or III)
Comments :
Title=Waste Of Air
Artist=Of Grace
Album=Of Grace
Tracknumber=1
Year=2024-01-13
Genre=Металл
Discnumber=1

[/more]

Register
(11) AndreFrancis, artscald, chipsgott, Grev, infozahist, lacrimoza, quarantine, stumpheavyrock, vyacheslav, Weikai, wreak,
Jan 18 2024, 09:36:13 Dusk - Dark City Underdogs (2024)


*Artist: Dusk
*Album: Dark City Underdogs
*Year: 2024
*Genre: Black/Doom Metal
*Country: Italy
*Format: mp3@CBR320kbps
*Size: 95MB

Tracklist:
01. All In Vain 05:58
02. Desolate Industrial Landscape 06:36
03. Night Eternal 07:29
04. Fell Apart (Life Is A Failure) 06:56
05. Natural Beauty 04:58
06. Invisible Enemy 09:12
******************************
Total playing time: 41:09

[more=Technical info]
Input File: 3. Night Eternal.mp3
Channels : 2
Sample Rate : 44100
Precision : 16-bit
Duration : 00:07:29.75 = 19833887 samples = 33731.1 CDDA sectors
File Size : 18.1M
Bit Rate : 322k
Sample Encoding: MPEG audio (layer I, II or III)
Comments :
Title=Night Eternal
Artist=Dusk
Album=Dark City Underdogs
Tracknumber=3
Year=2024

[/more]

Register
(23) AlexSmith, Altkiller, artscald, cesar, CuRSeD, dermarsoran, Grev, Ildjarn, infozahist, Mencae77, metala, MMMMM, quarantine, sergsazan, Shadechaser, supremo, VALERY, vasiljev_sergej, Vassago06, vlad74, Wail, wreak, zhol,
Jan 15 2024, 11:50:32 Virtaus - Pimeyden Kantaja (2024)


*Artist: Virtaus
*Album: Pimeyden Kantaja
*Year: 2024
*Genre: Black Metal
*Country: Finland
*Format: mp3@CBR320kbps
*Size: 128MB

Tracklist:
01. Pimeyden Kantaja 08:16
02. Syljellä kiillotetaan luut mustuneet 05:25
03. Katson kun maailma palaa käsissänne 07:01
04. Tyhjyyden paino 07:41
05. Palava maailma 06:16
06. Kuolleet polut 05:47
07. Kuilun lapset 08:06
08. Alkuni loppu 07:08
******************************
Total playing time: 55:40

[more=Technical info]
Input File: Virtaus - Pimeyden Kantaja - 05 Palava maailma.mp3
Channels : 2
Sample Rate : 44100
Precision : 16-bit
Duration : 00:06:16.08 = 16585084 samples = 28205.9 CDDA sectors
File Size : 15.1M
Bit Rate : 322k
Sample Encoding: MPEG audio (layer I, II or III)
Comments :
Title=Palava maailma
Artist=Virtaus
Album=Pimeyden Kantaja
Tracknumber=5
Year=2024

[/more]

Register
(23) AlexSmith, Altkiller, artscald, dermarsoran, forfolja, Grev, kim666, Mencae77, nemx, pivi901, rimfrost, Rover, sabr, sacrut, SilentNidhogg, smysl, stub888, supremo, Surt, VALERY, vasiljev_sergej, wreak, yuratroll,
Jan 12 2024, 19:18:15 Новости Thrash Metal направления
[youtube]0OeDu5VMC6w[/youtube]
(2) Emm Human, METALHUNTER,
Jan 12 2024, 19:09:04 Новости Death Metal направления
[youtube]TCCU0p7CbOw[/youtube]
(3) Emm Human, obscenity, Occultas,
Jan 10 2024, 17:04:13 Новости Thrash Metal направления
[youtube]85pPL_68NYc[/youtube]
(3) BlackMirror, Emm Human, METALHUNTER,
Jan 8 2024, 11:52:47 First Draw - The Journey (2024)


*Artist: First Draw
*Album: The Journey
*Year: 2024
*Genre: Heavy Metal
*Country: United States
*Format: mp3@CBR320kbps
*Size: 96MB

Tracklist:
01. Riot Time 03:20
02. The Abyss 04:32
03. As They Fail Us 05:19
04. Nightmare Lane 04:22
05. Vultures 06:04
06. Let It Live 06:04
07. Night Owls 04:40
08. The Journey 05:24
******************************
Total playing time: 39:45

[more=Technical info]
Input File: 04 - Nightmare Lane.mp3
Channels : 2
Sample Rate : 44100
Precision : 16-bit
Duration : 00:04:22.00 = 11554200 samples = 19650 CDDA sectors
File Size : 11.0M
Bit Rate : 336k
Sample Encoding: MPEG audio (layer I, II or III)
Comments :
Title=Nightmare Lane
Artist=First Draw
Album=The Journey
Tracknumber=4
Year=2024-01-05
Genre=Рок
Discnumber=1

[/more]

Register
(19) 747metaller, after21allD, artscald, aviacademy, hellraiser69, HMHamster, infozahist, Marek, metala, Mogozoz, postal67, rainbow83, Rover, sergsazan, stumpheavyrock, vir2al, Wail, wreak, Xtohar,
Dec 31 2023, 19:18:54 Køldbrynger - Totenblut (2024)


*Artist: Køldbrynger
*Album: Totenblut
*Year: 2024
*Genre: Raw Black Metal
*Country: Germany
*Format: mp3@CBR320kbps
*Size: 84MB

Tracklist:
01. I. Abschaum 03:33
02. II. Tor nach Eden 01:25
03. III. Kugelsturm 04:13
04. IV. Leere 03:05
05. V. Totenblut 07:47
06. VI. Ich bin alleine... 04:25
07. VII. Blutzorn04:24
08. Oh Strick bring mir Erlösung (Bonus) 06:32
******************************
Total playing time: 35:24

[more=Technical info]
Input File: 04 - IV. Leere.mp3
Channels : 2
Sample Rate : 44100
Precision : 16-bit
Duration : 00:03:05.00 = 8158500 samples = 13875 CDDA sectors
File Size : 7.67M
Bit Rate : 332k
Sample Encoding: MPEG audio (layer I, II or III)
Comments :
Title=IV. Leere
Artist=Køldbrynger/Tiefstand
Album=Totenblut
Tracknumber=4
Year=2024-01-01
Genre=Металл
Discnumber=1

[/more]

Register
(18) AlexSmith, Altkiller, artscald, Carcharoth, Grev, judaz, kim666, metala, raaf, Rover, SilentNidhogg, stormhatt, supremo, VALERY, vasiljev_sergej, Wail, wreak, Zer0,
Dec 29 2023, 20:13:37 RAHVN - Devouring The Frail [ep] (2023)


*Artist: RAHVN
*Album: Devouring The Frail [ep]
*Year: 2023
*Genre: Black/Death Metal
*Country: United States
*Format: mp3@CBR320kbps
*Size: 58MB

Tracklist:
01. Parasitic Aeons 04:05
02. Victim 03:40
03. Wasteful Existence 04:44
04. Devouring the Frail 05:03
05. Venomous 03:10
06. Inhuman Progress 03:26
******************************
Total playing time: 24:08

[more=Technical info]
Input File: 04 - Devouring the Frail.mp3
Channels : 2
Sample Rate : 44100
Precision : 16-bit
Duration : 00:05:03.00 = 13362300 samples = 22725 CDDA sectors
File Size : 12.4M
Bit Rate : 327k
Sample Encoding: MPEG audio (layer I, II or III)
Comments :
Title=Devouring the Frail
Artist=RAHVN
Album=Devouring the Frail
Tracknumber=4
Year=2023-12-30
Genre=Металл
Discnumber=1

[/more]

Register
(8) AndreFrancis, artscald, METALHUNTER, supremo, tril0byte, Wail, wreak, yuratroll,
Dec 27 2023, 09:53:56 Geistlicht - Among The Stars And The Abyss (2023)


*Artist: Geistlicht
*Album: Among The Stars And The Abyss
*Year: 2023
*Genre: Atmospheric/Melodic Black Metal
*Country: Germany
*Format: mp3@CBR320kbps
*Size: 125MB

Tracklist:
01. A Pit For A Doomed 06:40
02. A Gaze Through The Night 06:31
03. Cold Scorched Land 05:50
04. Valley Of Life And Death 05:16
05. The Battle Of Two Winds 05:01
06. Distant Stars From The Bottom Of The Well 05:20
07. Satanarchrist (Anaal Nathrakh cover) 04:49
******************************
Total playing time: 39:27

[more=Technical info]
Input File: Geistlicht - Among The Stars And The Abyss - 02 A Gaze Through The Night.mp3
Channels : 2
Sample Rate : 44100
Precision : 16-bit
Duration : 00:06:31.78 = 17277630 samples = 29383.7 CDDA sectors
File Size : 15.9M
Bit Rate : 325k
Sample Encoding: MPEG audio (layer I, II or III)
Comments :
Title=A Gaze Through The Night
Artist=Geistlicht
Album=Among The Stars And The Abyss
Tracknumber=2
Year=2023

[/more]

Register
(27) aleon, AlexSmith, Altkiller, Carcharoth, kim666, LEGION69, LiarOfAngmar, Marek, MMMMM, Mogozoz, murian, nemx, Occultas, oldvarg, robertho777, Rover, Sanctus, sergsazan, Shadechaser, Surt, VALERY, vasiljev_sergej, vlad74, Wail, Weikai, wreak, zhol,
Dec 26 2023, 09:41:36 Bull Of Apis Bull Of Bronze - The Fractal Ouroboros (2023)


*Artist: Bull Of Apis Bull Of Bronze
*Album: The Fractal Ouroboros
*Year: 2023
*Genre: Black Metal
*Country: United States
*Format: mp3@CBR320kbps
*Size: 181MB

Tracklist:
01. Trophy 11:52
02. A History of Cages and Broken Bones 06:49
03. Suffocate O Earthen Lungs; They Now Lungs of Ash 10:51
04. Annihilation 09:41
05. Liberation Ritual 05:49
06. Our Overt Apocalypse 13:31
07. Ekstasis, Enstasis, and The Fractal Ouroboros 15:57
******************************
Total playing time: 1:14:30

[more=Technical info]
Input File: Bull of Apis Bull of Bronze - The Fractal Ouroboros - 07 Ekstasis, Enstasis, and The Fractal Ouroboros.mp3
Channels : 2
Sample Rate : 44100
Precision : 16-bit
Duration : 00:15:57.29 = 42216357 samples = 71796.5 CDDA sectors
File Size : 38.7M
Bit Rate : 323k
Sample Encoding: MPEG audio (layer I, II or III)
Comments :
Title=Ekstasis, Enstasis, and The Fractal Ouroboros
Artist=Bull of Apis Bull of Bronze
Album=The Fractal Ouroboros
Tracknumber=7
Year=2023

[/more]

Register
(32) AlexSmith, alikkon, Altkiller, artscald, BandR75, BlackSwordMaster88, blacky66, Carcharoth, Condehate, dead4, Doooomed, Irimias, kim666, kolar666, madera, MMMMM, murian, nemx, Phlebotomized, robertho777, Rover, Schtizzel, SilentNidhogg, supremo, VALERY, varg-38ru, vasiljev_sergej, vovenom, Wail, wreak, Yorker, Zer0,
Dec 25 2023, 09:09:44 Katatonia - A Sunset Choir For The Daylight Harvest [ep] (2023)
Вкусно но мало
(1) Occultas,
Dec 24 2023, 20:06:04 Hekz - Terra Nova (2023)


*Artist: Hekz
*Album: Terra Nova
*Year: 2023
*Genre: Heavy Metal
*Country: United Kingdom
*Format: mp3@CBR320kbps
*Size: 198MB

Tracklist:
01. Terra Nova 03:57
02. Sabotage 04:40
03. Horizons 04:40
04. Mayday 05:56
05. So Far Gone 06:16
06. The Tower 09:52
07. Lifeline 04:56
08. Too Far Gone 05:29
09. I Am The Thrall 05:59
10. The Silent Man 24:48
11. Terra Nova II 09:05
******************************
Total playing time: 1:25:38

[more=Technical info]
Input File: 04 - Mayday.mp3
Channels : 2
Sample Rate : 44100
Precision : 16-bit
Duration : 00:05:56.00 = 15699600 samples = 26700 CDDA sectors
File Size : 14.4M
Bit Rate : 323k
Sample Encoding: MPEG audio (layer I, II or III)
Comments :
Title=Mayday
Artist=Hekz
Album=Terra Nova
Tracknumber=4
Year=2023-11-03
Genre=Рок
Discnumber=1

[/more]

Register
(12) 747metaller, artscald, Marek, metala, Mogozoz, Niknne, postal67, Rover, sergsazan, stumpheavyrock, wreak, Сварог Барг,
Dec 24 2023, 17:04:23 Новости Black-направления
[youtube]sIxedsm227w[/youtube]
(1) Chasm,

67 Pages V   1 2 3 > » 
- Lo-Fi Version Support form
Copyrights and abuse reports form
Time is now: 24th February 2024 - 11:12:11