Welcome Guest ( Log In | Register )

История благодарностей участнику vasilisk ::: Спасибо сказали: 9538 раз(а)
Дата поста: В теме: За сообщение: Спасибо сказали:
Apr 27 2021, 21:54:06 Stone Horns - Rise Of Apophis (2021)


*Artist: Stone Horns
*Album: Rise Of Apophis
*Year: 2021
*Genre: Groove/Thrash Metal
*Country: France
*Format: mp3@CBR320kbps
*Size: 89MB

Tracklist:
01. The Unborn
02. Molten River
03. From Amourphous To Hydra
04. Shores Of Kismeth
05. Night And Day
06. Surging Out The Nile
07. Invocation
08. Tide Of Blood & Bones
09. Rise Of Apophis
******************************
Total playing time: 37:55

[more=Technical info]
Input File: 02. Molten River.mp3
Channels : 2
Sample Rate : 44100
Precision : 16-bit
Duration : 00:04:16.25 = 11300713 samples = 19218.9 CDDA sectors
File Size : 10.5M
Bit Rate : 328k
Sample Encoding: MPEG audio (layer I, II or III)
Comments :
Title=Molten River
Artist=Stone Horns
Album=Rise of Apophis
Tracknumber=02/09
Year=2021

[/more]

Register
(5) after21allD, amiroo, boby9052, infiltrator, sludge666,
Apr 27 2021, 19:09:34 Krüger - Аномалия (2021)
Какая гадость 22.gif
(3) infiltrator, neludz, SAPOGi,
Apr 18 2021, 20:16:27 Skeptikon - Inner Eschaton (2021)


*Artist: Skeptikon
*Album: Inner Eschaton
*Year: 2021
*Genre: Blackened Death Metal
*Country: France
*Format: mp3@CBR320kbps
*Size: 103MB

Tracklist:
01. Subliminal Hypnosis
02. A Dark Trip
03. Voices
04. Eschaton
05. Chemical Straitjacket
06. Vicious Catalyst
07. Dimension D
08. Archontic Ending
******************************
Total playing time: 41:42

[more=Technical info]
Input File: 02. A Dark Trip.mp3
Channels : 2
Sample Rate : 44100
Precision : 16-bit
Duration : 00:05:46.09 = 15262657 samples = 25956.9 CDDA sectors
File Size : 14.3M
Bit Rate : 330k
Sample Encoding: MPEG audio (layer I, II or III)
Comments :
Title=A Dark Trip
Artist=Skeptikon
Album=Inner Eschaton (320)
Tracknumber=02
Year=2021
Genre=Metal

[/more]

Register
(11) AlexSmith, atavist, cesar, infiltrator, lldma, Olethros, randumbum, soulflesh, VALERY, varlam4, vov7609,
Apr 15 2021, 20:44:37 Kwade Droes - Met Onoprechte Deelneming (2021)


*Artist: Kwade Droes
*Album: Met Onoprechte Deelneming
*Year: 2021
*Genre: Black Metal
*Country: Netherlands
*Format: mp3@CBR320kbps
*Size: 80MB

Tracklist:
01. Verkeerde Preek 08:05
02. Synode Van Satan 07:53
03. Na De Gestorrde Uitvaart 07:54
04. Duivelsindrijving 11:01
******************************
Total playing time: 34:53

[more=Technical info]
Input File: 02 - Synode Van Satan.mp3
Channels : 2
Sample Rate : 44100
Precision : 16-bit
Duration : 00:07:52.77 = 20849025 samples = 35457.5 CDDA sectors
File Size : 19.0M
Bit Rate : 321k
Sample Encoding: MPEG audio (layer I, II or III)
Comments :
Title=Synode Van Satan
Artist=Kwade Droes
Album=Met Onoprechte Deelneming
Tracknumber=2
Year=2021
Discnumber=1/1

[/more]

Register
(21) AlexSmith, atavist, Bzth, helvetestoner, infiltrator, judaz, kim666, Marek, multizwilling, murian, nemx, Olethros, randumbum, robertho777, SilentNidhogg, smes, SyncestrA, VALERY, varlam4, vasiljev_sergej, yuratroll,
Apr 12 2021, 19:54:42 Family Devotion Murder - Tentacles (2021)


*Artist: Family Devotion Murder
*Album: Tentacles
*Year: 2021
*Genre: Death/Groove Metal
*Country: Italy
*Format: mp3@CBR320kbps
*Size: 109MB

Tracklist:
01. Intro Virus- Dead Land 02:05
02. Mr Junker Fuck Off 03:58
03. Back from the Pit 04:06
04. Banditismo 04:39
05. Cosa Nostra 03:34
06. Don Satan 05:31
07. World Decline 05:31
08. Feel My Blade 04:35
09. Padrino 02:42
10. Kraken 04:43
11. Warrior Satanico 05:30
******************************
Total playing time: 46:54

[more=Technical info]
Input File: 02 - Mr Junker Fuck Off.mp3
Channels : 2
Sample Rate : 44100
Precision : 16-bit
Duration : 00:03:58.59 = 10521907 samples = 17894.4 CDDA sectors
File Size : 9.69M
Bit Rate : 325k
Sample Encoding: MPEG audio (layer I, II or III)
Comments :
Title=Mr Junker Fuck Off
Artist=Family Devotion Murder
Album=Tentacles
Tracknumber=2
Year=2021
Discnumber=1/1

[/more]

Register
(7) caro, cesar, chipsgott, infiltrator, jollo, judaz, stumpheavyrock,
Apr 6 2021, 12:51:00 Omniscience - Dystopian Discourse [ep] (2021)


*Artist: Omniscience
*Album: Dystopian Discourse [ep]
*Year: 2021
*Genre: Death/Groove Metal
*Country: Mexico
*Format: mp3@CBR320kbps
*Size: 65MB

Tracklist:
01. World Domination
02. The Detachment of Reason
03. Bring a Breath of Your Own Life
04. Spiral
05. Last Speech...
06. ...of a Hero
******************************
Total playing time: 28:13

[more=Technical info]
Input File: 02. The Detachment of Reason.mp3
Channels : 2
Sample Rate : 44100
Precision : 16-bit
Duration : 00:05:05.14 = 13456454 samples = 22885.1 CDDA sectors
File Size : 12.2M
Bit Rate : 320k
Sample Encoding: MPEG audio (layer I, II or III)
Comments :
Title=The Detachment of Reason
Artist=Omniscience
Album=Dystopian Discourse
Tracknumber=02
Year=2021

[/more]

Register
(4) chipsgott, infiltrator, Olethros, varlam4,
Apr 5 2021, 21:04:45 Новости Folk/Pagan/Viking (3) Old Vyaine, RUDACHUR, VikTHOR,
Apr 3 2021, 23:54:43 Myrvandrer - Lenge Leve Livet (2021)


*Artist: Myrvandrer
*Album: Lenge Leve Livet
*Year: 2021
*Genre: Atmospheric Black Metal
*Country: Norway
*Format: mp3@CBR320kbps
*Size: 82MB

Tracklist:
01. Fenjas Threnodi 03:51
02. In Love (In Leaving) 05:39
03. Ferd 04:09
04. La Meg Hvile Over Sjøen 06:27
05. Ei Hulders Vuggevise 04:04
06. Fra Silkeseng Til Sot 05:18
07. Lenge Leve Livet 05:49
******************************
Total playing time: 35:17

[more=Technical info]
Input File: 02 - In Love (In Leaving).mp3
Channels : 2
Sample Rate : 44100
Precision : 16-bit
Duration : 00:05:39.09 = 14953913 samples = 25431.8 CDDA sectors
File Size : 13.7M
Bit Rate : 322k
Sample Encoding: MPEG audio (layer I, II or III)
Comments :
Title=In Love (In Leaving)
Artist=Myrvandrer
Album=Lenge Leve Livet
Tracknumber=2
Year=2021
Discnumber=1/1

[/more]

Register
(37) AlexSmith, alikkon, Bzth, cancer1974, cesar, daemonarch, dan22, gav-gafi, infiltrator, kim666, kimkayoung, kryptor, LEGION69, Lionheart-P, Lukittaz, Marek, maxxxy, metala, multizwilling, Old Vyaine, Olethros, Ostinato, randumbum, robertho777, satanist666, Scuns, sergsazan, Shadechaser, ShmiT, SilentNidhogg, Sjelekval, Taakeferd, VALERY, varlam4, vasiljev_sergej, zemlemer, дивин,
Apr 2 2021, 10:47:06 Everson Poe - Grief (2021)


*Artist: Everson Poe
*Album: Grief
*Year: 2021
*Genre: Post-Black Metal
*Country: United States
*Format: mp3@CBR320kbps
*Size: 112MB

Tracklist:
01. Denial 10:43
02. Anger 03:45
03. Bargaining 10:07
04. Depression 14:03
05. Acceptance 10:15
******************************
Total playing time: 48:53

[more=Technical info]
Input File: 02 - Anger.mp3
Channels : 2
Sample Rate : 44100
Precision : 16-bit
Duration : 00:03:44.85 = 9915929 samples = 16863.8 CDDA sectors
File Size : 9.07M
Bit Rate : 323k
Sample Encoding: MPEG audio (layer I, II or III)
Comments :
Title=Anger
Artist=Everson Poe
Album=Grief
Tracknumber=2
Year=2021
Discnumber=1/1

[/more]

Register
(12) aleon, ctulhudagon, infiltrator, kim666, kimkayoung, nemx, Olethros, randumbum, robertho777, SilentNidhogg, VALERY, varlam4,
Mar 22 2021, 09:19:52 Новости Folk/Pagan/Viking
WOLFCHANT
Трек-лист:

Disc I
01. Omega : Bestia
02. Komet
03. Into Eternal Darkness
04. Im Zeichen Des Tiers
05. Der Geist Und Die Dunkelheit
06. Bestie
07. Jäger Der Nacht
08. Out In The Dark
09. The Flame

Disc II (digipak)
01. Kelch Deiner Freiheit
02. Wolkenheer
03. The Last Storm
04. The Devil Rides Out
05. The End

Disc III (Deluxe box bonus)
01. A Pagan Storm
02. Winterhymn
03. Hail And Kill
04. Rebellion (The Clans Are Marching)
05. 70.000 Tons Of Metal

[youtube]j0Gmks3riaE[/youtube]
(1) kostja,
Mar 9 2021, 13:31:46 The Furor - Obliteration Matrix (2021)


*Artist: The Furor
*Album: Obliteration Matrix
*Year: 2021
*Genre: Black/Death Metal
*Country: Australia
*Format: mp3@CBR320kbps
*Size: 91MB

Tracklist:
01. Surging Curse Assassin
02. Necrorebellion
03. The Hammerstorm Forecast
04. Wrath of Abraxas
05. The Funeral Abominator
06. Titan Demigods Descend
07. Immortal Vortex Rising
08. Destination Damnation
******************************
Total playing time: 39:46

[more=Technical info]
Input File: 02. Necrorebellion.mp3
Channels : 2
Sample Rate : 44100
Precision : 16-bit
Duration : 00:04:41.17 = 12399773 samples = 21088 CDDA sectors
File Size : 11.2M
Bit Rate : 320k
Sample Encoding: MPEG audio (layer I, II or III)
Comments :
Title=Necrorebellion
Artist=The Furor
Album=Obliteration Matrix
Tracknumber=02
Year=2021

[/more]

Register
(22) AlexSmith, atavist, gena, Hell_Is_Here, infiltrator, LokoMadriz, marilin, Mencae77, metala, MMMMM, Olethros, randumbum, SadistikSlayer, Shadechaser, SilentNidhogg, Taakeferd, VALERY, varlam4, vasiljev_sergej, Victim of fate, vov7609, wanderer73,
Mar 6 2021, 10:52:19 Mezereum - Mezereum Ii (2021)


*Artist: Mezereum
*Album: Mezereum Ii
*Year: 2021
*Genre: Black Metal
*Country: Lithuania
*Format: mp3@CBR320kbps
*Size: 107MB

Tracklist:
01. Imperative 06:00
02. Tacit 04:18
03. Deterrent 06:56
04. Reverie 04:11
05. Quandary 06:36
06. Aversion 07:28
07. Erstwhile 10:45
******************************
Total playing time: 46:14

[more=Technical info]
Input File: 02 - Tacit.mp3
Channels : 2
Sample Rate : 44100
Precision : 16-bit
Duration : 00:04:18.21 = 11387105 samples = 19365.8 CDDA sectors
File Size : 10.4M
Bit Rate : 322k
Sample Encoding: MPEG audio (layer I, II or III)
Comments :
Title=Tacit
Artist=Mezereum
Album=Mezereum II
Tracknumber=2
Year=2021
Discnumber=1/1

[/more]

Register
(19) atavist, infiltrator, kim666, Korpse, Krosis, legion01, nemx, Olethros, randumbum, robertho777, satanist666, SilentNidhogg, smes, Taakeferd, VALERY, varlam4, vasiljev_sergej, wreak, дивин,
Feb 9 2021, 14:19:12 Новости Black-направления
[youtube]jQd9npyQdGA[/youtube]
(3) infiltrator, mondlicht, Qliphoth,
Feb 5 2021, 00:25:48 Bellwethr - Into The Twisted Limbs (2021)


*Artist: Bellwethr
*Album: Into The Twisted Limbs
*Year: 2021
*Genre: Depressive Black Metal
*Country: United States
*Format: mp3@CBR320kbps
*Size: 148MB

Tracklist:
01. Fading 02:10
02. Revelation in Solemn Oak 24:59
03. Interlude 04:01
04. A Plea to the Somber 06:52
05. Autumn Brings My Dread 06:24
06. Interlude II 03:20
07. Eternal Repose 08:57
08. Memento Mori 07:22
******************************
Total playing time: 1:04:05

[more=Technical info]
Input File: 04 - A Plea to the Somber.mp3
Channels : 2
Sample Rate : 44100
Precision : 16-bit
Duration : 00:06:51.74 = 18157778 samples = 30880.6 CDDA sectors
File Size : 16.6M
Bit Rate : 322k
Sample Encoding: MPEG audio (layer I, II or III)
Comments :
Title=A Plea to the Somber
Artist=Bellwethr
Album=Into the Twisted Limbs
Tracknumber=4
Year=2021
Discnumber=1/1

[/more]

Register
(19) aleon, AlexSmith, alikkon, infiltrator, kim666, lekram, metala, Olethros, Ostinato, randumbum, robertho777, Rosen, SilentNidhogg, stone88, Taakeferd, VALERY, varlam4, vasiljev_sergej, wreak,
Jan 23 2021, 14:25:43 Новости Death Metal направления
[youtube]YZmWZ_8qpQM[/youtube]
(3) infiltrator, sabr, THROWER666,
Jan 15 2021, 21:58:49 Новости Death Metal направления
(5) Chasm, Emm Human, infiltrator, obscenity, Occultas,
Jan 8 2021, 20:49:51 Konquest - The Night Goes On (2021)
ЦИТАТА(nikitakapernaumov @ Jan 8 2021, 20:03:27) *
трольте ковонить другова. а у сабжа вон уже две прадажы за вечер на бэндкампе

Ты что с детского сада? 13.gif
(1) Victim of fate,
Dec 24 2020, 10:55:26 Chaos Sculptor - Chaos Sculptor (2020)


*Artist: Chaos Sculptor
*Album: Chaos Sculptor
*Year: 2020
*Genre: Black/Death Metal
*Country: United States
*Format: mp3@CBR320kbps
*Size: 130MB

Tracklist:
1. Fatal Misanthropy
2. The 12th Equilibrium
3. Suffering the Modern Day
4. Dismembering the Predator
5. Five Points to Augment
6. Ruling Through Vampyric Miasma
7. Cast My Soul Away
8. Trial of the Merciless
9. Annihilation Archetype
10. Time is a Flat Circle
******************************
Total playing time: 56:06

[more=Technical info]
Input File: 04 - Dismembering the Predator.mp3
Channels : 2
Sample Rate : 44100
Precision : 16-bit
Duration : 00:04:08.49 = 10958541 samples = 18637 CDDA sectors
File Size : 10.2M
Bit Rate : 327k
Sample Encoding: MPEG audio (layer I, II or III)
Comments :
Title=Dismembering the Predator
Artist=Chaos Sculptor
Album=Chaos Sculptor
Tracknumber=4
Year=2020

[/more]

Register
(19) AlexSmith, atavist, El_Chibo, Hell_Is_Here, infiltrator, Marek, metala, METALHUNTER, Morgoth, Olethros, randumbum, Rosen, Shadechaser, SilentNidhogg, VALERY, varlam4, vasiljev_sergej, Wail, wreak,
Dec 10 2020, 17:10:17 Новости Black-направления

Norwegian Black Metal icon Hoest has cast some positivity into the hell that has been 2020, with the release of two TAAKE 10″split EPs, one with DEATHCULT (on Edged Circle Productions) and one with WHOREDOM RIFE (on Terratur Possessions), and now, as the year draws to a close, a third split has been announced.
The new EP will see TAAKE join forces with HELHEIM, and will be the last of the three 10″ splits. Titled ”Henholdsvis” the EP will appear on Bergen’s eponymous Dark Essence Records, the long-time label of both bands, and is set for release on the 5th March 2021.

For “Henholdsvis” TAAKE has recorded two new tracks, “Brotne Bein og Mannefall” and “Ein Baat i Foss”, whose lyrics are based on poems by the famed Norwegian writer Arne Garborg (1851-1924). With these new tracks, the band has produced the kind of Black Metal fans crave – dark, cold and gritty.
HELHEIM, on the other hand, will present two covers. The first is a re-mastered version of EMPEROR’s “Heksesabbat / Witches Sabbath”, which originally appeared on the tribute album “A Tribute to Emperor – In Honour of Icon E” in 2012, and which has now been totally remastered. For the second of the two covers HELHEIM have chosen to go down a very interesting path by recording a very different, and original, version of “Orkan” , from TAAKE’s “Noregs Vaapen” album.
Recorded by Bjørnar E. Nilsen (VULTURE INDUSTRIES, BLACK HOLE GENERATOR) at his Conclave and Earshot Studios in the bands’ hometown of Bergen, and with artwork by H’grimnir, tracklisting for “Henholdsvis” is as follows:

1. Brotne Bein og Mannefall – Taake

2. Ein Baat i Foss – Taake

3. Orkan – Helheim

4. Heksesabbat – Helheim

“Henholdsvis” will be released in 10″ black vinyl as well as in red, white and blue vinyl, limited to 333 copies each. It will also be available in digital format and can now be pre-order from the following:
(5) andivi, DarkHorde, infiltrator, Occultas, Нигилист,
Dec 8 2020, 14:47:19 Новости Folk/Pagan/Viking
EINHERJER
[youtube]tSIu0pRU1Rc[/youtube]
(1) suseka,
Dec 7 2020, 10:07:07 Druon Antigon - Desontstijging (2020)


*Artist: Druon Antigon
*Album: Desontstijging
*Year: 2020
*Genre: Black Metal
*Country: United Kingdom
*Format: mp3@CBR320kbps
*Size: 91MB

Tracklist:
01. Zinloos 10:13
02. Herrijzenis 08:45
03. Like Gods 07:36
04. Weavess 12:46
******************************
Total playing time: 39:20

[more=Technical info]
Input File: 03 - Like Gods.mp3
Channels : 2
Sample Rate : 44100
Precision : 16-bit
Duration : 00:07:36.20 = 20118596 samples = 34215.3 CDDA sectors
File Size : 18.4M
Bit Rate : 322k
Sample Encoding: MPEG audio (layer I, II or III)
Comments :
Title=Like Gods
Artist=Druon Antigon
Album=Desontstijging
Tracknumber=3
Year=2020
Discnumber=1/1

[/more]

Register
(20) 1968_janeart, AlexSmith, El_Chibo, infiltrator, kim666, Kuratsu, multizwilling, Necromag, Occultas, Olethros, Ostinato, randumbum, robertho777, Rosen, SilentNidhogg, toly1917, VALERY, varlam4, vasiljev_sergej, wreak,
Nov 21 2020, 23:32:49 Ildrasun - Kingdom On The Shore (2020)


*Artist: Ildrasun
*Album: Kingdom On The Shore
*Year: 2020
*Genre: Post-Black Metal
*Country: United States
*Format: mp3@CBR320kbps
*Size: 96MB

Tracklist:
1. Kingdom on the Shore
2. Impending Storm
3. Out to Sea
4. Adrift
5. Ideals
6. Summit of Lies
7. Descent into the Wood
8. Death and Rebirth
9. The Holy Temple
******************************
Total playing time: 40:55

[more=Technical info]
Input File: 01 - Kingdom on the Shore.mp3
Channels : 2
Sample Rate : 44100
Precision : 16-bit
Duration : 00:05:24.07 = 14291311 samples = 24305 CDDA sectors
File Size : 13.2M
Bit Rate : 326k
Sample Encoding: MPEG audio (layer I, II or III)
Comments :
Title=Kingdom on the Shore
Artist=Ildrasun
Album=Kingdom on the Shore
Tracknumber=1
Year=2020

[/more]

Register
(18) 1968_janeart, Buregon, ctulhudagon, HMHamster, infiltrator, kim666, Olethros, randumbum, robertho777, Rosen, SilentNidhogg, sludge666, stone88, VALERY, varlam4, vasiljev_sergej, Wail, wreak,
Nov 13 2020, 09:58:18 The Chemical Mind - That Benign Terror (2020)


*Artist: The Chemical Mind
*Album: That Benign Terror
*Year: 2020
*Genre: Atmospheric/Post-Black Metal
*Country: United States
*Format: mp3@CBR320kbps
*Size: 97MB

Tracklist:
01. Seraphim 05:54
02. Dominion 04:46
03. Simulacrum 04:28
04. Obelisk 02:42
05. Sisters 05:00
06. Nephilim 03:49
07. Apophasis 04:41
08. Ophanim 10:39
******************************
Total playing time: 41:59

[more=Technical info]
Input File: 03 - Simulacrum.mp3
Channels : 2
Sample Rate : 44100
Precision : 16-bit
Duration : 00:04:27.59 = 11800719 samples = 20069.2 CDDA sectors
File Size : 10.7M
Bit Rate : 321k
Sample Encoding: MPEG audio (layer I, II or III)
Comments :
Title=Simulacrum
Artist=The Chemical Mind
Album=That Benign Terror
Tracknumber=3
Year=2020
Discnumber=1/1

[/more]

Register
(16) 1968_janeart, aleon, frituz3, gena, infiltrator, kim666, Olethros, randumbum, robertho777, Rosen, Shadechaser, sludge666, VALERY, varlam4, vasiljev_sergej, wreak,
Nov 9 2020, 22:00:20 Sepulchre By The Sea - Conqueror Worm (2020)


*Artist: Sepulchre By The Sea
*Album: Conqueror Worm
*Year: 2020
*Genre: Atmospheric Black Metal
*Country: United Kingdom
*Format: mp3@CBR320kbps
*Size: 134MB

Tracklist:
01. I Loved Alone 06:40
02. Conqueror Worm 06:40
03. And So It Crumbles 12:07
04. Slices of Death 07:34
05. Behind the Walls 07:50
06. Plutonian Shores 17:14
******************************
Total playing time: 58:05

[more=Technical info]
Input File: 02 - Conqueror Worm.mp3
Channels : 2
Sample Rate : 44100
Precision : 16-bit
Duration : 00:06:40.53 = 17663549 samples = 30040 CDDA sectors
File Size : 16.1M
Bit Rate : 322k
Sample Encoding: MPEG audio (layer I, II or III)
Comments :
Title=Conqueror Worm
Artist=Sepulchre by the Sea
Album=Conqueror Worm
Tracknumber=2
Year=2020
Discnumber=1/1

[/more]

Register
(19) 1968_janeart, aleon, alikkon, frituz3, infiltrator, kim666, Korpse, Olethros, randumbum, RENыч, robertho777, Rosen, sergsazan, SilentNidhogg, stone88, VALERY, varlam4, vasiljev_sergej, wreak,
Oct 27 2020, 13:34:36 Darzamat - A Philosopher At The End Of The Universe (2020)
Хороший альбом,прослушал с удовольствием
(2) infiltrator, Thiarnan,

56 Pages V   1 2 3 > » 
- Lo-Fi Version Support form
Copyrights and abuse reports form
Time is now: 9th May 2021 - 09:13:44