Welcome Guest ( Log In | Register )

История благодарностей участнику vasilisk ::: Спасибо сказали: 9717 раз(а)
Дата поста: В теме: За сообщение: Спасибо сказали:
Jul 8 2021, 15:49:08 Gospod - Israel's Exodus (2021)


*Artist: Gospod
*Album: Israel's Exodus
*Year: 2021
*Genre: Atmospheric Black Metal
*Country: Russian Federation
*Format: mp3@CBR320kbps
*Size: 83MB

Tracklist:
01. The Oppresion of Israel (Exodus 1) 05:41
02. The Birth of Moses (Exodus 2) 03:48
03. The Burning Bush (Exodus 3) 02:36
04. Signs for Moses (Exodus 4) 05:22
05. Let My People Go (Exodus 5) 04:00
06. God Speaks to Moses (Exodus 6) 03:10
07. The Hardening of Pharaohs Heart (Exodus 7) 06:20
08. Refusal Warnings (Exodus 8) 04:23
******************************
Total playing time: 35:20

[more=Technical info]
Input File: 04 - Signs for Moses (Exodus 4).mp3
Channels : 2
Sample Rate : 44100
Precision : 16-bit
Duration : 00:05:21.72 = 14187764 samples = 24128.9 CDDA sectors
File Size : 13.1M
Bit Rate : 325k
Sample Encoding: MPEG audio (layer I, II or III)
Comments :
Title=Signs for Moses (Exodus 4)
Artist=Gospod
Album=Israel's Exodus
Tracknumber=4
Year=2021
Discnumber=1/1

[/more]

Register
(11) caro, kim666, metala, Old Vyaine, Olethros, Olrak, robertho777, Shadechaser, SilentNidhogg, wreak, Авел,
Jul 8 2021, 09:55:43 Wintaar - Pain Is Every Memory (2021)


*Artist: Wintaar
*Album: Pain Is Every Memory
*Year: 2021
*Genre: Atmospheric Black Metal
*Country: Russian Federation
*Format: mp3@CBR320kbps
*Size: 131MB

Tracklist:
01. Black Stone 07:35
02. Eternal Rites 08:29
03. Coffins Under Ashes 07:53
04. Scream From The Ground 06:29
05. Omnipresent Pain 07:34
06. Dying 10:33
07. The Only Truth Of Existence 08:07
******************************
Total playing time: 56:40

[more=Technical info]
Input File: 04 - Scream From The Ground.mp3
Channels : 2
Sample Rate : 44100
Precision : 16-bit
Duration : 00:06:29.43 = 17173951 samples = 29207.4 CDDA sectors
File Size : 15.7M
Bit Rate : 322k
Sample Encoding: MPEG audio (layer I, II or III)
Comments :
Title=Scream From The Ground
Artist=Wintaar
Album=Pain Is Every Memory
Tracknumber=4
Year=2021
Discnumber=1/1

[/more]

Register
(23) aleon, AlexSmith, alikkon, caro, HMHamster, infernallord, kim666, metala, oldvarg, Olethros, Ostinato, robertho777, Shadechaser, SilentNidhogg, Slam91, Slavas, supremo, Taakeferd, VALERY, varlam4, vasiljev_sergej, Wail, wreak,
Jun 16 2021, 09:31:24 Cicada The Burrower - Corpseflower (2021)


*Artist: Cicada The Burrower
*Album: Corpseflower
*Year: 2021
*Genre: Progressive Black Metal
*Country: United States
*Format: mp3@CBR320kbps
*Size: 71MB

Tracklist:
01. The Fever Room
02. Glamour
03. Where Old Crystals Grow
04. Psilocybin Death Spiral
05. Corpseflower
******************************
Total playing time: 30:47

[more=Technical info]
Input File: 03. Where Old Crystals Grow.mp3
Channels : 2
Sample Rate : 44100
Precision : 16-bit
Duration : 00:04:03.56 = 10740820 samples = 18266.7 CDDA sectors
File Size : 9.90M
Bit Rate : 325k
Sample Encoding: MPEG audio (layer I, II or III)
Comments :
Title=Where Old Crystals Grow
Artist=Cicada the Burrower
Album=Corpseflower
Tracknumber=3/5
Year=2021

[/more]

Register
(17) AlexSmith, bOOLty, caro, infiltrator, Marek, nemx, Olethros, Ostinato, robertho777, Rover, SilentNidhogg, supremo, VALERY, varlam4, Wail, wreak, xcvbnmrty,
Jun 3 2021, 08:23:11 Satlan - Panacea (2021)


*Artist: Satlan
*Album: Panacea
*Year: 2021
*Genre: Psychedelic/Stoner/Doom Metal
*Country: United Kingdom
*Format: mp3@CBR320kbps
*Size: 110MB

Tracklist:
01. Control 09:41
02. Nash 08:35
03. Ode 09:14
04. Kingmaker 10:07
05. Watchmen 06:08
06. Insanity 03:28
******************************
Total playing time: 47:13

[more=Technical info]
Input File: 05 - Watchmen.mp3
Channels : 2
Sample Rate : 44100
Precision : 16-bit
Duration : 00:06:08.22 = 16238458 samples = 27616.4 CDDA sectors
File Size : 14.9M
Bit Rate : 324k
Sample Encoding: MPEG audio (layer I, II or III)
Comments :
Title=Watchmen
Artist=Satlan
Album=Panacea
Tracknumber=5
Year=2021
Discnumber=1/1

[/more]

Register
(7) bOOLty, infiltrator, marilin, Olethros, VALERY, Wail, wreak,
May 30 2021, 10:48:29 Im Tode - In Diabolic Darkness [ep] (2021)


*Artist: Im Tode
*Album: In Diabolic Darkness [ep]
*Year: 2021
*Genre: Melodic Death/Black Metal
*Country: United States
*Format: mp3@CBR320kbps
*Size: 71MB

Tracklist:
01. Covered in Mirrors
02. The Violating Cold
03. In Diabolic Darkness
04. Fangs of Death
05. Beheading God in Heaven
06. Under Pestilent Skies
07. Brides of Blood
08. Ancient Curses of Oblivion
******************************
Total playing time: 28:22

[more=Technical info]
Input File: 02. The Violating Cold.mp3
Channels : 2
Sample Rate : 44100
Precision : 16-bit
Duration : 00:03:40.02 = 9702794 samples = 16501.4 CDDA sectors
File Size : 8.89M
Bit Rate : 323k
Sample Encoding: MPEG audio (layer I, II or III)
Comments :
Title=The Violating Cold
Artist=Im Tode
Album=In Diabolic Darkness
Tracknumber=2
Year=2021
Discnumber=1

[/more]

Register
(21) BugEyes, caro, chipsgott, craP_cillA, DeathDragon, infiltrator, Lukittaz, Marek, Mogozoz, Olethros, satanist666, sergsazan, Shadechaser, Taakeferd, VALERY, varlam4, vasiljev_sergej, Wail, wreak, zhol, Сварог Барг,
May 13 2021, 20:32:00 Tundra - The Mirror Of Elizabeth [ep] (2021)


*Artist: Tundra
*Album: The Mirror Of Elizabeth [ep]
*Year: 2021
*Genre: Black Metal
*Country: Italy
*Format: mp3@CBR320kbps
*Size: 57MB

Tracklist:
01. Buio 1:19
02. Death From Above 6:36
03. Return To Darkside 6:34
04. The Mirror Of Elizabeth 6:21
05. The Triumphant March Of Death 3:26
******************************
Total playing time: 24:16

[more=Technical info]
Input File: 04 - The Mirror Of Elizabeth.mp3
Channels : 2
Sample Rate : 44100
Precision : 16-bit
Duration : 00:06:21.44 = 16821416 samples = 28607.9 CDDA sectors
File Size : 15.4M
Bit Rate : 323k
Sample Encoding: MPEG audio (layer I, II or III)
Comments :
Title=The Mirror Of Elizabeth
Artist=Tundra
Album=The Mirror Of Elizabeth
Tracknumber=4
Year=2021
Discnumber=1/1

[/more]

Register
(25) blacky66, cesar, Ildjarn, infiltrator, kefka, kim666, kimkayoung, Marek, Olethros, postal67, recber, ripper33, robertho777, satanist666, SilentNidhogg, Taakeferd, thenecromancer, undeadlich, VALERY, varlam4, vasiljev_sergej, Vitald, Wail, wreak, zhol,
May 10 2021, 12:34:31 Reign Of Athena - The Awakening (2021)


*Artist: Reign Of Athena
*Album: The Awakening
*Year: 2021
*Genre: Melodic Death Metal
*Country: United States
*Format: mp3@CBR320kbps
*Size: 115MB

Tracklist:
01. Truly A Liar 05:31
02. The High 03:18
03. Into The Den 05:08
04. The Fallen 04:11
05. Friendly Fire 03:45
06. Fight Or Flight 04:31
07. Breakdown 03:32
08. Paralyzed 03:57
09. No One 05:27
10. My Demise 03:59
11. Awaken 06:44
******************************
Total playing time: 50:03

[more=Technical info]
Input File: 01 - Truly A Liar.mp3
Channels : 2
Sample Rate : 44100
Precision : 16-bit
Duration : 00:05:30.00 = 14553000 samples = 24750 CDDA sectors
File Size : 13.3M
Bit Rate : 323k
Sample Encoding: MPEG audio (layer I, II or III)
Comments :
Title=Truly A Liar
Artist=Reign of Athena
Album=The Awakening
Tracknumber=1
Year=2021-10-05
Genre=Metal
Discnumber=1

[/more]

Register
(22) 6666666, caro, chipsgott, DenisKov, HMHamster, infiltrator, Lukittaz, Marek, MMMMM, Mogozoz, Olethros, satanist666, sergsazan, socrates9, stumpheavyrock, VALERY, varlam4, Wail, wanderer73, wreak, zhol, Сварог Барг,
May 9 2021, 23:40:08 Morokh - All The Darkness Looks Alive (2021)


*Artist: Morokh
*Album: All The Darkness Looks Alive
*Year: 2021
*Genre: Sludge/Black Metal/Hardcore
*Country: Russian Federation
*Format: mp3@CBR320kbps
*Size: 97MB

Tracklist:
01. Revenant 03:47
02. The Imprisoned 03:40
03. Nightmare 03:38
04. Witch 04:15
05. Denial 05:53
06. Solitude Song 03:56
07. Helix 03:36
08. The Cursed 04:19
09. Out of the Darkness 03:40
10. Faces of Death 05:10
******************************
Total playing time: 41:54

[more=Technical info]
Input File: 04 - Witch.mp3
Channels : 2
Sample Rate : 44100
Precision : 16-bit
Duration : 00:04:14.74 = 11233902 samples = 19105.3 CDDA sectors
File Size : 10.2M
Bit Rate : 322k
Sample Encoding: MPEG audio (layer I, II or III)
Comments :
Title=Witch
Artist=Morokh/Ultar
Album=All the Darkness Looks Alive
Tracknumber=4
Year=2021
Discnumber=1/1

[/more]

Register
(16) 6666666, Adskij, Aresson, Brann, caro, Golodomor, Hell_Is_Here, infiltrator, J0k3r, judaz, Olethros, Sanctus, Slam91, varlam4, Wail, wreak,
Apr 27 2021, 21:54:06 Stone Horns - Rise Of Apophis (2021)


*Artist: Stone Horns
*Album: Rise Of Apophis
*Year: 2021
*Genre: Groove/Thrash Metal
*Country: France
*Format: mp3@CBR320kbps
*Size: 89MB

Tracklist:
01. The Unborn
02. Molten River
03. From Amourphous To Hydra
04. Shores Of Kismeth
05. Night And Day
06. Surging Out The Nile
07. Invocation
08. Tide Of Blood & Bones
09. Rise Of Apophis
******************************
Total playing time: 37:55

[more=Technical info]
Input File: 02. Molten River.mp3
Channels : 2
Sample Rate : 44100
Precision : 16-bit
Duration : 00:04:16.25 = 11300713 samples = 19218.9 CDDA sectors
File Size : 10.5M
Bit Rate : 328k
Sample Encoding: MPEG audio (layer I, II or III)
Comments :
Title=Molten River
Artist=Stone Horns
Album=Rise of Apophis
Tracknumber=02/09
Year=2021

[/more]

Register
(8) after21allD, amiroo, boby9052, infiltrator, METALHUNTER, sludge666, Wail, wreak,
Apr 27 2021, 19:09:34 Krüger - Аномалия (2021)
Какая гадость 22.gif
(3) infiltrator, neludz, SAPOGi,
Apr 18 2021, 20:16:27 Skeptikon - Inner Eschaton (2021)


*Artist: Skeptikon
*Album: Inner Eschaton
*Year: 2021
*Genre: Blackened Death Metal
*Country: France
*Format: mp3@CBR320kbps
*Size: 103MB

Tracklist:
01. Subliminal Hypnosis
02. A Dark Trip
03. Voices
04. Eschaton
05. Chemical Straitjacket
06. Vicious Catalyst
07. Dimension D
08. Archontic Ending
******************************
Total playing time: 41:42

[more=Technical info]
Input File: 02. A Dark Trip.mp3
Channels : 2
Sample Rate : 44100
Precision : 16-bit
Duration : 00:05:46.09 = 15262657 samples = 25956.9 CDDA sectors
File Size : 14.3M
Bit Rate : 330k
Sample Encoding: MPEG audio (layer I, II or III)
Comments :
Title=A Dark Trip
Artist=Skeptikon
Album=Inner Eschaton (320)
Tracknumber=02
Year=2021
Genre=Metal

[/more]

Register
(15) AlexSmith, atavist, cesar, Hell_Is_Here, infiltrator, lldma, MMMMM, Olethros, randumbum, satanist666, soulflesh, VALERY, varlam4, vov7609, wreak,
Apr 15 2021, 20:44:37 Kwade Droes - Met Onoprechte Deelneming (2021)


*Artist: Kwade Droes
*Album: Met Onoprechte Deelneming
*Year: 2021
*Genre: Black Metal
*Country: Netherlands
*Format: mp3@CBR320kbps
*Size: 80MB

Tracklist:
01. Verkeerde Preek 08:05
02. Synode Van Satan 07:53
03. Na De Gestorrde Uitvaart 07:54
04. Duivelsindrijving 11:01
******************************
Total playing time: 34:53

[more=Technical info]
Input File: 02 - Synode Van Satan.mp3
Channels : 2
Sample Rate : 44100
Precision : 16-bit
Duration : 00:07:52.77 = 20849025 samples = 35457.5 CDDA sectors
File Size : 19.0M
Bit Rate : 321k
Sample Encoding: MPEG audio (layer I, II or III)
Comments :
Title=Synode Van Satan
Artist=Kwade Droes
Album=Met Onoprechte Deelneming
Tracknumber=2
Year=2021
Discnumber=1/1

[/more]

Register
(24) AlexSmith, atavist, Azumin1234, Bzth, Hell_Is_Here, helvetestoner, infiltrator, judaz, kim666, Marek, multizwilling, murian, nemx, Olethros, randumbum, robertho777, SilentNidhogg, smes, SyncestrA, VALERY, varlam4, vasiljev_sergej, wreak, yuratroll,
Apr 12 2021, 19:54:42 Family Devotion Murder - Tentacles (2021)


*Artist: Family Devotion Murder
*Album: Tentacles
*Year: 2021
*Genre: Death/Groove Metal
*Country: Italy
*Format: mp3@CBR320kbps
*Size: 109MB

Tracklist:
01. Intro Virus- Dead Land 02:05
02. Mr Junker Fuck Off 03:58
03. Back from the Pit 04:06
04. Banditismo 04:39
05. Cosa Nostra 03:34
06. Don Satan 05:31
07. World Decline 05:31
08. Feel My Blade 04:35
09. Padrino 02:42
10. Kraken 04:43
11. Warrior Satanico 05:30
******************************
Total playing time: 46:54

[more=Technical info]
Input File: 02 - Mr Junker Fuck Off.mp3
Channels : 2
Sample Rate : 44100
Precision : 16-bit
Duration : 00:03:58.59 = 10521907 samples = 17894.4 CDDA sectors
File Size : 9.69M
Bit Rate : 325k
Sample Encoding: MPEG audio (layer I, II or III)
Comments :
Title=Mr Junker Fuck Off
Artist=Family Devotion Murder
Album=Tentacles
Tracknumber=2
Year=2021
Discnumber=1/1

[/more]

Register
(9) caro, cesar, chipsgott, infiltrator, jollo, judaz, stumpheavyrock, Wail, wreak,
Apr 6 2021, 12:51:00 Omniscience - Dystopian Discourse [ep] (2021)


*Artist: Omniscience
*Album: Dystopian Discourse [ep]
*Year: 2021
*Genre: Death/Groove Metal
*Country: Mexico
*Format: mp3@CBR320kbps
*Size: 65MB

Tracklist:
01. World Domination
02. The Detachment of Reason
03. Bring a Breath of Your Own Life
04. Spiral
05. Last Speech...
06. ...of a Hero
******************************
Total playing time: 28:13

[more=Technical info]
Input File: 02. The Detachment of Reason.mp3
Channels : 2
Sample Rate : 44100
Precision : 16-bit
Duration : 00:05:05.14 = 13456454 samples = 22885.1 CDDA sectors
File Size : 12.2M
Bit Rate : 320k
Sample Encoding: MPEG audio (layer I, II or III)
Comments :
Title=The Detachment of Reason
Artist=Omniscience
Album=Dystopian Discourse
Tracknumber=02
Year=2021

[/more]

Register
(5) chipsgott, infiltrator, Olethros, varlam4, wreak,
Apr 5 2021, 21:04:45 Новости Folk/Pagan/Viking (3) Old Vyaine, RUDACHUR, VikTHOR,
Apr 3 2021, 23:54:43 Myrvandrer - Lenge Leve Livet (2021)


*Artist: Myrvandrer
*Album: Lenge Leve Livet
*Year: 2021
*Genre: Atmospheric Black Metal
*Country: Norway
*Format: mp3@CBR320kbps
*Size: 82MB

Tracklist:
01. Fenjas Threnodi 03:51
02. In Love (In Leaving) 05:39
03. Ferd 04:09
04. La Meg Hvile Over Sjøen 06:27
05. Ei Hulders Vuggevise 04:04
06. Fra Silkeseng Til Sot 05:18
07. Lenge Leve Livet 05:49
******************************
Total playing time: 35:17

[more=Technical info]
Input File: 02 - In Love (In Leaving).mp3
Channels : 2
Sample Rate : 44100
Precision : 16-bit
Duration : 00:05:39.09 = 14953913 samples = 25431.8 CDDA sectors
File Size : 13.7M
Bit Rate : 322k
Sample Encoding: MPEG audio (layer I, II or III)
Comments :
Title=In Love (In Leaving)
Artist=Myrvandrer
Album=Lenge Leve Livet
Tracknumber=2
Year=2021
Discnumber=1/1

[/more]

Register
(39) AlexSmith, alikkon, Bzth, cancer1974, cesar, daemonarch, dan22, gav-gafi, infiltrator, kim666, kimkayoung, kryptor, LEGION69, Lionheart-P, Lukittaz, Marek, maxxxy, Mencae77, metala, multizwilling, Old Vyaine, Olethros, Ostinato, randumbum, robertho777, satanist666, Scuns, sergsazan, Shadechaser, ShmiT, SilentNidhogg, Sjelekval, Taakeferd, VALERY, varlam4, vasiljev_sergej, wreak, zemlemer, дивин,
Apr 2 2021, 10:47:06 Everson Poe - Grief (2021)


*Artist: Everson Poe
*Album: Grief
*Year: 2021
*Genre: Post-Black Metal
*Country: United States
*Format: mp3@CBR320kbps
*Size: 112MB

Tracklist:
01. Denial 10:43
02. Anger 03:45
03. Bargaining 10:07
04. Depression 14:03
05. Acceptance 10:15
******************************
Total playing time: 48:53

[more=Technical info]
Input File: 02 - Anger.mp3
Channels : 2
Sample Rate : 44100
Precision : 16-bit
Duration : 00:03:44.85 = 9915929 samples = 16863.8 CDDA sectors
File Size : 9.07M
Bit Rate : 323k
Sample Encoding: MPEG audio (layer I, II or III)
Comments :
Title=Anger
Artist=Everson Poe
Album=Grief
Tracknumber=2
Year=2021
Discnumber=1/1

[/more]

Register
(13) aleon, ctulhudagon, infiltrator, kim666, kimkayoung, nemx, Olethros, randumbum, robertho777, SilentNidhogg, VALERY, varlam4, wreak,
Mar 22 2021, 09:19:52 Новости Folk/Pagan/Viking
WOLFCHANT
Трек-лист:

Disc I
01. Omega : Bestia
02. Komet
03. Into Eternal Darkness
04. Im Zeichen Des Tiers
05. Der Geist Und Die Dunkelheit
06. Bestie
07. Jäger Der Nacht
08. Out In The Dark
09. The Flame

Disc II (digipak)
01. Kelch Deiner Freiheit
02. Wolkenheer
03. The Last Storm
04. The Devil Rides Out
05. The End

Disc III (Deluxe box bonus)
01. A Pagan Storm
02. Winterhymn
03. Hail And Kill
04. Rebellion (The Clans Are Marching)
05. 70.000 Tons Of Metal

[youtube]j0Gmks3riaE[/youtube]
(1) kostja,
Mar 9 2021, 13:31:46 The Furor - Obliteration Matrix (2021)


*Artist: The Furor
*Album: Obliteration Matrix
*Year: 2021
*Genre: Black/Death Metal
*Country: Australia
*Format: mp3@CBR320kbps
*Size: 91MB

Tracklist:
01. Surging Curse Assassin
02. Necrorebellion
03. The Hammerstorm Forecast
04. Wrath of Abraxas
05. The Funeral Abominator
06. Titan Demigods Descend
07. Immortal Vortex Rising
08. Destination Damnation
******************************
Total playing time: 39:46

[more=Technical info]
Input File: 02. Necrorebellion.mp3
Channels : 2
Sample Rate : 44100
Precision : 16-bit
Duration : 00:04:41.17 = 12399773 samples = 21088 CDDA sectors
File Size : 11.2M
Bit Rate : 320k
Sample Encoding: MPEG audio (layer I, II or III)
Comments :
Title=Necrorebellion
Artist=The Furor
Album=Obliteration Matrix
Tracknumber=02
Year=2021

[/more]

Register
(23) AlexSmith, atavist, gena, Hell_Is_Here, infiltrator, LokoMadriz, marilin, Mencae77, metala, MMMMM, Olethros, randumbum, SadistikSlayer, Shadechaser, SilentNidhogg, Taakeferd, VALERY, varlam4, vasiljev_sergej, Victim of fate, vov7609, wanderer73, wreak,
Mar 6 2021, 10:52:19 Mezereum - Mezereum Ii (2021)


*Artist: Mezereum
*Album: Mezereum Ii
*Year: 2021
*Genre: Black Metal
*Country: Lithuania
*Format: mp3@CBR320kbps
*Size: 107MB

Tracklist:
01. Imperative 06:00
02. Tacit 04:18
03. Deterrent 06:56
04. Reverie 04:11
05. Quandary 06:36
06. Aversion 07:28
07. Erstwhile 10:45
******************************
Total playing time: 46:14

[more=Technical info]
Input File: 02 - Tacit.mp3
Channels : 2
Sample Rate : 44100
Precision : 16-bit
Duration : 00:04:18.21 = 11387105 samples = 19365.8 CDDA sectors
File Size : 10.4M
Bit Rate : 322k
Sample Encoding: MPEG audio (layer I, II or III)
Comments :
Title=Tacit
Artist=Mezereum
Album=Mezereum II
Tracknumber=2
Year=2021
Discnumber=1/1

[/more]

Register
(19) atavist, infiltrator, kim666, Korpse, Krosis, legion01, nemx, Olethros, randumbum, robertho777, satanist666, SilentNidhogg, smes, Taakeferd, VALERY, varlam4, vasiljev_sergej, wreak, дивин,
Feb 9 2021, 14:19:12 Новости Black-направления
[youtube]jQd9npyQdGA[/youtube]
(3) infiltrator, mondlicht, Qliphoth,
Feb 5 2021, 00:25:48 Bellwethr - Into The Twisted Limbs (2021)


*Artist: Bellwethr
*Album: Into The Twisted Limbs
*Year: 2021
*Genre: Depressive Black Metal
*Country: United States
*Format: mp3@CBR320kbps
*Size: 148MB

Tracklist:
01. Fading 02:10
02. Revelation in Solemn Oak 24:59
03. Interlude 04:01
04. A Plea to the Somber 06:52
05. Autumn Brings My Dread 06:24
06. Interlude II 03:20
07. Eternal Repose 08:57
08. Memento Mori 07:22
******************************
Total playing time: 1:04:05

[more=Technical info]
Input File: 04 - A Plea to the Somber.mp3
Channels : 2
Sample Rate : 44100
Precision : 16-bit
Duration : 00:06:51.74 = 18157778 samples = 30880.6 CDDA sectors
File Size : 16.6M
Bit Rate : 322k
Sample Encoding: MPEG audio (layer I, II or III)
Comments :
Title=A Plea to the Somber
Artist=Bellwethr
Album=Into the Twisted Limbs
Tracknumber=4
Year=2021
Discnumber=1/1

[/more]

Register
(19) aleon, AlexSmith, alikkon, infiltrator, kim666, lekram, metala, Olethros, Ostinato, randumbum, robertho777, Rosen, SilentNidhogg, stone88, Taakeferd, VALERY, varlam4, vasiljev_sergej, wreak,
Jan 23 2021, 14:25:43 Новости Death Metal направления
[youtube]YZmWZ_8qpQM[/youtube]
(3) infiltrator, sabr, THROWER666,
Jan 15 2021, 21:58:49 Новости Death Metal направления
(5) Chasm, Emm Human, infiltrator, obscenity, Occultas,
Jan 8 2021, 20:49:51 Konquest - The Night Goes On (2021)
ЦИТАТА(nikitakapernaumov @ Jan 8 2021, 20:03:27) *
трольте ковонить другова. а у сабжа вон уже две прадажы за вечер на бэндкампе

Ты что с детского сада? 13.gif
(1) Victim of fate,

56 Pages V   1 2 3 > » 
- Lo-Fi Version Support form
Copyrights and abuse reports form
Time is now: 28th July 2021 - 18:56:31