Welcome Guest ( Log In | Register )

История благодарностей участнику vasilisk ::: Спасибо сказали: 9824 раз(а)
Дата поста: В теме: За сообщение: Спасибо сказали:
Oct 21 2021, 12:35:22 Corpus Vitreum - Steel Coffins [single] (2021)


*Artist: Corpus Vitreum
*Album: Steel Coffins [single]
*Year: 2021
*Genre: Atmospheric/Post-Black Metal
*Country: Germany
*Format: mp3@CBR320kbps
*Size: 38MB

Tracklist:
01. Steel Coffins 10:23
02. The Roots of: Steel Coffins 05:48
******************************
Total playing time: 16:11

[more=Technical info]
Input File: 02 - The Roots of_ Steel Coffins.mp3
Channels : 2
Sample Rate : 44100
Precision : 16-bit
Duration : 00:05:48.00 = 15346800 samples = 26100 CDDA sectors
File Size : 14.0M
Bit Rate : 322k
Sample Encoding: MPEG audio (layer I, II or III)
Comments :
Title=The Roots of: Steel Coffins
Artist=Corpus Vitreum
Album=Steel Coffins
Tracknumber=2
Year=2021-10-06
Genre=Metal
Discnumber=1

[/more]

Register
(7) aleon, artscald, caro, kim666, robertho777, Taakeferd, vasiljev_sergej,
Oct 17 2021, 11:32:46 Light Being - A Way In To Dreams (2021)


*Artist: Light Being
*Album: A Way In To Dreams
*Year: 2021
*Genre: Black Metal
*Country: United States
*Format: mp3@CBR320kbps
*Size: 119MB

Tracklist:
01. Adrift 05:39
02. Inverted 05:43
03. Hologram 06:34
04. Shadows 03:49
05. Rounds 04:26
06. Between 07:01
07. Downpour 04:25
08. D'wel 03:56
09. Petrous 09:26
******************************
Total playing time: 50:59

[more=Technical info]
Input File: 01 - Adrift.mp3
Channels : 2
Sample Rate : 44100
Precision : 16-bit
Duration : 00:05:38.00 = 14905800 samples = 25350 CDDA sectors
File Size : 13.7M
Bit Rate : 325k
Sample Encoding: MPEG audio (layer I, II or III)
Comments :
Title=Adrift
Artist=Light Being
Album=A Way in to Dreams
Tracknumber=1
Year=2021-10-15
Genre=Alternative
Discnumber=1

[/more]

Register
(15) AlexSmith, artscald, caro, julianotidre, kefka, kim666, Marek, Olethros, robertho777, SadistikSlayer, stormhatt, stub888, Taakeferd, vasiljev_sergej, yarrsuaa,
Oct 16 2021, 20:53:50 Cendre - Eris (2021)


*Artist: Cendre
*Album: Eris
*Year: 2021
*Genre: Atmospheric/Post-Black Metal
*Country: Germany
*Format: mp3@CBR320kbps
*Size: 80MB

Tracklist:
01. Golden Cages 7:05
02. Circles 8:04
03. Eris 6:29
04. Interlude 6:56
05. Coma 5:43
******************************
Total playing time: 34:17

[more=Technical info]
Input File: 05. Coma.mp3
Channels : 2
Sample Rate : 44100
Precision : 16-bit
Duration : 00:05:43.30 = 15139398 samples = 25747.3 CDDA sectors
File Size : 13.8M
Bit Rate : 322k
Sample Encoding: MPEG audio (layer I, II or III)
Comments :
Title=Coma
Artist=Cendre
Album=Eris
Tracknumber=5
Year=2021
Genre=Post-Black

[/more]

Register
(16) aleon, AlexSmith, artscald, Carcharoth, caro, kim666, LEGION69, Mencae77, murian, Olethros, Olrak, robertho777, sergsazan, sludge666, vasiljev_sergej, vov7609,
Oct 11 2021, 11:06:44 Renuen - For Grace For Sorrow [compilation] (2021)


*Artist: Renuen
*Album: For Grace For Sorrow [compilation]
*Year: 2021
*Genre: Melodic Death Metal
*Country: Belarus
*Format: mp3@CBR320kbps
*Size: 186MB

Tracklist:
01. In Search of God 04:04
02. Midnight in My Heart 04:43
03. Beautiful Sacrifice 04:07
04. For Grace for Sorrow 04:13
05. A Letter from Hell 04:22
06. Between Flesh and Soul 04:55
07. Devaluation of Consciousness 04:04
08. Way for Freedom 04:34
09. Washed Off by Blood 03:57
10. Nightmare on Your Street 04:39
11. Weaving the Web 05:22
12. Kill Me If I'm Dead 03:43
13. System Is Dead 04:40
14. Frozen Glance 04:03
15. Last October 04:38
16. Distorted Reality 04:59
17. Misplaced in the Past 04:44
18. Your Slave 03:55
******************************
Total playing time: 1:19:42

[more=Technical info]
Input File: 02 - Midnight In My Heart.mp3
Channels : 2
Sample Rate : 44100
Precision : 16-bit
Duration : 00:04:43.00 = 12480300 samples = 21225 CDDA sectors
File Size : 11.5M
Bit Rate : 325k
Sample Encoding: MPEG audio (layer I, II or III)
Comments :
Title=Midnight In My Heart
Artist=Renuen
Album=For Grace For Sorrow
Tracknumber=2
Year=2021-10-09
Genre=Metal
Discnumber=1

[/more]

Register
(4) artscald, caro, infozahist, Taakeferd,
Sep 7 2021, 15:31:48 Morose Death - The End (2021)


*Artist: Morose Death
*Album: The End
*Year: 2021
*Genre: Death Metal
*Country: Poland
*Format: mp3@CBR320kbps
*Size: 82MB

Tracklist:
01. Intro 01:07
02. Eternal Suffer 02:51
03. War of the One Moment 01:38
04. Professional Killing 02:43
05. Absurd 03:57
06. The Dogs of War 04:01
07. Agression 02:33
08. Resemblance of Perfection 07:04
09. The End 05:04
******************************
Total playing time: 30:58

[more=Technical info]
Input File: 04. Professional Killing.mp3
Channels : 2
Sample Rate : 44100
Precision : 16-bit
Duration : 00:02:43.38 = 7205146 samples = 12253.6 CDDA sectors
File Size : 6.54M
Bit Rate : 320k
Sample Encoding: MPEG audio (layer I, II or III)
Comments :
Title=Professional Killing
Artist=Morose Death
Album=The End
Tracknumber=04
Year=2021

[/more]

Register
(26) alikkon, andreikun, Bzth, caro, cesar, chipsgott, Deada, jollo, Marek, Mist13Signifier, MMMMM, Olethros, pabedit, stumpheavyrock, supremo, Taakeferd, TeamatSE, Tino, VALERY, Vitald, vov7609, vyacheslav, Wail, WOLAND, wreak, yavamir,
Sep 2 2021, 11:36:38 Новости Folk/Pagan/Viking
NEGURĂ BUNGET 26 ноября

[youtube]fplEaFIs2no[/youtube]
Трек-лист:

"Brad"
"Iarba Fiarelor"
"Obrăzar"
"Tinerețe Fără Bătrânețe"
"Toacă Din Cer"
(1) Antichrist,
Aug 30 2021, 13:37:38 Новости Death Metal направления
[youtube]HytVh5zefUo[/youtube]
(5) Antichrist, METALHUNTER, sabr, technoboy69, THROWER666,
Aug 27 2021, 20:23:23 Новости Death Metal направления
OPHISwith a new album in the wings
Could you tell me what is the most rotten funeral Death/Doom band ? OPHIS from Germany ? Yep, you're right. The band is back with their 5th. full length album. Six brandnew songs in 63 minutes musical melancholy, the soundtrack of autumn and winter, of sorrow, pain and doom.
The new album called „SPEW FORTH ODIUM“ was recorded at Blastbeat Productions Studio/ Kiel, the drums was recorded, the album mixed and mastered by Jens Ballaschke at 3rd. A. Studio/ Hamburg. The new drummer Ole is responsible for the artwork and layout.
„Spew Forth Odium“ will be out 29.10.2021 on CD and DL by FDA Records. Because of the messy situation and delivery time out of the vinyl pressing plant, we set the release date for the Double LP to 17.12.2021.
Pre-orders are possible to place in a few days. During the pre-sale period we're offering special bundles for special prices and strictly limited editions. So it's definitely worth ordering in advance.
There will be more detailed information within the next few days.
Track listing:
01. Default Empty (9:04)
02. Of Stygian Descent (9:30)
03. Conflagration Eternal (11:28)
04. Temple of Scourges (10:35)
05. The Perennial Wound (9:45)
06. The Stagnant Room (13:22)



https://www.youtube.com/watch?time_continue...eature=emb_logo
(1) Chasm,
Aug 20 2021, 08:15:58 Новости Death Metal направления
[youtube]8UhhoJ5-k24[/youtube]
(4) Antichrist, Decapitated, obscenity, sabr,
Jul 8 2021, 15:49:08 Gospod - Israel's Exodus (2021)


*Artist: Gospod
*Album: Israel's Exodus
*Year: 2021
*Genre: Atmospheric Black Metal
*Country: Russian Federation
*Format: mp3@CBR320kbps
*Size: 83MB

Tracklist:
01. The Oppresion of Israel (Exodus 1) 05:41
02. The Birth of Moses (Exodus 2) 03:48
03. The Burning Bush (Exodus 3) 02:36
04. Signs for Moses (Exodus 4) 05:22
05. Let My People Go (Exodus 5) 04:00
06. God Speaks to Moses (Exodus 6) 03:10
07. The Hardening of Pharaohs Heart (Exodus 7) 06:20
08. Refusal Warnings (Exodus 8) 04:23
******************************
Total playing time: 35:20

[more=Technical info]
Input File: 04 - Signs for Moses (Exodus 4).mp3
Channels : 2
Sample Rate : 44100
Precision : 16-bit
Duration : 00:05:21.72 = 14187764 samples = 24128.9 CDDA sectors
File Size : 13.1M
Bit Rate : 325k
Sample Encoding: MPEG audio (layer I, II or III)
Comments :
Title=Signs for Moses (Exodus 4)
Artist=Gospod
Album=Israel's Exodus
Tracknumber=4
Year=2021
Discnumber=1/1

[/more]

Register
(14) caro, cesar, kim666, Lukittaz, metala, Old Vyaine, Olethros, Olrak, robertho777, Shadechaser, SilentNidhogg, varlam4, wreak, Авел,
Jul 8 2021, 09:55:43 Wintaar - Pain Is Every Memory (2021)


*Artist: Wintaar
*Album: Pain Is Every Memory
*Year: 2021
*Genre: Atmospheric Black Metal
*Country: Russian Federation
*Format: mp3@CBR320kbps
*Size: 131MB

Tracklist:
01. Black Stone 07:35
02. Eternal Rites 08:29
03. Coffins Under Ashes 07:53
04. Scream From The Ground 06:29
05. Omnipresent Pain 07:34
06. Dying 10:33
07. The Only Truth Of Existence 08:07
******************************
Total playing time: 56:40

[more=Technical info]
Input File: 04 - Scream From The Ground.mp3
Channels : 2
Sample Rate : 44100
Precision : 16-bit
Duration : 00:06:29.43 = 17173951 samples = 29207.4 CDDA sectors
File Size : 15.7M
Bit Rate : 322k
Sample Encoding: MPEG audio (layer I, II or III)
Comments :
Title=Scream From The Ground
Artist=Wintaar
Album=Pain Is Every Memory
Tracknumber=4
Year=2021
Discnumber=1/1

[/more]

Register
(28) aleon, AlexSmith, alikkon, caro, Froze, HMHamster, infernallord, kim666, Lukittaz, metala, nemx, oldvarg, Olethros, Ostinato, robertho777, Shadechaser, SilentNidhogg, Slam91, supremo, Taakeferd, VALERY, varlam4, vasiljev_sergej, vosmidesijatye, Wail, Wilczygniew Strzygoń, wreak, zobero,
Jun 16 2021, 09:31:24 Cicada The Burrower - Corpseflower (2021)


*Artist: Cicada The Burrower
*Album: Corpseflower
*Year: 2021
*Genre: Progressive Black Metal
*Country: United States
*Format: mp3@CBR320kbps
*Size: 71MB

Tracklist:
01. The Fever Room
02. Glamour
03. Where Old Crystals Grow
04. Psilocybin Death Spiral
05. Corpseflower
******************************
Total playing time: 30:47

[more=Technical info]
Input File: 03. Where Old Crystals Grow.mp3
Channels : 2
Sample Rate : 44100
Precision : 16-bit
Duration : 00:04:03.56 = 10740820 samples = 18266.7 CDDA sectors
File Size : 9.90M
Bit Rate : 325k
Sample Encoding: MPEG audio (layer I, II or III)
Comments :
Title=Where Old Crystals Grow
Artist=Cicada the Burrower
Album=Corpseflower
Tracknumber=3/5
Year=2021

[/more]

Register
(19) AlexSmith, artscald, bOOLty, caro, infiltrator, Marek, nemx, Olethros, Ostinato, robertho777, Rover, SilentNidhogg, supremo, Tyrone, VALERY, varlam4, Wail, wreak, xcvbnmrty,
Jun 3 2021, 08:23:11 Satlan - Panacea (2021)


*Artist: Satlan
*Album: Panacea
*Year: 2021
*Genre: Psychedelic/Stoner/Doom Metal
*Country: United Kingdom
*Format: mp3@CBR320kbps
*Size: 110MB

Tracklist:
01. Control 09:41
02. Nash 08:35
03. Ode 09:14
04. Kingmaker 10:07
05. Watchmen 06:08
06. Insanity 03:28
******************************
Total playing time: 47:13

[more=Technical info]
Input File: 05 - Watchmen.mp3
Channels : 2
Sample Rate : 44100
Precision : 16-bit
Duration : 00:06:08.22 = 16238458 samples = 27616.4 CDDA sectors
File Size : 14.9M
Bit Rate : 324k
Sample Encoding: MPEG audio (layer I, II or III)
Comments :
Title=Watchmen
Artist=Satlan
Album=Panacea
Tracknumber=5
Year=2021
Discnumber=1/1

[/more]

Register
(7) bOOLty, infiltrator, marilin, Olethros, VALERY, Wail, wreak,
May 30 2021, 10:48:29 Im Tode - In Diabolic Darkness [ep] (2021)


*Artist: Im Tode
*Album: In Diabolic Darkness [ep]
*Year: 2021
*Genre: Melodic Death/Black Metal
*Country: United States
*Format: mp3@CBR320kbps
*Size: 71MB

Tracklist:
01. Covered in Mirrors
02. The Violating Cold
03. In Diabolic Darkness
04. Fangs of Death
05. Beheading God in Heaven
06. Under Pestilent Skies
07. Brides of Blood
08. Ancient Curses of Oblivion
******************************
Total playing time: 28:22

[more=Technical info]
Input File: 02. The Violating Cold.mp3
Channels : 2
Sample Rate : 44100
Precision : 16-bit
Duration : 00:03:40.02 = 9702794 samples = 16501.4 CDDA sectors
File Size : 8.89M
Bit Rate : 323k
Sample Encoding: MPEG audio (layer I, II or III)
Comments :
Title=The Violating Cold
Artist=Im Tode
Album=In Diabolic Darkness
Tracknumber=2
Year=2021
Discnumber=1

[/more]

Register
(21) BugEyes, Carcharoth, caro, chipsgott, DeathDragon, infiltrator, Lukittaz, Marek, Mogozoz, Olethros, satanist666, sergsazan, Shadechaser, Taakeferd, VALERY, varlam4, vasiljev_sergej, Wail, wreak, zhol, Сварог Барг,
May 13 2021, 20:32:00 Tundra - The Mirror Of Elizabeth [ep] (2021)


*Artist: Tundra
*Album: The Mirror Of Elizabeth [ep]
*Year: 2021
*Genre: Black Metal
*Country: Italy
*Format: mp3@CBR320kbps
*Size: 57MB

Tracklist:
01. Buio 1:19
02. Death From Above 6:36
03. Return To Darkside 6:34
04. The Mirror Of Elizabeth 6:21
05. The Triumphant March Of Death 3:26
******************************
Total playing time: 24:16

[more=Technical info]
Input File: 04 - The Mirror Of Elizabeth.mp3
Channels : 2
Sample Rate : 44100
Precision : 16-bit
Duration : 00:06:21.44 = 16821416 samples = 28607.9 CDDA sectors
File Size : 15.4M
Bit Rate : 323k
Sample Encoding: MPEG audio (layer I, II or III)
Comments :
Title=The Mirror Of Elizabeth
Artist=Tundra
Album=The Mirror Of Elizabeth
Tracknumber=4
Year=2021
Discnumber=1/1

[/more]

Register
(25) blacky66, cesar, Ildjarn, infiltrator, kefka, kim666, kimkayoung, Marek, Olethros, postal67, recber, ripper33, robertho777, satanist666, SilentNidhogg, Taakeferd, thenecromancer, undeadlich, VALERY, varlam4, vasiljev_sergej, Vitald, Wail, wreak, zhol,
May 10 2021, 12:34:31 Reign Of Athena - The Awakening (2021)


*Artist: Reign Of Athena
*Album: The Awakening
*Year: 2021
*Genre: Melodic Death Metal
*Country: United States
*Format: mp3@CBR320kbps
*Size: 115MB

Tracklist:
01. Truly A Liar 05:31
02. The High 03:18
03. Into The Den 05:08
04. The Fallen 04:11
05. Friendly Fire 03:45
06. Fight Or Flight 04:31
07. Breakdown 03:32
08. Paralyzed 03:57
09. No One 05:27
10. My Demise 03:59
11. Awaken 06:44
******************************
Total playing time: 50:03

[more=Technical info]
Input File: 01 - Truly A Liar.mp3
Channels : 2
Sample Rate : 44100
Precision : 16-bit
Duration : 00:05:30.00 = 14553000 samples = 24750 CDDA sectors
File Size : 13.3M
Bit Rate : 323k
Sample Encoding: MPEG audio (layer I, II or III)
Comments :
Title=Truly A Liar
Artist=Reign of Athena
Album=The Awakening
Tracknumber=1
Year=2021-10-05
Genre=Metal
Discnumber=1

[/more]

Register
(22) 6666666, caro, chipsgott, DenisKov, HMHamster, infiltrator, Lukittaz, Marek, MMMMM, Mogozoz, Olethros, satanist666, sergsazan, socrates9, stumpheavyrock, VALERY, varlam4, Wail, wanderer73, wreak, zhol, Сварог Барг,
May 9 2021, 23:40:08 Morokh - All The Darkness Looks Alive (2021)


*Artist: Morokh
*Album: All The Darkness Looks Alive
*Year: 2021
*Genre: Sludge/Black Metal/Hardcore
*Country: Russian Federation
*Format: mp3@CBR320kbps
*Size: 97MB

Tracklist:
01. Revenant 03:47
02. The Imprisoned 03:40
03. Nightmare 03:38
04. Witch 04:15
05. Denial 05:53
06. Solitude Song 03:56
07. Helix 03:36
08. The Cursed 04:19
09. Out of the Darkness 03:40
10. Faces of Death 05:10
******************************
Total playing time: 41:54

[more=Technical info]
Input File: 04 - Witch.mp3
Channels : 2
Sample Rate : 44100
Precision : 16-bit
Duration : 00:04:14.74 = 11233902 samples = 19105.3 CDDA sectors
File Size : 10.2M
Bit Rate : 322k
Sample Encoding: MPEG audio (layer I, II or III)
Comments :
Title=Witch
Artist=Morokh/Ultar
Album=All the Darkness Looks Alive
Tracknumber=4
Year=2021
Discnumber=1/1

[/more]

Register
(16) 6666666, Adskij, Aresson, Brann, caro, Golodomor, Hell_Is_Here, infiltrator, J0k3r, judaz, Olethros, Sanctus, Slam91, varlam4, Wail, wreak,
Apr 27 2021, 21:54:06 Stone Horns - Rise Of Apophis (2021)


*Artist: Stone Horns
*Album: Rise Of Apophis
*Year: 2021
*Genre: Groove/Thrash Metal
*Country: France
*Format: mp3@CBR320kbps
*Size: 89MB

Tracklist:
01. The Unborn
02. Molten River
03. From Amourphous To Hydra
04. Shores Of Kismeth
05. Night And Day
06. Surging Out The Nile
07. Invocation
08. Tide Of Blood & Bones
09. Rise Of Apophis
******************************
Total playing time: 37:55

[more=Technical info]
Input File: 02. Molten River.mp3
Channels : 2
Sample Rate : 44100
Precision : 16-bit
Duration : 00:04:16.25 = 11300713 samples = 19218.9 CDDA sectors
File Size : 10.5M
Bit Rate : 328k
Sample Encoding: MPEG audio (layer I, II or III)
Comments :
Title=Molten River
Artist=Stone Horns
Album=Rise of Apophis
Tracknumber=02/09
Year=2021

[/more]

Register
(8) after21allD, amiroo, boby9052, infiltrator, METALHUNTER, sludge666, Wail, wreak,
Apr 27 2021, 19:09:34 Krüger - Аномалия (2021)
Какая гадость 22.gif
(3) infiltrator, neludz, SAPOGi,
Apr 18 2021, 20:16:27 Skeptikon - Inner Eschaton (2021)


*Artist: Skeptikon
*Album: Inner Eschaton
*Year: 2021
*Genre: Blackened Death Metal
*Country: France
*Format: mp3@CBR320kbps
*Size: 103MB

Tracklist:
01. Subliminal Hypnosis
02. A Dark Trip
03. Voices
04. Eschaton
05. Chemical Straitjacket
06. Vicious Catalyst
07. Dimension D
08. Archontic Ending
******************************
Total playing time: 41:42

[more=Technical info]
Input File: 02. A Dark Trip.mp3
Channels : 2
Sample Rate : 44100
Precision : 16-bit
Duration : 00:05:46.09 = 15262657 samples = 25956.9 CDDA sectors
File Size : 14.3M
Bit Rate : 330k
Sample Encoding: MPEG audio (layer I, II or III)
Comments :
Title=A Dark Trip
Artist=Skeptikon
Album=Inner Eschaton (320)
Tracknumber=02
Year=2021
Genre=Metal

[/more]

Register
(15) AlexSmith, atavist, cesar, Hell_Is_Here, infiltrator, lldma, MMMMM, Olethros, randumbum, satanist666, soulflesh, VALERY, varlam4, vov7609, wreak,
Apr 15 2021, 20:44:37 Kwade Droes - Met Onoprechte Deelneming (2021)


*Artist: Kwade Droes
*Album: Met Onoprechte Deelneming
*Year: 2021
*Genre: Black Metal
*Country: Netherlands
*Format: mp3@CBR320kbps
*Size: 80MB

Tracklist:
01. Verkeerde Preek 08:05
02. Synode Van Satan 07:53
03. Na De Gestorrde Uitvaart 07:54
04. Duivelsindrijving 11:01
******************************
Total playing time: 34:53

[more=Technical info]
Input File: 02 - Synode Van Satan.mp3
Channels : 2
Sample Rate : 44100
Precision : 16-bit
Duration : 00:07:52.77 = 20849025 samples = 35457.5 CDDA sectors
File Size : 19.0M
Bit Rate : 321k
Sample Encoding: MPEG audio (layer I, II or III)
Comments :
Title=Synode Van Satan
Artist=Kwade Droes
Album=Met Onoprechte Deelneming
Tracknumber=2
Year=2021
Discnumber=1/1

[/more]

Register
(25) AlexSmith, atavist, Azumin1234, Bzth, Hell_Is_Here, helvetestoner, infiltrator, judaz, kim666, Marek, multizwilling, murian, nemx, Olethros, randumbum, robertho777, SilentNidhogg, smes, SyncestrA, VALERY, varlam4, vasiljev_sergej, wreak, yuratroll, Абигор,
Apr 12 2021, 19:54:42 Family Devotion Murder - Tentacles (2021)


*Artist: Family Devotion Murder
*Album: Tentacles
*Year: 2021
*Genre: Death/Groove Metal
*Country: Italy
*Format: mp3@CBR320kbps
*Size: 109MB

Tracklist:
01. Intro Virus- Dead Land 02:05
02. Mr Junker Fuck Off 03:58
03. Back from the Pit 04:06
04. Banditismo 04:39
05. Cosa Nostra 03:34
06. Don Satan 05:31
07. World Decline 05:31
08. Feel My Blade 04:35
09. Padrino 02:42
10. Kraken 04:43
11. Warrior Satanico 05:30
******************************
Total playing time: 46:54

[more=Technical info]
Input File: 02 - Mr Junker Fuck Off.mp3
Channels : 2
Sample Rate : 44100
Precision : 16-bit
Duration : 00:03:58.59 = 10521907 samples = 17894.4 CDDA sectors
File Size : 9.69M
Bit Rate : 325k
Sample Encoding: MPEG audio (layer I, II or III)
Comments :
Title=Mr Junker Fuck Off
Artist=Family Devotion Murder
Album=Tentacles
Tracknumber=2
Year=2021
Discnumber=1/1

[/more]

Register
(9) caro, cesar, chipsgott, infiltrator, jollo, judaz, stumpheavyrock, Wail, wreak,
Apr 6 2021, 12:51:00 Omniscience - Dystopian Discourse [ep] (2021)


*Artist: Omniscience
*Album: Dystopian Discourse [ep]
*Year: 2021
*Genre: Death/Groove Metal
*Country: Mexico
*Format: mp3@CBR320kbps
*Size: 65MB

Tracklist:
01. World Domination
02. The Detachment of Reason
03. Bring a Breath of Your Own Life
04. Spiral
05. Last Speech...
06. ...of a Hero
******************************
Total playing time: 28:13

[more=Technical info]
Input File: 02. The Detachment of Reason.mp3
Channels : 2
Sample Rate : 44100
Precision : 16-bit
Duration : 00:05:05.14 = 13456454 samples = 22885.1 CDDA sectors
File Size : 12.2M
Bit Rate : 320k
Sample Encoding: MPEG audio (layer I, II or III)
Comments :
Title=The Detachment of Reason
Artist=Omniscience
Album=Dystopian Discourse
Tracknumber=02
Year=2021

[/more]

Register
(5) chipsgott, infiltrator, Olethros, varlam4, wreak,
Apr 5 2021, 21:04:45 Новости Folk/Pagan/Viking (3) Old Vyaine, RUDACHUR, VikTHOR,
Apr 3 2021, 23:54:43 Myrvandrer - Lenge Leve Livet (2021)


*Artist: Myrvandrer
*Album: Lenge Leve Livet
*Year: 2021
*Genre: Atmospheric Black Metal
*Country: Norway
*Format: mp3@CBR320kbps
*Size: 82MB

Tracklist:
01. Fenjas Threnodi 03:51
02. In Love (In Leaving) 05:39
03. Ferd 04:09
04. La Meg Hvile Over Sjøen 06:27
05. Ei Hulders Vuggevise 04:04
06. Fra Silkeseng Til Sot 05:18
07. Lenge Leve Livet 05:49
******************************
Total playing time: 35:17

[more=Technical info]
Input File: 02 - In Love (In Leaving).mp3
Channels : 2
Sample Rate : 44100
Precision : 16-bit
Duration : 00:05:39.09 = 14953913 samples = 25431.8 CDDA sectors
File Size : 13.7M
Bit Rate : 322k
Sample Encoding: MPEG audio (layer I, II or III)
Comments :
Title=In Love (In Leaving)
Artist=Myrvandrer
Album=Lenge Leve Livet
Tracknumber=2
Year=2021
Discnumber=1/1

[/more]

Register
(39) AlexSmith, alikkon, Bzth, cancer1974, cesar, daemonarch, dan22, gav-gafi, infiltrator, kim666, kimkayoung, kryptor, LEGION69, Lionheart-P, Lukittaz, Marek, maxxxy, Mencae77, metala, multizwilling, Old Vyaine, Olethros, Ostinato, randumbum, robertho777, satanist666, Scuns, sergsazan, Shadechaser, ShmiT, SilentNidhogg, Sjelekval, Taakeferd, VALERY, varlam4, vasiljev_sergej, wreak, zemlemer, дивин,

57 Pages V   1 2 3 > » 
- Lo-Fi Version Support form
Copyrights and abuse reports form
Time is now: 24th October 2021 - 07:52:33