Welcome Guest ( Log In | Register )

История благодарностей участнику vasilisk ::: Спасибо сказали: 9664 раз(а)
Дата поста: В теме: За сообщение: Спасибо сказали:
Dec 8 2020, 14:47:19 Новости Folk/Pagan/Viking
EINHERJER
[youtube]tSIu0pRU1Rc[/youtube]
(1) suseka,
Dec 7 2020, 10:07:07 Druon Antigon - Desontstijging (2020)


*Artist: Druon Antigon
*Album: Desontstijging
*Year: 2020
*Genre: Black Metal
*Country: United Kingdom
*Format: mp3@CBR320kbps
*Size: 91MB

Tracklist:
01. Zinloos 10:13
02. Herrijzenis 08:45
03. Like Gods 07:36
04. Weavess 12:46
******************************
Total playing time: 39:20

[more=Technical info]
Input File: 03 - Like Gods.mp3
Channels : 2
Sample Rate : 44100
Precision : 16-bit
Duration : 00:07:36.20 = 20118596 samples = 34215.3 CDDA sectors
File Size : 18.4M
Bit Rate : 322k
Sample Encoding: MPEG audio (layer I, II or III)
Comments :
Title=Like Gods
Artist=Druon Antigon
Album=Desontstijging
Tracknumber=3
Year=2020
Discnumber=1/1

[/more]

Register
(20) 1968_janeart, AlexSmith, El_Chibo, infiltrator, kim666, Kuratsu, multizwilling, Necromag, Occultas, Olethros, Ostinato, randumbum, robertho777, Rosen, SilentNidhogg, toly1917, VALERY, varlam4, vasiljev_sergej, wreak,
Nov 21 2020, 23:32:49 Ildrasun - Kingdom On The Shore (2020)


*Artist: Ildrasun
*Album: Kingdom On The Shore
*Year: 2020
*Genre: Post-Black Metal
*Country: United States
*Format: mp3@CBR320kbps
*Size: 96MB

Tracklist:
1. Kingdom on the Shore
2. Impending Storm
3. Out to Sea
4. Adrift
5. Ideals
6. Summit of Lies
7. Descent into the Wood
8. Death and Rebirth
9. The Holy Temple
******************************
Total playing time: 40:55

[more=Technical info]
Input File: 01 - Kingdom on the Shore.mp3
Channels : 2
Sample Rate : 44100
Precision : 16-bit
Duration : 00:05:24.07 = 14291311 samples = 24305 CDDA sectors
File Size : 13.2M
Bit Rate : 326k
Sample Encoding: MPEG audio (layer I, II or III)
Comments :
Title=Kingdom on the Shore
Artist=Ildrasun
Album=Kingdom on the Shore
Tracknumber=1
Year=2020

[/more]

Register
(18) 1968_janeart, Buregon, ctulhudagon, HMHamster, infiltrator, kim666, Olethros, randumbum, robertho777, Rosen, SilentNidhogg, sludge666, stone88, VALERY, varlam4, vasiljev_sergej, Wail, wreak,
Nov 13 2020, 09:58:18 The Chemical Mind - That Benign Terror (2020)


*Artist: The Chemical Mind
*Album: That Benign Terror
*Year: 2020
*Genre: Atmospheric/Post-Black Metal
*Country: United States
*Format: mp3@CBR320kbps
*Size: 97MB

Tracklist:
01. Seraphim 05:54
02. Dominion 04:46
03. Simulacrum 04:28
04. Obelisk 02:42
05. Sisters 05:00
06. Nephilim 03:49
07. Apophasis 04:41
08. Ophanim 10:39
******************************
Total playing time: 41:59

[more=Technical info]
Input File: 03 - Simulacrum.mp3
Channels : 2
Sample Rate : 44100
Precision : 16-bit
Duration : 00:04:27.59 = 11800719 samples = 20069.2 CDDA sectors
File Size : 10.7M
Bit Rate : 321k
Sample Encoding: MPEG audio (layer I, II or III)
Comments :
Title=Simulacrum
Artist=The Chemical Mind
Album=That Benign Terror
Tracknumber=3
Year=2020
Discnumber=1/1

[/more]

Register
(16) 1968_janeart, aleon, frituz3, gena, infiltrator, kim666, Olethros, randumbum, robertho777, Rosen, Shadechaser, sludge666, VALERY, varlam4, vasiljev_sergej, wreak,
Nov 9 2020, 22:00:20 Sepulchre By The Sea - Conqueror Worm (2020)


*Artist: Sepulchre By The Sea
*Album: Conqueror Worm
*Year: 2020
*Genre: Atmospheric Black Metal
*Country: United Kingdom
*Format: mp3@CBR320kbps
*Size: 134MB

Tracklist:
01. I Loved Alone 06:40
02. Conqueror Worm 06:40
03. And So It Crumbles 12:07
04. Slices of Death 07:34
05. Behind the Walls 07:50
06. Plutonian Shores 17:14
******************************
Total playing time: 58:05

[more=Technical info]
Input File: 02 - Conqueror Worm.mp3
Channels : 2
Sample Rate : 44100
Precision : 16-bit
Duration : 00:06:40.53 = 17663549 samples = 30040 CDDA sectors
File Size : 16.1M
Bit Rate : 322k
Sample Encoding: MPEG audio (layer I, II or III)
Comments :
Title=Conqueror Worm
Artist=Sepulchre by the Sea
Album=Conqueror Worm
Tracknumber=2
Year=2020
Discnumber=1/1

[/more]

Register
(19) 1968_janeart, aleon, alikkon, frituz3, infiltrator, kim666, Korpse, Olethros, randumbum, RENыч, robertho777, Rosen, sergsazan, SilentNidhogg, stone88, VALERY, varlam4, vasiljev_sergej, wreak,
Oct 27 2020, 13:34:36 Darzamat - A Philosopher At The End Of The Universe (2020)
Хороший альбом,прослушал с удовольствием
(2) infiltrator, Thiarnan,
Oct 20 2020, 10:04:59 The Choir Of Mouthless - Phosphor Light (2020)


*Artist: The Choir Of Mouthless
*Album: Phosphor Light
*Year: 2020
*Genre: Atmospheric Black Metal
*Country: Russian Federation
*Format: mp3@CBR320kbps
*Size: 87MB

Tracklist:
01. Ascension 09:35
02. The First Threshold 03:37
03. Immersion 10:23
04. The Second Threshold03:31
05. Dissolution 07:12
06. The Third Threshold 02:57
******************************
Total playing time: 37:15

[more=Technical info]
Input File: 05 Dissolution.mp3
Channels : 2
Sample Rate : 44100
Precision : 16-bit
Duration : 00:07:12.09 = 19055125 samples = 32406.7 CDDA sectors
File Size : 17.5M
Bit Rate : 323k
Sample Encoding: MPEG audio (layer I, II or III)
Comments :
Title=Dissolution
Artist=The Choir of Mouthless
Album=Phosphor Light
Tracknumber=5
Year=2020

[/more]

Register
(7) AlexSmith, Doooomed, infiltrator, kim666, Olethros, Rosen, vasiljev_sergej,
Oct 14 2020, 20:29:01 Новости DOOM Metal (1) Old Vyaine,
Oct 4 2020, 22:24:52 When Blood Falls Down - Pandæmonium (2020)


*Artist: When Blood Falls Down
*Album: Pandæmonium
*Year: 2020
*Genre: Brutal Death Metal
*Country: Ukraine
*Format: mp3@CBR320kbps
*Size: 87MB

Tracklist:
01. Miasmagod
02. Dæmonicus (Unholy Verses Pt.I) (Feat. Timmy Russell)
03. Obscurum Prophetiæ
04. WOLVES
05. Pandæmonium (Unholy Verses Pt.II) (Feat. Steph Migneron)
06. Invocation Ov Abbadon
07. Serpens Circulum Albidus
08. Dimensionless Posession (Feat. Alci Turri)
09. DISMEMBEREDCHRIST
******************************
Total playing time: 37:16

[more=Technical info]
Input File: When Blood Falls Down - PANDÆMONIUM - 05 Pandæmonium (Unholy Verses Pt.II) (feat. Steph Migneron).mp3
Channels : 2
Sample Rate : 44100
Precision : 16-bit
Duration : 00:04:27.09 = 11778669 samples = 20031.7 CDDA sectors
File Size : 10.8M
Bit Rate : 324k
Sample Encoding: MPEG audio (layer I, II or III)
Comments :
Title=Pandæmonium (Unholy Verses Pt.II) (feat. Steph Migneron)
Artist=When Blood Falls Down
Album=PANDÆMONIUM
Tracknumber=5
Year=2020

[/more]

Register
(15) caro, cist, Hell_Is_Here, infiltrator, infozahist, kranger, metala, Morgoth, Olethros, randumbum, respect, Rosen, supremo, terron, wreak,
Sep 17 2020, 14:37:41 For Ruin - Elapse [ep] (2020)
Andrew,
9.gif
(2) Andrew, infiltrator,
Sep 17 2020, 14:30:09 Finntroll - Vredesvävd (2020)
Послушал во флаке,чумовой альбом,лично я в восторге 20.gif
(3) dorn1, infiltrator, troll_swamp,
Aug 22 2020, 09:51:31 Nythgraph - Communication (2020)


*Artist: Nythgraph
*Album: Communication
*Year: 2020
*Genre: Atmospheric Black Metal/Ambient
*Country: United States
*Format: mp3@CBR320kbps
*Size: 97MB

Tracklist:
01. Open Pathway 10:14
02. Safety Stone 10:47
03. Sun Glow 09:26
04. Communication 11:56
******************************
Total playing time: 42:23

[more=Technical info]
Input File: 01. Open Pathway.mp3
Channels : 2
Sample Rate : 44100
Precision : 16-bit
Duration : 00:10:14.49 = 27098965 samples = 46086.7 CDDA sectors
File Size : 24.7M
Bit Rate : 321k
Sample Encoding: MPEG audio (layer I, II or III)
Comments :
Title=Open Pathway
Artist=Nythgraph
Album=Communication
Tracknumber=1/4
Year=2020
Genre=9
Discnumber=1/1

[/more]

Register
(19) alikkon, blacky66, infiltrator, kim666, lucifix, nospeedlimit, oldvarg, randumbum, robertho777, Rosen, sergsazan, Storky, stub888, Stutthof, supremo, VALERY, varlam4, vasiljev_sergej, wreak,
Aug 21 2020, 08:50:37 Hyperborean Skies - Severances [ep] (2020)


*Artist: Hyperborean Skies
*Album: Severances [ep]
*Year: 2020
*Genre: Atmospheric Black Metal
*Country: United States
*Format: mp3@CBR320kbps
*Size: 41MB

Tracklist:
01. Departing Song 05:52
02. Wistful Wanders (Redux)06:47
03. Hold This Light 04:59
******************************
Total playing time: 17:38

[more=Technical info]
Input File: 01. Departing Song.mp3
Channels : 2
Sample Rate : 44100
Precision : 16-bit
Duration : 00:05:52.10 = 15527654 samples = 26407.6 CDDA sectors
File Size : 14.2M
Bit Rate : 322k
Sample Encoding: MPEG audio (layer I, II or III)
Comments :
Title=Departing Song
Artist=Hyperborean Skies
Album=Severances
Tracknumber=1/3
Year=2020
Genre=9
Discnumber=1/1

[/more]

Register
(30) 1968_janeart, ahp, aleon, Barlak, blacky66, dorn1, Eisbar, El_Chibo, grimoir, infiltrator, kim666, Kwaad, Lukittaz, murian, older68, Olethros, robertho777, Rosen, satanist666, sergsazan, serjred, Shadechaser, SilentNidhogg, Storky, stub888, VALERY, varlam4, vasiljev_sergej, Victim of fate, wreak,
Aug 17 2020, 16:23:01 Midgard - Tales Of Kreia (2020)


*Artist: Midgard
*Album: Tales Of Kreia
*Year: 2020
*Genre: Folk/Melodic Death Metal
*Country: Ukraine
*Format: mp3@CBR320kbps
*Size: 112MB

Tracklist:
01. Necromancer 04:31
02. The Horde 05:12
03. Velmehazerun Dolian 05:15
04. The Ring 04:34
05. Dworf King (03:51)
06. Keeper of Freedom 03:57
07. Reaper 03:30
08. Elven Blade 05:23
09. The Hunt 03:15
10. Black Widow 04:15
11. Ice Spirit 04:53
******************************
Total playing time: 48:36

[more=Technical info]
Input File: 2 - The Horde.mp3
Channels : 2
Sample Rate : 44100
Precision : 16-bit
Duration : 00:05:12.18 = 13767138 samples = 23413.5 CDDA sectors
File Size : 12.5M
Bit Rate : 321k
Sample Encoding: MPEG audio (layer I, II or III)
Comments :
Title=The Horde
Artist=Midgard
Album=Tales of Kreia
Tracknumber=2
Year=2020
Genre=Metal
Discnumber=1

[/more]

Register
(30) BugEyes, Cartman223, cesar, China, DenisKov, Druidir, gav-gafi, gwar, gwynnbleid, Herrant, infiltrator, Lukittaz, Mogozoz, oldvarg, Olethros, randumbum, Relicario, Rosen, sergsazan, Shadechaser, Surt, talismanFS, TeamatSE, thenecromancer, VALERY, varlam4, Victim of fate, wreak, Сварог Барг, скептик,
Aug 17 2020, 09:15:48 Insincerus - Sanitarium (2020)


*Artist: Insincerus
*Album: Sanitarium
*Year: 2020
*Genre: Atmospheric Black Metal
*Country: United States
*Format: mp3@CBR320kbps
*Size: 93MB

Tracklist:
01. The Shame 07:39
02. The Void 07:16
03. The Madness 02:58
04. The Broken 05:30
05. The Faces 07:18
06. The Pulse 09:40
******************************
Total playing time: 40:21

[more=Technical info]
Input File: 4 - The Broken.mp3
Channels : 2
Sample Rate : 44100
Precision : 16-bit
Duration : 00:05:30.10 = 14557454 samples = 24757.6 CDDA sectors
File Size : 13.3M
Bit Rate : 322k
Sample Encoding: MPEG audio (layer I, II or III)
Comments :
Title=The Broken
Artist=Insincerus
Album=Sanitarium
Tracknumber=4
Year=2020
Genre=Metal
Discnumber=1

[/more]

Register
(26) 1968_janeart, aleon, alikkon, blacky66, infiltrator, kim666, LEGION69, metala, Mogozoz, multizwilling, oldvarg, Olethros, pahail, randumbum, robertho777, Rosen, sergsazan, SilentNidhogg, sludge666, stub888, supremo, tim47, VALERY, varlam4, vasiljev_sergej, wreak,
Aug 13 2020, 09:46:57 Gruhl - Gruhl (2020)


*Artist: Gruhl
*Album: Gruhl
*Year: 2020
*Genre: Blackened Death Metal
*Country: United States
*Format: mp3@CBR320kbps
*Size: 115MB

Tracklist:
01. Necrotic Sorcery 04:48
02. Cave of Sorrow 04:31
03. The Architects of Apocalypse 05:26
04. Golden Robed Vultures 04:20
05. Black Horned God 06:24
06. Hopeless Suffering 05:46
07. Ritual Awakening 04:37
08. From the Depths 04:37
09. Open Graves 04:51
10. Spectral Hallucinations from the Veil 04:32
******************************
Total playing time: 49:52

[more=Technical info]
Input File: 5 - Black Horned God.mp3
Channels : 2
Sample Rate : 44100
Precision : 16-bit
Duration : 00:06:23.89 = 16929549 samples = 28791.8 CDDA sectors
File Size : 15.4M
Bit Rate : 321k
Sample Encoding: MPEG audio (layer I, II or III)
Comments :
Title=Black Horned God
Artist=Gruhl
Album=Gruhl
Tracknumber=5
Year=2020
Genre=Metal
Discnumber=1

[/more]

Register
(16) alikkon, atavist, caro, cist, grimoir, infiltrator, jollo, Mares, metala, multizwilling, Olethros, randumbum, Rosen, tim47, VALERY, varlam4,
Aug 12 2020, 12:43:58 Synthvvitch - Baby, The Inferno Is Here Now (2020)


*Artist: Synthvvitch
*Album: Baby, The Inferno Is Here Now
*Year: 2020
*Genre: Post-Black Metal
*Country: United States
*Format: mp3@CBR320kbps
*Size: 106MB

Tracklist:
01. Je Ne Veux Pas Me Souvenir 08:06
02. Potters Field 06:17
03. Apoptosis 07:01
04. Glory Beyond Deaths Dominion 05:24
05. Beneath My Crown Lies Memories of Honeysuckle 08:07
06. In Memoriam 06:49
07. Until Tomorrow, My Friend 04:26
******************************
Total playing time: 46:10

[more=Technical info]
Input File: 3 - Apoptosis.mp3
Channels : 2
Sample Rate : 44100
Precision : 16-bit
Duration : 00:07:00.67 = 18551679 samples = 31550.5 CDDA sectors
File Size : 16.9M
Bit Rate : 321k
Sample Encoding: MPEG audio (layer I, II or III)
Comments :
Title=Apoptosis
Artist=Synthvvitch
Album=Baby, the Inferno Is Here Now
Tracknumber=3
Year=2020
Genre=Metal
Discnumber=1

[/more]

Register
(15) 1968_janeart, alikkon, grimoir, infiltrator, kim666, Olethros, pahail, randumbum, robertho777, Rosen, sergsazan, VALERY, varlam4, vasiljev_sergej, wreak,
Aug 4 2020, 11:27:29 Tombstone - The Awakening Of Darkness (2020)


*Artist: Tombstone
*Album: The Awakening Of Darkness
*Year: 2020
*Genre: Atmospheric Black Metal
*Country: Indonesia
*Format: mp3@CBR320kbps
*Size: 106MB

Tracklist:
01. False God 07:35
02. Stormy Weather Towards the Pilgrimage 05:51
03. Secret of the Moon From Carpathian Forest 05:01
04. Unbounded Insolence 06:38
05. Eternal Fog 07:05
06. Hamunaptra 05:20
07. The Awakening of Darkness 08:12
******************************
Total playing time: 45:42

[more=Technical info]
Input File: TOMBSTONE - The Awakening Of Darkness - 01 False God.mp3
Channels : 2
Sample Rate : 44100
Precision : 16-bit
Duration : 00:07:35.52 = 20088520 samples = 34164.1 CDDA sectors
File Size : 18.3M
Bit Rate : 322k
Sample Encoding: MPEG audio (layer I, II or III)
Comments :
Title=False God
Artist=TOMBSTONE
Album=The Awakening Of Darkness
Tracknumber=1
Year=2020

[/more]

Register
(33) 1968_janeart, aleon, AlexSmith, cesar, djsema4, gav-gafi, Glioma, grimoir, infiltrator, kim666, Krosis, LEGION69, Lukittaz, Mencae77, metala, multizwilling, Olethros, randumbum, robertho777, Rosen, sergsazan, Shadechaser, SilentNidhogg, supremo, toly1917, VALERY, varlam4, vasiljev_sergej, Victim of fate, Wail, wreak, ZloY_GreY, дивин,
Jul 31 2020, 12:46:04 Sunvher - Sunvher (2020)


*Artist: Sunvher
*Album: Sunvher
*Year: 2020
*Genre: Post-Black Metal
*Country: Chile
*Format: mp3@CBR320kbps
*Size: 114MB

Tracklist:
01. Just For Tonight
02. Broken Clocks
03. Unsatisfied
04. Hunger
05. Stored In The Ether
06. Eternal Moult
07. The Earth Weight
08. When Winter Died
09. Glows Again
******************************
Total playing time: 49:38

[more=Technical info]
Input File: 07. The Earth Weight.mp3
Channels : 2
Sample Rate : 44100
Precision : 16-bit
Duration : 00:05:12.08 = 13762684 samples = 23405.9 CDDA sectors
File Size : 12.6M
Bit Rate : 322k
Sample Encoding: MPEG audio (layer I, II or III)
Comments :
Title=The Earth Weight
Artist=Sunvher
Album=Sunvher
Tracknumber=7/9
Year=2020
Genre=17
Discnumber=1/1

[/more]

Register
(15) 1968_janeart, aleon, alikkon, infiltrator, kim666, obituarydark, Olethros, randumbum, robertho777, Rosen, SilentNidhogg, VALERY, varlam4, vasiljev_sergej, wreak,
Jul 28 2020, 22:38:27 Новости DOOM Metal
[youtube]2-aPr2RstBA[/youtube]
(2) dark1988, SatanicPanzer,
Jul 14 2020, 22:32:27 Anamnesi - Caurus (2020)


*Artist: Anamnesi
*Album: Caurus
*Year: 2020
*Genre: Black Metal/Ambient
*Country: Italy
*Format: mp3@CBR320kbps
*Size: 104MB

Tracklist:
01. Memorie di un naufrago Pt. I 02:48
02. Caurus I 04:31
03. Albatro 03:55
04. Ritorno a Itaca 04:59
05. A prora 04:30
06. S'enna e s'arca 04:27
07. Caurus II 05:25
08. Caurus III 03:50
09. Memorie di un naufrago pt. II 08:37
******************************
Total playing time: 43:08

[more=Technical info]
Input File: 03 - Albatro.mp3
Channels : 2
Sample Rate : 44100
Precision : 16-bit
Duration : 00:03:55.30 = 10376774 samples = 17647.6 CDDA sectors
File Size : 10.0M
Bit Rate : 340k
Sample Encoding: MPEG audio (layer I, II or III)
Comments :
Title=Albatro
Artist=Anamnesi
Album=Caurus
Tracknumber=3
Year=2020
Genre=GetMetal.CLUB

[/more]

Register
(29) 1968_janeart, alikkon, Daale, demonosz, El_Chibo, fuoco, grimoir, Ildjarn, infiltrator, judaz, kim666, Legacy100, Lukittaz, Moonshtook, multizwilling, nadin85, nemx, Olethros, randumbum, robertho777, Rosen, serjred, SilentNidhogg, supremo, varlam4, vasiljev_sergej, Wail, wreak, Авел,
Jun 21 2020, 23:21:08 Новости Black-направления
garmonbozia,
Так это и есть проект Саенко
(2) Daale, infiltrator,
Jun 16 2020, 23:26:36 Synthvvitch - Destroyer (2020)


*Artist: Synthvvitch
*Album: Destroyer
*Year: 2020
*Genre: Post-Black Metal
*Country: United States
*Format: mp3@CBR320kbps
*Size: 79MB

Tracklist:
01. Destroyer 04:37
02. Disheartening Microcosmic Nostalgia 06:08
03. Life Burner 03:03
04. In the End Hope Will Devour You Too 05:46
05. 43.0125n, 83.6875w 04:12
06. Once She Was a River 05:49
07. Even During the Best Moments 04:53
******************************
Total playing time: 34:28

[more=Technical info]
Input File: 06. Once She Was a River.mp3
Channels : 2
Sample Rate : 44100
Precision : 16-bit
Duration : 00:05:49.38 = 15407834 samples = 26203.8 CDDA sectors
File Size : 14.0M
Bit Rate : 321k
Sample Encoding: MPEG audio (layer I, II or III)
Comments :
Title=Once She Was a River
Artist=Synthvvitch
Album=Destroyer
Tracknumber=6/7
Year=2020
Genre=9
Discnumber=1/1

[/more]

Register
(15) 1968_janeart, AlexSmith, alikkon, grimoir, infiltrator, kim666, Ludwig Hagen, Olethros, randumbum, robertho777, Rosen, SilentNidhogg, VALERY, varlam4, vasiljev_sergej,
Jun 16 2020, 22:18:08 Новости Black-направления
Precambrian
(8) acerbus, Daale, Frozenkult, infiltrator, Occultas, postED, suseka, technoboy69,
Jun 15 2020, 15:45:28 Firelink - Firelink (2020)


*Artist: Firelink
*Album: Firelink
*Year: 2020
*Genre: Melodic Black Metal
*Country: United States
*Format: mp3@CBR320kbps
*Size: 98MB

Tracklist:
1. Cerulean Athenaeum 07:24
2. Where Demons Bore 08:21
3. Cloak Of Marrow 07:25
4. Kingseeker 09:48
5. End Of Piety 09:55
******************************
Total playing time: 42:55

[more=Technical info]
Input File: 3 - Cloak of Marrow.mp3
Channels : 2
Sample Rate : 44100
Precision : 16-bit
Duration : 00:07:25.10 = 19628998 samples = 33382.6 CDDA sectors
File Size : 17.8M
Bit Rate : 321k
Sample Encoding: MPEG audio (layer I, II or III)
Comments :
Title=Cloak of Marrow
Artist=Firelink
Album=Firelink
Tracknumber=3
Year=2020
Genre=Metal
Discnumber=1

[/more]

Register
(28) 1968_janeart, alikkon, atavist, DenisKov, goxther, grimoir, infiltrator, legion01, Lukittaz, madera, metala, Mogozoz, multizwilling, Olethros, Ostinato, PainMiseryDeath, randumbum, robertho777, Rosen, senecazm, sergsazan, Shadechaser, SilentNidhogg, talismanFS, VALERY, vasiljev_sergej, yuratroll, Сварог Барг,

56 Pages V  < 1 2 3 4 > » 
- Lo-Fi Version Support form
Copyrights and abuse reports form
Time is now: 23rd June 2021 - 22:05:11