Welcome Guest ( Log In | Register )

История благодарностей участнику vasilisk ::: Спасибо сказали: 9664 раз(а)
Дата поста: В теме: За сообщение: Спасибо сказали:
Jun 1 2020, 10:11:17 Necrotum - Condemned To Burn (2020)


*Artist: Necrotum
*Album: Condemned To Burn
*Year: 2020
*Genre: Death Metal
*Country: Romania
*Format: mp3@CBR320kbps
*Size: 80MB

Tracklist:
01. Doomsday
02. Condemned to Burn
03. Abomination Unleashed
04. Afterlife Torment
05. Reconquered Domain
06. Reborn In Flames
07. Kingdom of the Dead
08. My Resurrection
******************************
Total playing time: 33:30

[more=Technical info]
Input File: 02. Condemned to Burn.mp3
Channels : 2
Sample Rate : 44100
Precision : 16-bit
Duration : 00:04:53.53 = 12944717 samples = 22014.8 CDDA sectors
File Size : 11.7M
Bit Rate : 320k
Sample Encoding: MPEG audio (layer I, II or III)
Comments :
Artist=Necrotum
Album=Condemned to Burn
Year=2020

[/more]

Register
(16) alikkon, andreikun, atavist, cesar, Hell_Is_Here, infiltrator, jollo, killingod, metala, multizwilling, Olethros, Rosen, Tino, VALERY, vyacheslav, wreak,
May 29 2020, 08:52:22 Winters Howl - Instinctive (2020)


*Artist: Winters Howl
*Album: Instinctive
*Year: 2020
*Genre: Melodic Death Metal
*Country: Germany
*Format: mp3@CBR320kbps
*Size: 142MB

Tracklist:
01. Lighthouse 06:08
02. Alchemists 04:45
03. Instinctive (feat. Lenn Blackness) 05:52
04. With My Wolf 04:46
05. Disappearance 04:53
06. Eclipse 04:26
07. Life in London 05:50
08. Ceres 05:40
09. The Luna Protocol 05:58
10. Alpha Omega 04:54
11. Clockwork (feat. Xulxer Bawlsick) 08:17
******************************
Total playing time: 1:01:31

[more=Technical info]
Input File: 3 - Instinctive (feat. Lenn Blackness).mp3
Channels : 2
Sample Rate : 44100
Precision : 16-bit
Duration : 00:05:52.10 = 15527654 samples = 26407.6 CDDA sectors
File Size : 14.2M
Bit Rate : 322k
Sample Encoding: MPEG audio (layer I, II or III)
Comments :
Title=Instinctive (feat. Lenn Blackness)
Artist=Winters Howl/Lenn Blackness
Album=Instinctive
Tracknumber=3
Year=2020
Genre=Metal
Discnumber=1

[/more]

Register
(23) andreylogan, BugEyes, cesar, DenisKov, infiltrator, lldma, Lukittaz, Mogozoz, multizwilling, Olethros, Orgasmik, Rosen, sadmannn, satanist666, sergsazan, soulflesh, talismanFS, VALERY, wanderer73, wn129aa, wreak, zhol, Сварог Барг,
May 27 2020, 21:29:24 Beleriand - Far Over Wood And Mountain Tall (2020)


*Artist: Beleriand
*Album: Far Over Wood And Mountain Tall
*Year: 2020
*Genre: Atmospheric Black Metal
*Country: Norway
*Format: mp3@CBR320kbps
*Size: 100MB

Tracklist:
1. The Sky Has Turned Its Heart Away 07:04
2. In The Black Wind The Stars Shall Die 05:50
3. A Morning Clear 01:14
4. Stronger Than Morgul-Spells 06:24
5. Light From The Shadows Shall Spring 06:10
6. ...Where The Shadows Lie 03:29
7. Far Over Wood And Mountain Tall 06:58
8. The Clouds Have Fallen All The Night 05:58
******************************
Total playing time: 43:10

[more=Technical info]
Input File: 04. Stronger Than Morgul-spells.mp3
Channels : 2
Sample Rate : 44100
Precision : 16-bit
Duration : 00:06:24.23 = 16944675 samples = 28817.5 CDDA sectors
File Size : 15.5M
Bit Rate : 322k
Sample Encoding: MPEG audio (layer I, II or III)
Comments :
Title=Stronger Than Morgul-spells
Artist=Beleriand
Album=Far Over Wood and Mountain Tall
Tracknumber=4/8
Genre=9
Discnumber=1/1

[/more]

Register
(58) 0x13, 1968_janeart, AlexSmith, alikkon, Antichrist, autumnwood, cancer1974, craP_cillA, cuervopagano, dasreichss, dimpa, djsema4, Druidir, exorcist1969, Faust2016, gav-gafi, GuldenDraak, infiltrator, Jorn777, kim666, kryptor, lucifix, Lucju, Ludwig Hagen, Lukittaz, Moonshtook, multizwilling, NappyRob, nsk2008, OldbOlt, oldvarg, Olethros, Olrak, pfk505, ProstoPuh, rammmirez, randumbum, robertho777, Rosen, satanist666, senecazm, sergsazan, Shadechaser, SilentNidhogg, Sjelekval, smes, Strygaldwir, stub888, supremo, talismanFS, terron, thenecromancer, Torop, valera2010, VALERY, varlam4, vasiljev_sergej, zargonath,
May 26 2020, 00:09:43 Cosmovore - Into The Necrosphere [ep] (2020)


*Artist: Cosmovore
*Album: Into The Necrosphere [ep]
*Year: 2020
*Genre: Death Metal
*Country: Unknown
*Format: mp3@CBR320kbps
*Size: 64MB

Tracklist:
01. Into the Necrosphere
02. Vessel
03. The Watchers
04. All-Devourer
******************************
Total playing time: 26:56

[more=Technical info]
Input File: 02. Vessel.mp3
Channels : 2
Sample Rate : 44100
Precision : 16-bit
Duration : 00:06:53.34 = 18228074 samples = 31000.1 CDDA sectors
File Size : 17.1M
Bit Rate : 331k
Sample Encoding: MPEG audio (layer I, II or III)
Comments :
Title=Vessel
Artist=Cosmovore
Album=Into the Necrosphere
Tracknumber=2/4
Year=2020

[/more]

Register
(23) cesar, chipsgott, Hell_Is_Here, infiltrator, killingod, korovakaska, Lux, mirotvorets, multizwilling, Occultas, Olethros, Ostinato, Rosen, SadistikSlayer, samokot, soulflesh, tormoz, troll_swamp, VALERY, vyacheslav, wanderer73, wreak, yuratroll,
May 25 2020, 16:25:31 Effigy Of Hate - Vulture (2020)


*Artist: Effigy Of Hate
*Album: Vulture
*Year: 2020
*Genre: Melodic Black Metal/Ambient
*Country: Canada
*Format: mp3@CBR320kbps
*Size: 101MB

Tracklist:
01. Vulture
02. Consuming Death
03. Vapor
04. Scream a Silent Whisper
05. White Out the Sun
06. Empty Shell
07. Lambs to the Slaughter
08. Ressurection to Rebirth
09. Not Afraid to Speak
******************************
Total playing time: 41:50

[more=Technical info]
Input File: 04. Scream a Silent Whisper.mp3
Channels : 2
Sample Rate : 44100
Precision : 16-bit
Duration : 00:05:44.55 = 15194699 samples = 25841.3 CDDA sectors
File Size : 14.3M
Bit Rate : 333k
Sample Encoding: MPEG audio (layer I, II or III)
Comments :
Title=Scream a Silent Whisper
Artist=Effigy of Hate
Album=Vulture
Tracknumber=4/9
Year=2020

[/more]

Register
(20) 1968_janeart, AlexSmith, djsema4, infiltrator, kim666, multizwilling, Olethros, randumbum, Reverend, robertho777, Rosen, russ777, senecazm, SilentNidhogg, SnaP, suseka, VALERY, varlam4, vasiljev_sergej, zhol,
May 24 2020, 13:39:47 Spidrax - Obituario [ep] (2020)


*Artist: Spidrax
*Album: Obituario [ep]
*Year: 2020
*Genre: Heavy/Thrash Metal
*Country: Brazil
*Format: mp3@CBR320kbps
*Size: 59MB

Tracklist:
1. Festa Infernal
2. Cemiterio Maldito
3. Psicose
4. Necromancia
5. Missa Negra
6. Corda de Piano
7. Cena Final
8. Enterrado Vivo
******************************
Total playing time: 24:58

[more=Technical info]
Input File: 04 - Necromancia.mp3
Channels : 2
Sample Rate : 44100
Precision : 16-bit
Duration : 00:03:43.47 = 9854851 samples = 16760 CDDA sectors
File Size : 9.10M
Bit Rate : 326k
Sample Encoding: MPEG audio (layer I, II or III)
Comments :
Title=Necromancia
Artist=Spidrax
Album=Obituário
Tracknumber=4
Year=2020

[/more]

Register
(11) boby9052, infiltrator, Lukittaz, METALHUNTER, minimums, Olethros, Rosen, Rover, stumpheavyrock, Wail, wgs73,
May 22 2020, 12:38:28 Новости Folk/Pagan/Viking
ENSLAVED
[youtube]92ptxt1FQiU[/youtube]
(2) Black Cat, infiltrator,
May 19 2020, 22:29:29 Apophis - Echoes In Eternity (2020)


*Artist: Apophis
*Album: Echoes In Eternity
*Year: 2020
*Genre: Instrumental Melodic Death Metal
*Country: Australia
*Format: mp3@CBR320kbps
*Size: 137MB

Tracklist:
01. Hearts Worn by Savagery
02. White Wolf of Ruin
03. The Three Hunters
04. Hollow Virtues Immemorial
05. Verdun-Sur-Meuse
06. Fall of Beleriand
07. Murakumo-No-Tsurugi
08. Lernaean Hydra
09. Echoes in Eternity
******************************
Total playing time: 59:40

[more=Technical info]
Input File: 08. Lernaean Hydra.mp3
Channels : 2
Sample Rate : 44100
Precision : 16-bit
Duration : 00:05:58.08 = 15791460 samples = 26856.2 CDDA sectors
File Size : 14.4M
Bit Rate : 322k
Sample Encoding: MPEG audio (layer I, II or III)
Comments :
Title=Lernaean Hydra
Artist=Apophis
Album=Echoes in Eternity
Tracknumber=8/9
Year=2020
Genre=9
Discnumber=1/1

[/more]

Register
(8) 0x13, chipsgott, infiltrator, Olethros, Rosen, troll_swamp, zhol, Сварог Барг,
May 19 2020, 21:59:00 Natural Spirit - Під Серпом Часу (2020)
Не знаю кому как ,а я остался доволен альбомом 20.gif
(1) russ777,
May 18 2020, 20:52:49 Natural Spirit - Під Серпом Часу (2020)
Samaritianin, Благодарю
(2) infiltrator, Samaritianin,
May 11 2020, 22:23:47 Cosmic Burial - Impakt (2020)


*Artist: Cosmic Burial
*Album: Impakt
*Year: 2020
*Genre: Atmospheric Black Metal
*Country: Germany
*Format: mp3@CBR320kbps
*Size: 174MB

Tracklist:
1. EO40 16:18
2. VK184 20:55
3. 101995 19:21
4. 99942 19:10
******************************
Total playing time: 1:15:44

[more=Technical info]
Input File: 01 - EO40.mp3
Channels : 2
Sample Rate : 44100
Precision : 16-bit
Duration : 00:16:18.51 = 43152335 samples = 73388.3 CDDA sectors
File Size : 39.3M
Bit Rate : 321k
Sample Encoding: MPEG audio (layer I, II or III)
Comments :
Title=EO40
Artist=Cosmic Burial
Album=Impakt
Tracknumber=1
Year=2020

[/more]

Register
(25) 1968_janeart, AlexSmith, Buregon, fallen, Indamage, infiltrator, kim666, Lukittaz, multizwilling, murian, Occultas, Olethros, pahail, randumbum, robertho777, Rosen, senecazm, sergsazan, stub888, tim47, VALERY, varlam4, vasiljev_sergej, V_H_H_V, Wolftribes,
May 9 2020, 23:34:11 Algeia - Patient 34 (2020)


*Artist: Algeia
*Album: Patient 34
*Year: 2020
*Genre: Atmospheric/Depressive Black Metal
*Country: Ukraine
*Format: mp3@CBR320kbps
*Size: 123MB

Tracklist:
01. Psych Ward
02. Stone Heart...
03. Dark Angel
04. Quiet!!!
05. Suicide
06. Long Way (Good Bye)
******************************
Total playing time: 53:42

[more=Technical info]
Input File: 2 - Stone Heart.mp3
Channels : 2
Sample Rate : 44100
Precision : 16-bit
Duration : 00:06:10.86 = 16354838 samples = 27814.4 CDDA sectors
File Size : 14.9M
Bit Rate : 321k
Sample Encoding: MPEG audio (layer I, II or III)
Comments :
Title=Stone Heart
Artist=Algeia
Album=Patient 34
Tracknumber=2
Year=2020
Genre=Metal
Discnumber=1

[/more]

Register
(14) 1968_janeart, Hroft, kim666, multizwilling, Nokturnal6644, Olethros, randumbum, robertho777, senecazm, SilentNidhogg, TeamatSE, VALERY, varlam4, vasiljev_sergej,
May 5 2020, 09:10:51 Secundus - Atrophia (2020)


*Artist: Secundus
*Album: Atrophia
*Year: 2020
*Genre: Black Metal
*Country: United States
*Format: mp3@CBR320kbps
*Size: 87MB

Tracklist:
1. All That Begins... 04:05
2. Whom Gods Abandon 10:43
3. ...Though Immutable... 04:08
4. Of Sorrows Borne 13:33
5. ...Shall Also End 04:10
******************************
Total playing time: 36:42

[more=Technical info]
Input File: Secundus - Atrophia - 04 Of Sorrows Borne.mp3
Channels : 2
Sample Rate : 44100
Precision : 16-bit
Duration : 00:13:33.16 = 35860268 samples = 60986.9 CDDA sectors
File Size : 32.7M
Bit Rate : 321k
Sample Encoding: MPEG audio (layer I, II or III)
Comments :
Title=Of Sorrows Borne
Artist=Secundus
Album=Atrophia
Tracknumber=4
Year=2020

[/more]

Register
(24) atavist, cist, El_Chibo, infiltrator, kim666, Lukittaz, MMMMM, multizwilling, Occultas, Olethros, randumbum, Razorbladeswaltz, robertho777, Rosen, satanist666, scorpionmk, SilentNidhogg, toly1917, VALERY, varg-38ru, varlam4, vasiljev_sergej, yuratroll, некрософ,
May 2 2020, 14:59:11 Vilsen - Vilsen (2020)


*Artist: Vilsen
*Album: Vilsen
*Year: 2020
*Genre: Atmospheric Black Metal
*Country: France
*Format: mp3@CBR320kbps
*Size: 130MB

Tracklist:
1. Souffle (03:19)
2. Achève-moi (14:09)
3. Pluie d'automne (07:28)
4. Ton souvenir (09:41)
5. Lumière céleste (11:52)
6. La nuit (08:57)
******************************
Total playing time: 55:27

[more=Technical info]
Input File: Vilsen - Vilsen - 03 Pluie d\'automne.mp3
Channels : 2
Sample Rate : 44100
Precision : 16-bit
Duration : 00:07:27.84 = 19749788 samples = 33588.1 CDDA sectors
File Size : 18.0M
Bit Rate : 321k
Sample Encoding: MPEG audio (layer I, II or III)
Comments :
Title=Pluie d'automne
Artist=Vilsen
Album=Vilsen
Tracknumber=3
Year=2020

[/more]

Register
(3) AlexSmith, Gylve, stub888,
May 1 2020, 09:12:55 Hell Gate - Par-Delà L'existence (2020)


*Artist: Hell Gate
*Album: Par-Delà L'existence
*Year: 2020
*Genre: Post-Black Metal
*Country: France
*Format: mp3@CBR320kbps
*Size: 123MB

Tracklist:
1. Lumière 03:08
2. Ombre 04:05
3. Pluie de Cendres Pt.1 05:39
4. Esprit Vide 02:40
5. Larmes 09:33
6. Pluie de Cendres Pt.2 05:24
7. Danse Dans le Vent 09:36
8. D'Eau et de Sang 05:48
9. Crépuscule 07:50
******************************
Total playing time: 53:43

[more=Technical info]
Input File: 3 - Pluie de Cendres, Pt. I.mp3
Channels : 2
Sample Rate : 44100
Precision : 16-bit
Duration : 00:05:39.59 = 14975787 samples = 25469 CDDA sectors
File Size : 13.6M
Bit Rate : 321k
Sample Encoding: MPEG audio (layer I, II or III)
Comments :
Title=Pluie de Cendres, Pt. I
Artist=Hell Gate
Album=Par-Delà l'Existence
Tracknumber=3
Year=2020
Genre=Metal
Discnumber=1

[/more]

Register
(22) 0x13, aleon, ctulhudagon, fuoco, HMHamster, igorzz, infiltrator, kim666, multizwilling, obituarydark, Olethros, Ostinato, randumbum, robertho777, Rosen, satanist666, suseka, VALERY, varg-38ru, varlam4, vasiljev_sergej, vov7609,
Apr 26 2020, 09:53:50 Echushkya - The Lanterne (2020)


*Artist: Echushkya
*Album: The Lanterne
*Year: 2020
*Genre: Atmospheric Black Metal
*Country: United States
*Format: mp3@CBR320kbps
*Size: 84MB

Tracklist:
1. Ara III: The Lanterne of Opheleia 06:38
2. Daughters of The Flame 08:42
3. The Dimming Ruin 11:53
4. Gathering the Embers 08:58
******************************
Total playing time: 36:11

[more=Technical info]
Input File: 01 - Ara III The Lanterne of Opheleia.mp3
Channels : 2
Sample Rate : 44100
Precision : 16-bit
Duration : 00:06:37.90 = 17547214 samples = 29842.2 CDDA sectors
File Size : 16.2M
Bit Rate : 327k
Sample Encoding: MPEG audio (layer I, II or III)
Comments :
Title=Ara III: The Lanterne of Opheleia
Artist=Echushkya
Album=The Lanterne
Tracknumber=1
Year=2020

[/more]

Register
(31) Aamiinaa, AlexSmith, cesar, Corpuscul, infiltrator, kim666, krotovich, LEGION69, MAMARINA, metala, mirotvorets, Mortuusinfernus, multizwilling, nemx, Olethros, randumbum, robertho777, Rosen, russ777, satanist666, senecazm, Shadechaser, SilentNidhogg, Spork, stub888, suseka, tOmV, VALERY, varlam4, vasiljev_sergej, Wolftribes,
Apr 23 2020, 18:32:49 Azziard - Exegese (2020)


*Artist: Azziard
*Album: Exegese
*Year: 2020
*Genre: Black/Death Metal
*Country: France
*Format: mp3@CBR320kbps
*Size: 103MB

Tracklist:
01. Seven Sermons of the Dead
02. Retrouvailles avec l'Ame
03. The Three Prophecies
04. Incantation
05. The Scarlet Man
06. Images of the Wanderer
07. Le Chemin de Croix
08. The Desert
******************************
Total playing time: 45:03

[more=Technical info]
Input File: 02. Retrouvailles avec l\'Ame.mp3
Channels : 2
Sample Rate : 44100
Precision : 16-bit
Duration : 00:07:04.02 = 18699282 samples = 31801.5 CDDA sectors
File Size : 17.0M
Bit Rate : 321k
Sample Encoding: MPEG audio (layer I, II or III)
Comments :
Title=Retrouvailles avec l'Ame
Artist=Azziard
Album=Exegese
Tracknumber=2/8
Year=2020
Genre=17
Discnumber=1/1

[/more]

Register
(30) AHBAnep, Antichrist, atavist, babanguida, Doooomed, Gylve, Hell_Is_Here, infiltrator, maxapero, metala, Morgoth, multizwilling, Nerevar, obituarydark, Olethros, randumbum, Rosen, satanist666, Shadechaser, SilentNidhogg, SS2998, SyncestrA, Tino, VALERY, varg-38ru, varlam4, vasiljev_sergej, vov7609, wreak, yuratroll,
Apr 22 2020, 10:25:28 Drought - Trimurti (2020)


*Artist: Drought
*Album: Trimurti
*Year: 2020
*Genre: Black Metal
*Country: Italy
*Format: mp3@CBR320kbps
*Size: 110MB

Tracklist:
01. The Awakening of the Sleeping Serpent
02. Chanting the Overture of the Gate to Para
03. Bharitakara
04. Mystical Solar Eruption
05. Om Tridevaya Namah
06. Trascending the Flesh
07. Sharpening the Weapons of Inner Revolution
08. Lotus Awareness
09. Tantric Supremacy
******************************
Total playing time: 46:54

[more=Technical info]
Input File: 07 - Sharpening the Weapons of Inner Revolution.mp3
Channels : 2
Sample Rate : 44100
Precision : 16-bit
Duration : 00:05:46.09 = 15262657 samples = 25956.9 CDDA sectors
File Size : 14.4M
Bit Rate : 333k
Sample Encoding: MPEG audio (layer I, II or III)
Comments :
Title=Sharpening the Weapons of Inner Revolution
Artist=Drought
Album=Trimurti
Tracknumber=7
Year=2020
Genre=Black Metal

[/more]

Register
(46) 1968_janeart, acerbus, AlexSmith, alikkon, atavist, Boozer, Daale, daemonarch, Evilded, garml2, Hell_Is_Here, infiltrator, judaz, kim666, LEGION69, Lunaris, MadCarrot, MMMMM, Moonshtook, morbidangelo, multizwilling, nadin85, NOMIDIMON, older68, oldvarg, Olethros, Panacea, peppuzzo, Radek, randumbum, ripper33, robertho777, Rosen, SaintVitus, satanist666, stub888, supremo, VALERY, varg-38ru, varlam4, vasiljev_sergej, vov7609, wreak, yuratroll, ZloY_GreY, Например,
Apr 20 2020, 09:58:06 Abhasa - १ (2020)


*Artist: Abhasa
*Album: १
*Year: 2020
*Genre: Black Metal/Ambient
*Country: United States
*Format: mp3@CBR320kbps
*Size: 115MB

Tracklist:
01. १
02. २
03. ३
04. ४
05. ५
06. ६
07. ७
******************************
Total playing time: 49:56

[more=Technical info]
Input File: 04. ४.mp3
Channels : 2
Sample Rate : 44100
Precision : 16-bit
Duration : 00:08:36.60 = 22782192 samples = 38745.2 CDDA sectors
File Size : 20.8M
Bit Rate : 323k
Sample Encoding: MPEG audio (layer I, II or III)
Comments :
Title=४
Artist=Abhasa
Album=१ (رمستر)
Tracknumber=4/7
Year=2020
Genre=9
Discnumber=1/1

[/more]

Register
(20) aedicksucker, Borya_Tvorogov, Corpuscul, fuoco, infiltrator, kim666, Lukittaz, Lunaris, morbidangelo, murian, nemx, Olethros, Ostinato, robertho777, Rosen, SilentNidhogg, stub888, varlam4, vasiljev_sergej, Например,
Apr 19 2020, 08:43:26 At The Altar Of The Horned God - Through Doors Of Moonlight (2020)


*Artist: At The Altar Of The Horned God
*Album: Through Doors Of Moonlight
*Year: 2020
*Genre: Ambient Black Metal
*Country: Spain
*Format: mp3@CBR320kbps
*Size: 84MB

Tracklist:
01. A Ka Dua
02. Before The Flames Of Undefiled Knowledge
03. Prayer I
04. Prayer II (Oh Glorious Pan)
05. Perdition In The Oneness
06. Malediction
07. A Circle Of Swaying Leaves
******************************
Total playing time: 36:06

[more=Technical info]
Input File: 03- Prayer I.mp3
Channels : 2
Sample Rate : 44100
Precision : 16-bit
Duration : 00:05:24.56 = 14313228 samples = 24342.2 CDDA sectors
File Size : 13.3M
Bit Rate : 329k
Sample Encoding: MPEG audio (layer I, II or III)
Comments :
Title=Prayer I
Artist=At the Altar of the Horned God
Album=Through Doors of Moonlight
Tracknumber=3/7/7
Year=2020
Genre=Black Metal

[/more]

Register
(27) as71, Boozer, Corpuscul, dabiz, Evilded, Femto, infiltrator, judaz, kim666, kipelov999, Kuratsu, Lafii, multizwilling, nadin85, nemx, Nerevar, Occultas, Olethros, pahail, Rosen, satanist666, Shadechaser, stub888, VALERY, varlam4, vasiljev_sergej, Wolftribes,
Apr 17 2020, 21:12:22 Fallakr - Mezv, Marv, Milliget (2020)


*Artist: Fallakr
*Album: Mezv, Marv, Milliget
*Year: 2020
*Genre: Atmospheric Black Metal
*Country: France
*Format: mp3@CBR320kbps
*Size: 93MB

Tracklist:
01. Mestr ar Bed Kuzh (0:30)
02. Thanatomorphose Prématurée (5:04)
03. Soñj ar Straedoù Lous (3:57)
04. Heklev an Islonk (5:01)
05. L'Aiguille et le Temple (4:35)
06. Une Envie de Déchéance (4:31)
07. Fallakr (3:45)
08. Tachenn Ludu (6:37)
09. Gwerz Kouerien Pontkalleg (6:13)
******************************
Total playing time: 40:13

[more=Technical info]
Input File: 02 - Thanatomorphose Prématurée.mp3
Channels : 2
Sample Rate : 44100
Precision : 16-bit
Duration : 00:05:03.80 = 13397448 samples = 22784.8 CDDA sectors
File Size : 12.3M
Bit Rate : 324k
Sample Encoding: MPEG audio (layer I, II or III)
Comments :
Title=Thanatomorphose Prématurée
Artist=Fallakr
Album=Mezv, Marv, Milliget
Tracknumber=2
Year=2020
Genre=Atmospheric Black Metal

[/more]

Register
(33) 1968_janeart, atavist, Barbiturat, Boozer, Bzth, cist, djsema4, infiltrator, isvili, kim666, Korpse, LEGION69, metala, nsk2008, Olethros, Olrak, Ostinato, randumbum, rimfrost, robertho777, satanist666, senecazm, Shadechaser, SilentNidhogg, squall8fr, stub888, Surt, suseka, umnaxtet, VALERY, varlam4, vasiljev_sergej, ZambuL,
Apr 15 2020, 09:44:56 Draconian Oracle - The Ascending Flame (2020)


*Artist: Draconian Oracle
*Album: The Ascending Flame
*Year: 2020
*Genre: Black Metal
*Country: United States
*Format: mp3@CBR320kbps
*Size: 93MB

Tracklist:
1. Ethos 01:06
2. Tales Of The Scaled Messiah 03:21
3. 22 Scales 06:22
4. Solar Womb 06:35
5. The Ascending Flame 07:10
6. Dark Chakra 07:22
7. Essence Of Fire 08:08
******************************
Total playing time: 40:05

[more=Technical info]
Input File: 03 - 22 Scales.mp3
Channels : 2
Sample Rate : 44100
Precision : 16-bit
Duration : 00:06:21.73 = 16834073 samples = 28629.4 CDDA sectors
File Size : 15.5M
Bit Rate : 325k
Sample Encoding: MPEG audio (layer I, II or III)
Comments :
Title=22 Scales
Artist=Draconian Oracle
Album=The Ascending Flame
Tracknumber=3
Year=2020
Genre=Black Metal

[/more]

Register
(21) atavist, bOOLty, demonosz, Hell_Is_Here, infiltrator, kim666, maxapero, MMMMM, morbidangelo, multizwilling, Olethros, Ostinato, randumbum, robertho777, satanist666, SilentNidhogg, stub888, Tankard, thenecromancer, VALERY, vasiljev_sergej,
Apr 7 2020, 09:17:46 Illvilja - In Winters Cold (2020)


*Artist: Illvilja
*Album: In Winters Cold
*Year: 2020
*Genre: Atmospheric Black Metal
*Country: Sweden
*Format: mp3@CBR320kbps
*Size: 79MB

Tracklist:
01. In Winters Cold (5:02)
02. Shadows of Time (5:07)
03. Hunger (5:24)
04. Contagion (4:32)
05. Remember the Sunsets (4:36)
06. Portals (5:42)
07. Deep Within (4:06)
******************************
Total playing time: 34:29

[more=Technical info]
Input File: 6 - Portals.mp3
Channels : 2
Sample Rate : 44100
Precision : 16-bit
Duration : 00:05:42.10 = 15086390 samples = 25657.1 CDDA sectors
File Size : 13.7M
Bit Rate : 321k
Sample Encoding: MPEG audio (layer I, II or III)
Comments :
Title=Portals
Artist=Illvilja
Album=In Winters Cold
Tracknumber=6
Year=2020
Genre=Rock / Metal
Discnumber=1

[/more]

Register
(4) dorn1, infiltrator, satanist666, thenecromancer,
Mar 30 2020, 09:27:49 Verlies - Les Oubliés De La Chute (2020)


*Artist: Verlies
*Album: Les Oubliés De La Chute
*Year: 2020
*Genre: Atmospheric Black Metal
*Country: France
*Format: mp3@CBR320kbps
*Size: 136MB

Tracklist:
01. L'Arrivée
02. Marchandise Des Pouilleux Part. I
03. Marchandise Des Pouilleux Part. II
04. Une Âme A La Mer
05. Brouillard
06. L'Anachorète
07. Victoria
******************************
Total playing time: 58:04

[more=Technical info]
Input File: Verlies - Les Oubliés De La Chute - 04 Une Âme A La Mer.mp3
Channels : 2
Sample Rate : 44100
Precision : 16-bit
Duration : 00:07:18.65 = 19344289 samples = 32898.5 CDDA sectors
File Size : 17.6M
Bit Rate : 321k
Sample Encoding: MPEG audio (layer I, II or III)
Comments :
Title=Une Âme A La Mer
Artist=Verlies
Album=Les Oubliés De La Chute
Tracknumber=4
Year=2020

[/more]

Register
(22) 1968_janeart, AlexSmith, alikkon, atavist, ErikGoth, Glioma, infiltrator, kim666, morbidangelo, murian, nemx, randumbum, robertho777, satanist666, senecazm, sergsazan, Shadechaser, SilentNidhogg, stub888, VALERY, vasiljev_sergej, wreak,
Mar 27 2020, 02:14:56 Denial Of God - The Horrors Of Satan (2020)


*Artist: Denial Of God
*Album: The Horrors Of Satan
*Year: 2020
*Genre: Black Metal
*Country: Denmark
*Format: mp3@CBR320kbps
*Size: 129MB

Tracklist:
01. The Coming
02. The Curse of the Witch
03. The Witch - Now a Restless Spirit
04. The Book of Oiufael
05. Cycle of the Wolf
06. The Iron Gibbet
07. A Night in Transylvania
08. To the Devil
09. The Horrors of Satan
******************************
Total playing time: 56:12

[more=Technical info]
Input File: 4 - The Book of Oiufael.mp3
Channels : 2
Sample Rate : 44100
Precision : 16-bit
Duration : 00:06:20.03 = 16759191 samples = 28502 CDDA sectors
File Size : 15.3M
Bit Rate : 322k
Sample Encoding: MPEG audio (layer I, II or III)
Comments :
Title=The Book of Oiufael
Artist=Denial of God
Album=The Horrors of Satan
Tracknumber=4
Year=2020
Genre=Rock
Discnumber=1

[/more]

Register
(24) atavist, cist, ForzaMinardi1977, Ildjarn, infiltrator, LEGION69, marilin, multizwilling, peppuzzo, randumbum, robertho777, satanist666, SilentNidhogg, Sjelekval, stub888, thenecromancer, THROWER666, tim47, Tino, toly1917, VALERY, varlam4, vasiljev_sergej, wreak,

56 Pages V  < 1 2 3 4 5 > » 
- Lo-Fi Version Support form
Copyrights and abuse reports form
Time is now: 23rd June 2021 - 21:37:51