Welcome Guest ( Log In | Register )

История благодарностей участнику paganheart ::: Спасибо сказали: 4992 раз(а)
Дата поста: В теме: За сообщение: Спасибо сказали:
Jun 2 2020, 11:39:43 Arabs In Aspic - Madness And Magic (2020)


*Artist: Arabs In Aspic
*Album: Madness And Magic
*Year: 2020
*Genre: Progressive Rock
*Country: Norway
*Format: mp3@CBR320kbps
*Size: 108MB

Tracklist:
1. I Vow To Thee, My Screen 08:22
2. Lullaby For Modern Kids, Part 1 08:19
3. Lullaby For Modern Kids, Part 2 02:06
4. High-Tech Parent 04:34
5. Madness And Magic 06:47
6. Heaven In Your Eye 16:45
******************************
Total playing time: 46:53

Preview 1

[more=Extended info]Line Up:
- Jostein Smeby / guitars, vocals
- Stig Jorgensen / organs, vocals
- Erik Paulsen / bass, vocals
- Eskil Nyhus / drums, cymbals
- Alessandro G. Elide / percussion, gongs[/more]

[more=Technical info]
Input File: 01-I vow to thee my screen.mp3
Channels : 2
Sample Rate : 44100
Precision : 16-bit
Duration : 00:08:22.51 = 22160515 samples = 37688 CDDA sectors
File Size : 20.1M
Bit Rate : 320k
Sample Encoding: MPEG audio (layer I, II or III)
Comments :
Title=I vow to thee my screen
Artist=Arabs in Aspic
Album=Madness and Magic
Tracknumber=1
Year=2020
Genre=Progressive Rock

[/more]

Register
(7) AHBAnep, infiltrator, marilin, Old Vyaine, Olethros, stumpheavyrock, yuratroll,
May 30 2020, 19:17:13 Paradise Lost - Medusa (2017)
На волне отличного нового альбома переслушиваю Медузу.... Господа-товарищи, вы зря холиварите, оба альбома преотличнейшие.... единственная слабая вещь на данном альбоме - это 1488.gif Frozen Illusion с "психоделического мяса" 90го года выпуска.
(1) Archy,
May 30 2020, 16:03:18 Descend Into Despair - Opium (2020)


*Artist: Descend Into Despair
*Album: Opium
*Year: 2020
*Genre: Funeral Doom Metal
*Country: Romania
*Format: mp3@CBR320kbps
*Size: 133MB

Tracklist:
1. Ensh[r]ine 22:28
2. Antumbra 17:08
3. Dis[re]member 19:55
******************************
Total playing time: 59:31



[more=Extended info]Xander Keyboards (early), Drums (2010-2014), Guitars, Vocals (2010-present)
Cosmin Guitars (2013-present)
Florentin Keyboards (2013-2014), Bass (2014), Guitars (acoustic) (2014-present), Keyboards, Lyrics (2017-present)
Alex Bass (2014-present)
Luca Drums (2014-present)
Flaviu Keyboards (2016-present)
Liviu Guitars (2019-present)

[youtube]46yYZRsE0oc[/youtube]
[youtube]IyNpVeRo2Qc[/youtube]
[youtube]ou6GsPHZySw[/youtube][/more]

[more=Technical info]
Input File: 02. Antumbra.mp3
Channels : 2
Sample Rate : 44100
Precision : 16-bit
Duration : 00:17:08.29 = 45347677 samples = 77121.9 CDDA sectors
File Size : 41.2M
Bit Rate : 321k
Sample Encoding: MPEG audio (layer I, II or III)
Comments :
Title=Antumbra
Artist=Descend Into Despair
Album=Opium
Tracknumber=2/3
Year=2020

[/more]

Register

Register
(16) cesar, gena, infiltrator, Jorn777, krotovich, nadin85, Olethros, pothead, robertho777, Samaritianin, satanath, Shadechaser, skidnik, supremo, thenecromancer, vyacheslav,
May 27 2020, 20:33:07 Sinister Downfall - A Dark Shining Light (2020)
Уже едет дисочек от лейбла в комплекте с дебютником. headcrab.png
(1) Bloodn Lord,
May 15 2020, 19:50:51 Paradise Lost - Obsidian (2020)
Вывод: я так понял, что Белоснежке альбом не понравился и он, как обычно поливает радужной субстанцией всех...ну пёс его знает, что так всё плохо в этом мире или в Ленинграде фон радиоактивный превышен, но картина самая обычная, как и в других темах - "баба Яга против", ничего нового. 1488.gif Кстати, дебют гораздо хуже Медузы. если чё, киньте моё "фу" в копилку тоже, если чё. 25.gif 1488.gif ЗЫ Да, Екатерина Матвеевна уж гораздо краше крайнего Крематория, который без Григоряна,тоже если чё... 1488.gif
(2) Ghostb, infiltrator,
May 13 2020, 07:57:32 Septic Flesh - Mystic Places Of Dawn (1994)
Рип, который выложил SyncestrA, да, звучит гораздо лучше оригинала. headcrab.png 9.gif
(2) Bloodn Lord, SyncestrA,
May 9 2020, 17:40:37 Green Carnation - Leaves Of Yesteryear (2020)
ЦИТАТА(Ghostb @ May 9 2020, 19:35:44) *
А этих почему выделяешь?

Ну, видимо, потому, что те активно косят под Тул, ну косили раньше, по крайней мере. 1488.gif
(1) Ghostb,
May 9 2020, 12:54:46 Death Sentence - Awaiting The Cinnamon Dawn (1999)
Хм, а я было решил, что это альбом моих земляков, которые тоже начинали c детх-дума и назывались Death Sentence, а потом реинкарнировали в Phantasmagory став играть прогдэт.
(2) Hellstriker, infiltrator,
May 7 2020, 08:43:02 Paradise Lost - Obsidian (2020)
Ну вот, даже тут, в этой теме Тиран опять яростно защищает Адепта и согласен с ним по всем позициям, как и в других темах, так, что спектакль это про "умного чсвшного металхэда-рэпера и простовато-нагловатого чсвшного трололо, косящего под шумера - фэна Оззика".)))))) 1488.gif Он бы уже, хоть раз, ну чисто ради приличия, не согласился с выводами своего альтер эго - духовного близнеца.))))
(1) Faust_Vulkan_16,
May 5 2020, 07:52:26 Paradise Lost - Obsidian (2020)
ЦИТАТА(SatanicPanzer @ May 5 2020, 09:50:31) *
Paradise Lost - Obsidian (Limited Edition) (2020) вроде ж качество, не? bye.gif

Неа. Транскод, как он есть. Православный срез на 17 килогерцах.
(1) zyklon,
May 5 2020, 07:48:08 Paradise Lost - Obsidian (2020)
ЦИТАТА(BleedingSun @ May 5 2020, 05:34:51) *
Руки прочь от Кататонии 13.gif
dooo.gif
dwarf-1.gif А альбом - огненный прямо-таки у моих любимцев вышел! Не подвели, хороняки, не подвели! headcrab.png
(1) BleedingSun,
May 2 2020, 20:27:15 Nick Cave And The Bad Seeds - The Boatman's Call (1997)
ЦИТАТА(Old Vyaine @ May 2 2020, 22:25:38) *
У Коляна странное диско. Есть офигительные вещи, альбом-94 я вознесу в самые топища. Но есть и ни о чём работы.

Да, да, да - Let Love In просто потрясающая пластинка! pray.gif pray.gif pray.gif
(2) Ghostb, Old Vyaine,
Apr 30 2020, 20:06:16 Witchcraft - Black Metal (2020)
ЦИТАТА(Krosis @ Apr 30 2020, 08:49:54) *
унылые завывания а-ля акустические поделки кзастура. не очень. а вокалом похоже на Сэлвика местами

Обычный вокал от Witchcraft, разве, что теперь в акустике. bye.gif Жаль, что альбом не такой хитовый, как Legend. И да, к этому вашему блэку группа отношения не имела изначально, это, как я понимаю, стеб на любимым жужжащепердящим жанром всея митолиздов. 1488.gif
(1) Ghostb,
Apr 28 2020, 19:30:36 Witchcraft - Black Metal (2020)


*Artist: Witchcraft
*Album: Black Metal
*Year: 2020
*Genre: Psychedelic/Occult Rock/Acoustic
*Country: Sweden
*Format: mp3@CBR320kbps
*Size: 73MB

Tracklist:
1. Elegantly Expressed Depression 05:29
2. A Boy and a Girl 01:57
3. Sad People 05:42
4. Grow 07:51
5. Free Country 03:57
6. Sad Dog 04:21
7. Take Him Away 03:42
******************************
Total playing time: 32:59

Preview 1

[more=Technical info]
Input File: 04. Grow.mp3
Channels : 2
Sample Rate : 44100
Precision : 16-bit
Duration : 00:07:51.77 = 20805233 samples = 35383 CDDA sectors
File Size : 18.9M
Bit Rate : 320k
Sample Encoding: MPEG audio (layer I, II or III)
Comments :
Title=Grow
Artist=Witchcraft
Album=Black Metal
Tracknumber=04/07
Year=2020
Discnumber=1/1

[/more]

Register
(19) Angry_Chair, BladeOvDarkness, Boozer, infiltrator, Krosis, KVRT, Leolomb, marilin, multizwilling, oldvarg, Olethros, popen13, smes, stub888, supremo, thenecromancer, VALERY, xska, ZA670,
Apr 25 2020, 17:25:58 JG Thirlwell & Simon Steensland - Oscillospira (2020)


*Artist: JG Thirlwell & Simon Steensland
*Album: Oscillospira
*Year: 2020
*Genre: Progressive Rock/RIO/Avant Prog
*Country: Sweden
*Format: mp3@CBR320kbps
*Size: 161MB

Tracklist:
1. Catholic Deceit 11:22
2. Heron 07:16
3. Night Shift 10:06
4. Papal Stain 09:58
5. Heresy Flank 08:23
6. Mare 07:37
7. Crystal Night 03:57
8. Redbug 11:16
******************************
Total playing time: 1:09:55

Preview 1
Preview 2

[more=Technical info]
Input File: 02. Heron.mp3
Channels : 2
Sample Rate : 44100
Precision : 16-bit
Duration : 00:07:16.19 = 19236111 samples = 32714.5 CDDA sectors
File Size : 17.6M
Bit Rate : 322k
Sample Encoding: MPEG audio (layer I, II or III)
Comments :
Title=Heron
Artist=JG Thirlwell & Simon Steensland
Album=Oscillospira
Tracknumber=2
Year=2020
Genre=RIO / Avant-Prog

[/more]

Register
(5) BlackTroll, infiltrator, Olethros, vosmidesijatye, yuratroll,
Apr 19 2020, 21:08:24 Katatonia - City Burials (2020)
Скажу, что пока мариновали альбом в модерке - успел его прослушать раз 10, причем с огромным удовольствием, а не как с крайним Лепроус: "по советам товарищей по партии для понимания глубины текущего момента". Скажу одно - меня Екатерина Матвеевна так не цепляла с времен "Виват пустоте" headcrab.png , ну, а там.... время покажет, но вряд ли мне альбом разонравится, в итоге.)))
(3) BleedingSun, infiltrator, mirotvorets,
Apr 12 2020, 08:27:44 Брюс Дикенсон или Валерий Кипелов
Пол Ди’Анно. 25.gif
(2) Borya_Tvorogov, Kazoth,
Apr 8 2020, 20:59:27 Чудодейственные свойства гомеопатии, или Голосовалка за лучший альбом 2019 года, Тур 2, Плэй-офф
ЦИТАТА(Deze @ Apr 8 2020, 22:25:54) *
Что значит, почему??? Ты посмотри на количество слушателей. Они бы даже в голосовалку советчиков прошли. Это не просто непопса, это супернепопса))))))))))

Ага, вот потом и не удивляйтесь почему забивают на ваши голосовалки. Или профиль в этом вашем ласт фм, делясь прослушиваниями обязан каждый слушатель музыки под страхом небесных кар? 1488.gif Поверь, многим, в том числе и мне, тем кому понравились Vltimas - настолько пох на вашу статистику, что даже представить невозможно. ЗЫ А диск Vltimas я заказал у Леши Станата, кстати.
(2) garmonbozia, infiltrator,
Apr 3 2020, 14:28:31 Чудодейственные свойства гомеопатии, или Голосовалка за лучший альбом 2019 года, Тур 1
ЦИТАТА(vosmidesijatye @ Apr 3 2020, 16:24:52) *
Hvis Lyset Tar Oss и Filosofem?

Нет, Det Som Engang Var - прежде всего. Ну, а вышеуказанное попозже.
(2) infiltrator, vosmidesijatye,
Mar 28 2020, 06:22:54 Me And That Man - New Man, New Songs, Same Shit, Vol.1 (2020)
ЦИТАТА(Ghostb @ Mar 28 2020, 04:10:22) *
Надеюсь, не будет таким третьесортным закосом под Кейва как дебютник. Может, даже приглашенные гости помогут вокальные партии вытянуть, а то чистый у него совершенно ужасен.

Кейву самому бы косить под самого себя, времен, хотя бы Let Love In, не мешало, а то эти "колыбельные" с времен Ноктюрамы уже и не отличить одну от другой. 21.gif Потому, раз Кейв не хочет в Кейва, то спасибо хотя бы Адаму за "правильного" Кейва.
(2) comradEnemy, infiltrator,
Mar 27 2020, 11:43:23 Me And That Man - New Man, New Songs, Same Shit, Vol.1 (2020)


*Artist: Me And That Man
*Album: New Man, New Songs, Same Shit, Vol.1
*Year: 2020
*Genre: Dark Folk/Country Blues/Country Rock
*Country: Poland
*Format: mp3@CBR320kbps
*Size: 95MB

Tracklist:
1. Run with the Devil (feat. Jørgen Munkeby) 02:30
2. Coming Home (feat. Sivert Høyem) 03:19
3. Burning Churches (feat. Mat McNerney) 03:19
4. By the River (feat. Ihsahn) 03:51
5. Męstwo 04:02
6. Surrender (feat. Dead Soul & Rob Caggiano) 03:42
7. Deep Down South (feat. Johanna Sadonis & Nicke Anderson) 03:49
8. Man of the Cross (feat. Jérôme Reuter) 04:35
9. You Will Be Mine (feat. Matt Heafy) 03:52
10. How Come? (feat. Corey Taylor & Rob Caggiano & Brent Hinds) 04:46
11. Confession (feat. Niklas Kvarforth) 02:47
******************************
Total playing time: 40:32

Preview 1

[more=Extended info]Альбом проекта Нергала Me and That Man New Man, New Songs, Same Shit, Vol.1 – образец дарк-фолка и блюза. В записи материала приняли участие Кори Тейлор (Slipknot, Stone Sour), Брент Хайндс (Mastodon), Мэтью Хифи (Trivium) и другие.[/more]

[more=Technical info]
Input File: 01 Run with the Devil (feat. Jørgen Munkeby).mp3
Channels : 2
Sample Rate : 44100
Precision : 16-bit
Duration : 00:02:30.27 = 6626775 samples = 11270 CDDA sectors
File Size : 6.32M
Bit Rate : 336k
Sample Encoding: MPEG audio (layer I, II or III)
Comments :
Title=Run with the Devil (feat. Jørgen Munkeby)
Artist=Me And That Man
Album=New Man, New Songs, Same Shit, Vol.1
Tracknumber=1/11
Year=2020
Genre=Rock
Discnumber=1/1

[/more]

Register
(44) 29A666, A.L.Rapsod, Angry_Chair, Aresson, as71, BladeOvDarkness, BleedingSun, Brann, Druidir, garml2, gena, gwar, Hellstriker, helvetestoner, HMHamster, HviteGuden, infiltrator, judaz, Konst, Krosis, legion01, Lux, MAYH, nadin85, Nattfodd, Ogneslov, Olethros, Orkkh, QuadenThyrane, sabr, SatanicPanzer, smes, soulskinner681, stone88, supremo, Tular, VALERY, wolverine, xska, ZA670, ZambuL, zyklon, Герб, Козлотролль,
Mar 26 2020, 18:31:46 Clutch - Monsters, Machines, And Mythological Beasts (2020)


*Artist: Clutch
*Album: Monsters, Machines, And Mythological Beasts
*Year: 2020
*Genre: Stoner Rock
*Country: United States
*Format: mp3@CBR320kbps
*Size: 97MB

Tracklist:
1. 10001110101 (05:00)
2. Ghoul Wrangler (04:27)
3. What Would a Wookie Do? (04:24)
4. Cyborg Bette (03:14)
5. Minotaur (04:51)
6. The Wolf Man Kindly Requests… (05:02)
7. Droid (Live) (04:04)
8. Behold the Colossus (03:51)
9. Sleestak Lighting (03:46)
10. Release the Kraken (JR Version) (03:35)
******************************
Total playing time: 42:14

Preview 1

[more=Technical info]
Input File: 01. 10001110101.mp3
Channels : 2
Sample Rate : 44100
Precision : 16-bit
Duration : 00:05:00.42 = 13248698 samples = 22531.8 CDDA sectors
File Size : 12.0M
Bit Rate : 320k
Sample Encoding: MPEG audio (layer I, II or III)
Comments :
Title=10001110101
Artist=Clutch
Album=Monsters, Machines, and Mythological Beasts
Tracknumber=01/10
Year=2020-20-20
Discnumber=1/1

[/more]

Register
(1) infiltrator,
Mar 20 2020, 20:10:22 Ном - Супердиск (1992)
ЦИТАТА(Old Vyaine @ Mar 20 2020, 21:52:59) *
Они в последнее время вообще сильно утяжелились.

Что есть, то есть. Альбом "Я тебя услышал" местами вообще - готик-дум самый натуральный. Что тут сказать, развиваются ребята, не стоят и не тухнут в своих миазмах, что еще больше вызывает чувство восхищения глубиной таланта Кагадеева и сотоварищей. headcrab.png
(1) Faust_Vulkan_16,
Mar 20 2020, 10:49:43 Ном - Супердиск (1992)
1. Нина 03:59 - вообще мегаклассика! pray.gif Они её на концертах по-другому сейчас исполняют, жестче намного, но не так психоделично-авангардно, как в оригинале.)))
(2) infiltrator, vosmidesijatye,
Mar 15 2020, 19:13:31 Psychotic Waltz - The God-Shaped Void (2020)
FLAC-rip 320 kbps со сканами - 11 песенное издание с бонусом 9. Season Of The Swarm (Bonus track)
Register
(3) boby9052, muskatnuss, SatanicPanzer,

37 Pages V   1 2 3 > » 
- Lo-Fi Version Support form
Copyrights and abuse reports form
Time is now: 7th June 2020 - 10:18:46