Welcome Guest ( Log In | Register )

История благодарностей участнику paganheart ::: Спасибо сказали: 5247 раз(а)
Дата поста: В теме: За сообщение: Спасибо сказали:
Feb 28 2021, 22:05:04 Земфира - Бордерлайн (2021)
Я чё-то не понял, уже 4я часть "Бордиков" вышла? И Рамазанова там главным геймдизайнером? 1488.gif Отэто поворот!
(3) Bruce, ent404, infiltrator,
Feb 20 2021, 20:02:30 Агата Кристи - Чудеса (1998)
ЦИТАТА(Old Vyaine @ Feb 20 2021, 19:23:46) *
Довольно слабый альбом для группы. Оба его соседа гораздо сильнее.

dooo.gif Я бы сказал, что самый слабый в их творчестве вообще. Много попсы и наркомании.
(1) vam1972,
Feb 19 2021, 19:42:16 Pain Of Salvation - Panther (2020)
Вот, как раз рипнул пришедший вчера двойной винил с бонусами. bye.gif Кстати, на прилагаемом к винилу CD, бонусов нет. Пришлось оцифровать пластинки.
[more="Рип с винила с бонусами в 320 и FLAC."]http://c.radikal.ru/c14/2102/7f/5c7d3b148826.jpg
Треклист:
1. Accelerator
2. Unfuture
4. Wait
5. Keen to a Fault
6. Fur 0
7. Panther
8. Species
9. Icon
10. Panther (Demo)
11. Keen to a Fault (Demo)
12. Fifi Gruffi
13. Unforever
Register

Register
[/more]
(3) mirotvorets, Morgoth666, Yarri,
Jan 19 2021, 19:16:38 Gospod - The Main Sins Of Humanity (2021)
"Солидный Gospod для солидных господ!" 25.gif
(1) Old Vyaine,
Dec 2 2020, 19:46:58 The Amorphous Androgynous & Peter Hammill - We Persuade Ourselves We Are Immortal (2020)
ЦИТАТА(Ghostb @ Dec 2 2020, 17:52:08) *
Первый трек топовый, последний тоже хорош, остальное зашло значительно меньше.

Нее - Psych Recap, вообще офигенная! headcrab.png headcrab.png headcrab.png
(2) infiltrator, mirotvorets,
Nov 30 2020, 21:02:16 The Amorphous Androgynous & Peter Hammill - We Persuade Ourselves We Are Immortal (2020)
Шикардоснейший альбом! Гоняю на репите 2й день! pray.gif pray.gif pray.gif Дядя Петя в сомнительных проектах не участвует!
(2) Ghostb, infiltrator,
Nov 19 2020, 16:41:26 AC/DC - Stiff Upper Lip (2000)
ЦИТАТА(vosmidesijatye @ Nov 19 2020, 17:15:20) *
Неплохой альбом. Среди особо "прикольных песенок" отмечу Stiff Upper Lip, Safe In New York City, Give It Up, а также Cyberspace, которая шла в бонусах.

Разве у сабжа есть различия в песнях? 1488.gif По-моему, с времен героического экстерминатуса Бонна Скотта они играют одну и ту же композицию, только текста придумывают иногда другие.
(1) Ghostb,
Nov 19 2020, 16:22:14 My Dying Bride - Macabre Cabaret [ep] (2020)
http://d.radikal.ru/d32/2011/a0/b265e7db5f48.jpg
Вот, как-то так мне увиделись все посты от предыдущих ораторов. Релизеру спасибо! Невеста веников не вяжет, и, как по мне, что "Свободу лебедям", что "Призрак Ориона" весьма хороши.)
(2) infiltrator, xax,
Nov 19 2020, 14:58:21 Dark Tranquillity - Moment (2020)
ЦИТАТА(vosmidesijatye @ Nov 19 2020, 15:50:20) *
Макс, давай, на бис 15.gif

Чё там, как обычно всё? Альбом - говно, кому понравилось - не имеющий элементарного вкуса индивидуум, ибо не понравилось самому... - ГУРУ!!!!? Думаю, что я угадал. 1488.gif ЗЫ Альбом - очень ждал, еще не успел послушать, но последний сингл был потрясающий! headcrab.png
(2) Faust_Vulkan_16, infiltrator,
Nov 15 2020, 21:03:26 Lunatic Soul - Through Shaded Woods (2020)
ЦИТАТА(nikolay81 @ Nov 15 2020, 20:19:01) *
Перезалейте, пожалуйста

Register
Параметры такие же. bye.gif
(2) dimitriusk, Нигилист,
Oct 29 2020, 18:08:05 Puscifer - Existential Reckoning (2020)


*Artist: Puscifer
*Album: Existential Reckoning
*Year: 2020
*Genre: Experimental Rock/Post-Industrial/Alternative
*Country: United States
*Format: mp3@CBR320kbps
*Size: 140MB

Tracklist:
1. Bread and Circus (06:28)
2. Apocalyptical (05:22)
3. The Underwhelming (05:04)
4. Grey Area (03:58)
5. Theorem (05:04)
6. UPGrade (04:53)
7. Bullet Train to Iowa (05:05)
8. Personal Prometheus (07:25)
9. A Singularity (05:30)
10. Postulous (03:41)
11. Fake Affront (03:28)
12. Bedlamite (04:50)
******************************
Total playing time: 1:00:48

Preview 1

[more=Extended info]Мейнард))))[/more]

[more=Technical info]
Input File: 01 Bread And Circus.mp3
Channels : 2
Sample Rate : 44100
Precision : 16-bit
Duration : 00:06:28.46 = 17131174 samples = 29134.6 CDDA sectors
File Size : 15.5M
Bit Rate : 320k
Sample Encoding: MPEG audio (layer I, II or III)
Comments :
Title=Bread And Circus
Artist=Puscifer
Album=Existential Reckoning
Tracknumber=01/12
Year=2020-20-20
Discnumber=1/1

[/more]

Register
(12) boby9052, DeamonRed, Ghostb, gwar, infiltrator, J0k3r, Maniakk, mirotvorets, Olethros, p4B10, randumbum, xska,
Sep 1 2020, 11:28:58 Pain Of Salvation - Panther (2020)
Хех, Keen To A Fault мне вообще показалась некой аллюзией на сольное творчество Питера Гэбриела, да и вокал Даньки подчеркивает сходство. Альбом кайфовейший - его прям смакуешь, а он раскрывается новыми красками раз за разом. headcrab.png headcrab.png headcrab.png Зря они синглами выпускали композиции, зря - это очень цельный, монолитный альбом, я бы назвал его музыкальным воплощением идеологии киберпанка, по ощущениям от прослушивания.
(2) BleedingSun, Yarri,
Aug 31 2020, 10:05:54 Pain Of Salvation - Panther (2020)
Чет затащил альбом, прямо не по-детски. 1488.gif С прошлым такого не было - тот сразу цепанул, а этот надо было несколько раз хорошенько прослушать, еще и попасть в нужное настроение. У меня так же со Скарсиком было, который поначалу обескуражил, а потом, как пропер!!! headcrab.pngЗЫ проходных композиций не замечено вообще (это еще один камень в огород Лепроуз, от которых у меня задницу печет до сих пор 1488.gif ). Фаворитами пока выделю: Icon, Panther, Keen to a fault, Accelerator. bye.gif
(4) BleedingSun, Exorcist, ingested, MeatKnife,
Aug 3 2020, 08:41:12 Uriah Heep - Living The Dream (2018)
Спустя 2 года наконец-то послушал. 1488.gif Отличный альбус, собственно, держат марку после Аутсайдера. Rockin In The Road прям сразу вкатила так не по-детски.
(1) wwwgnom,
Aug 1 2020, 19:38:29 Nick Cave And The Bad Seeds - No More Shall We Part (2001)
ЦИТАТА(Ghostb @ Aug 1 2020, 21:24:54) *
"Push the Sky Away"

Из поздних - самая мякотка! headcrab.png
(2) Ghostb, infiltrator,
Jul 31 2020, 14:36:04 Septicflesh - Infernus Sinfonica Mmxix [live] (2020)
ЦИТАТА(Dmitry1977 @ Jul 31 2020, 14:46:01) *
Это тебе Леша Анальный сказал? Или на Эхе Москвы была передача? Что-то я упустил.

Ну у Леши и его либеральных сотоварищей еще с времен Петра Ликсеича во всех методичках записано жирным шрифтом: " в любой полемике все должно скатиться в поливание говном России, будь эта тема, хоть о котиках, хоть о погоде, хоть о Септикфлеш 1488.gif "
(4) Dmitry1977, Ghostb, infiltrator, ripper33,
Jul 30 2020, 20:14:54 Nick Cave And The Bad Seeds - No More Shall We Part (2001)
[youtube]AeTYL_cKGyI[/youtube]
Альбом - шикарнейший! Где-то до сих пор лежит лицензионная студийная кассета с оным. А открывашка - одна из любимейших в творчестве дяди Коли. headcrab.png
(2) Ghostb, infiltrator,
Jul 30 2020, 18:09:44 Septicflesh - Infernus Sinfonica Mmxix [live] (2020)


*Artist: Septicflesh
*Album: Infernus Sinfonica Mmxix [live]
*Year: 2020
*Genre: Symphonic Death Metal
*Country: Greece
*Format: mp3@CBR320kbps
*Size: 186MB

Tracklist:
1. Intro 01:56
2. Portrait of a Headless Man 05:28
3. Martyr 05:55
4. Prototype 05:39
5. The Pyramid God 06:09
6. The Enemy of Truth 06:37
7. Communion 04:15
8. The Vampire from Nazareth 04:48
9. Dogma of Prometheus 05:54
10. Lovecraft's Death 04:37
11. Dante's Inferno 06:26
12. Persepolis 06:54
13. A Great Mass of Death 05:28
14. Anubis 05:30
15. Dark Art 05:39
******************************
Total playing time: 1:21:15

Preview 1
Preview 2

[more=Extended info]Band members
Seth Siro Anton Bass, Vocals (harsh)
Christos Antoniou Guitars
Sotiris Vayenas Vocals (clean)
Kerim Lechner Drums
Guest/Session
Dinos "Psychon" Prassas Guitars
Symphonic Experience Orchestra Orchestra
Enharmonía Vocalis Choir Vocals (choirs)
National University of Mexico Children's and Youth Choir Vocals (choirs)
Miscellaneous staff
Anel Baldit Producer
Iván Lopto Producer
Dante Díaz Producer
Dinos "Psychon" Prassas Mixing, Mastering
Juan Ramón Oliva Recording
Gerardo Urbán y Fernández Conductor
Manuel Vargas-Mena Recording (assistant)[/more]

[more=Technical info]
Input File: 02. Portrait of a Headless Man.mp3
Channels : 2
Sample Rate : 44100
Precision : 16-bit
Duration : 00:05:28.59 = 14490775 samples = 24644.2 CDDA sectors
File Size : 13.2M
Bit Rate : 321k
Sample Encoding: MPEG audio (layer I, II or III)
Comments :
Title=Portrait of a Headless Man
Artist=Septicflesh
Album=Infernus Sinfonica MMXIX
Tracknumber=2
Year=2020
Genre=Death Metal
Discnumber=1

[/more]

Register
(45) 6666666, aa144aa, ahp, Aresson, BERZERK, Bloodn Lord, cancer1974, cesar, chipsgott, dark1988, drrmad, dulak, Faust_Vulkan_16, Femto, HMHamster, infiltrator, insufferable, Kaphiel, kostja, Legacy100, leviathanticus, martintrue, Metalass, Mogozoz, multizwilling, Nattfodd, nnnmmm, older68, Olethros, Ostinato, pinkheim, popen13, respect, Reverend, Rosen, sarcophagus, supremo, Thiarnan, THROWER666, tOmV, VALERY, varlam4, Xor, yuratroll, Сварог Барг,
Jul 9 2020, 17:30:35 Samael - Transcendence [single] (2020)
Хм, неожиданно отличный сингл. 9.gif А ведь с времен вышеупомянутого Eternal у них вообще ничего не цепляло.
(2) Bloodn Lord, sethurius,
Jul 4 2020, 20:35:57 Haken - Virus (2020)
ЦИТАТА(vosmidesijatye @ Jul 4 2020, 15:56:25) *
Адептус стайл 1488.gif

Там еще "Ряяяяя", должно быть, в аккурат из-за спины педобира.))))) 1488.gif
(3) BleedingSun, Ghostb, infiltrator,
Jul 3 2020, 19:10:11 Hollow Ship - Future Remains (2020)
Хороши! Душевнейшие товарищи! 9.gif
(1) vosmidesijatye,
Jul 1 2020, 08:55:32 The Mad Goats - Rising Of The Goat (2020)


*Artist: The Mad Goats
*Album: Rising Of The Goat
*Year: 2020
*Genre: Stoner Doom Metal/Psychedelic Rock
*Country: Costa Rica
*Format: mp3@CBR128kbps
*Size: 73MB

Tracklist:
1. Hide and Seek 06:53
2. King of Queens 07:32
3. Temblor at Midnight 06:31
4. Sex and Cities 05:17
5. No Time for Losers 05:16
******************************
Total playing time: 31:29




[more=Extended info]transcode from 128 kbps
The name and art of "Rising of the Goat" are based on Amalthea, muse of Greek mythology. Sometimes it is represented as the goat that breastfed the god Zeus.[/more]

[more=Technical info]
Input File: The Mad Goats - King of Queens.mp3
Channels : 2
Sample Rate : 44100
Precision : 16-bit
Duration : 00:07:32.76 = 19966540 samples = 33956.7 CDDA sectors
File Size : 18.3M
Bit Rate : 324k
Sample Encoding: MPEG audio (layer I, II or III)
Comments :
Title=King of Queens
Artist=The Mad Goats
Album=Rising of the Goat
Year=2020

[/more]

Register
(5) infiltrator, killingod, Olethros, Rosen, stumpheavyrock,
Jul 1 2020, 08:18:57 Haken - Virus (2020)


*Artist: Haken
*Album: Virus
*Year: 2020
*Genre: Progressive Metal/Rock
*Country: United Kingdom
*Format: mp3@CBR320kbps
*Size: 119MB

Tracklist:
1. Prosthetic 05:58
2. Invasion 06:42
3. Carousel 10:29
4. The Strain 05:23
5. Canary Yellow 04:14
6. Messiah Complex I: Ivory Tower 03:57
7. Messiah Complex II: A Glutton for Punishment 03:38
8. Messiah Complex III: Marigold 02:24
9. Messiah Complex IV: The Sect 02:02
10. Messiah Complex V: Ectobius Rex 04:57
11. Only Stars 02:10
******************************
Total playing time: 51:54

Preview 1


[more=Extended info]Line Up:
- Ross Jennings / vocals
- Charlie Griffiths / guitars
- Richard Henshall / guitars
- Diego Tejeida / keyboards
- Conner Green / bass
- Raymond Hearne / drums[/more]

[more=Technical info]
Input File: 01 - Haken - Prosthetic.mp3
Channels : 2
Sample Rate : 44100
Precision : 16-bit
Duration : 00:05:58.22 = 15797370 samples = 26866.3 CDDA sectors
File Size : 14.4M
Bit Rate : 322k
Sample Encoding: MPEG audio (layer I, II or III)
Comments :
Title=Prosthetic
Artist=Haken
Album=Virus
Tracknumber=1/11
Year=2020
Genre=Progressive Metal
Discnumber=1/1

[/more]

Register
(40) 555, andgrek28, BERZERK, BlackTroll, BladeOvDarkness, boby9052, Cartman223, comradEnemy, demon_e, DenisKov, Ghostb, Herrant, infiltrator, Jorn777, leviathanticus, Lukittaz, metala, Metalass, MMMMM, Mogozoz, Mplast, Nattfodd, nygga, Old Vyaine, oldvarg, Olethros, Regnat, Rodriga, Rosen, Rover, SAPOGi, SatanicPanzer, Shadowman, smes, terron, xska, Yarri, Yorker, yuratroll, Нигилист,
Jun 21 2020, 16:52:22 Hail Spirit Noir - Eden In Reverse (2020)
Ccыль на Limited Edition с 2мя бонусами, битрейт 320, размер 128 Мб
Register
(15) AlivePhantom, BlackTroll, BleedingSun, Daale, Deze, Femto, GFW, Ghostb, Johnix, Mencae77, Old Vyaine, xska, yuratroll, Нигилист, скептик,
Jun 18 2020, 18:56:09 Hail Spirit Noir - Eden In Reverse (2020)
Чудесный альбом! Уже несколько раз прогнал и не могу остановиться! Очешуительный прог/спейс - рок/металл, просто высочайшей пробы! headcrab.png headcrab.png headcrab.png На 4м треке, кстати, поет, приглашенный Лазаре из Solefald/Borknagar/Age Of Silence. ЗЫ Вокал везде отличный, в том числе и именитого гостя). ЗЫЫ Блэка тут нет, совсем, совсем нет, металла тоже на полкопейки. 1488.gif
(8) BleedingSun, Daale, Evilded, Faust_Vulkan_16, Ghostb, Metalass, Old Vyaine, smes,

38 Pages V   1 2 3 > » 
- Lo-Fi Version Support form
Copyrights and abuse reports form
Time is now: 25th June 2021 - 05:10:23