Welcome Guest ( Log In | Register )

История благодарностей участнику DarkHorde ::: Спасибо сказали: 8059 раз(а)
Дата поста: В теме: За сообщение: Спасибо сказали:
Oct 16 2021, 10:47:15 Necromantia - To The Depths We Descend... (2021)
RADeus, огромное спасибо! 9.gif
Песни от MMXXI по своему хороши, оригиналы мрачны, но и здесь атмосфера великолепна. Не испоганили треки
(1) Occultas,
Aug 30 2021, 02:13:11 Marthirio - Mosh Till Death (2021)
ЦИТАТА(ai6666 @ 30th August 2021 - 04:43:51) *
А разве в трэше главное скорость?

В первую очередь! Thrash = молотить
(1) Diflock,
Aug 5 2021, 01:56:39 Новости Black-направления
ЦИТАТА(Occultas @ 4th August 2021 - 06:43:51) *
Besatt - Supreme And True At Night, release August 27

1488.gif Смешно, Стекловата
(1) Occultas,
Jul 30 2021, 03:25:26 Graveslave - No Center (2021)
Added links by Samaritianin
(3) infiltrator, Ostinato, supremo,
Jul 25 2021, 03:04:25 Новости Thrash Metal направления
ЦИТАТА(assonik @ 24th July 2021 - 03:50:21) *
там криэйтор анонсировали ремастер эднорамы

Чем ещё на пенсии заниматься? Всякой хернёй! 1488.gif
(1) avather,
May 30 2021, 13:27:25 Impaled Nazarene - Eight Headed Serpent (2021)
Как всегда мега-круто и мега-безбашенно! metaler.gif
(5) Alexis The Best, infiltrator, neoatheist, Occultas, S_tarot,
May 7 2021, 02:44:52 Abigor - Quintessence [compilation] (2012)
Added links by Occultas


[more=Extended info]bandcamp, partly re-recorded, remastered[/more]
(1) Occultas,
Apr 23 2021, 02:11:47 Ulvehyrde - Englemakersken (2021)
Added links by Samaritianin
(1) Occultas,
Apr 20 2021, 09:12:57 Cannibal Corpse - Violence Unimagined (2021)
Обычный ДМ, ничем не примечательный, без изысков, на пару раз послушать. Сейчас таких групп десятки, если не больше.
(1) BleedingSun,
Apr 16 2021, 03:01:12 Aggravator - Unseen Repulsions [ep] (2021)
Превью качает здорово metaler.gif
(2) infiltrator, Samaritianin,
Apr 9 2021, 13:19:39 Onchocerciasis Esophagogastroduodenoscopy - The Rotted Plinth Of Sachiel (2021)
ЦИТАТА
Pre-order Digital Album $999 USD or more
Send as Gift

1488.gif
(2) Occultas, vosmidesijatye,
Apr 4 2021, 02:10:09 Wandar - Landlose Ufer (2012)
Added links by Samaritianin



[more=Extended info]Sigurdur Bass
Zazhgul Guitars
Westram Guitars
Skoll von Kallenheim Vocals
Michael Drums[/more]

[more=Technical info]
Input File: 06 Wintersang.mp3
Channels : 2
Sample Rate : 44100
Precision : 16-bit
Duration : 00:05:39.09 = 14953781 samples = 25431.6 CDDA sectors
File Size : 14.2M
Bit Rate : 335k
Sample Encoding: MPEG audio (layer I, II or III)
Comments :
Title=Wintersang
Artist=WANDAR
Album=Landlose Ufer
Tracknumber=6/6
Year=2021-21-20
Discnumber=1/1

[/more]
(1) Samaritianin,
Mar 17 2021, 03:46:12 Rbapho & Langdarma - Demo #2 Split (Raw​/​unmixed) [split] (2020)
Changeling & Everlasting Light - Changeling/Everlasting Light [split] (2021) пример правильного оформления сплита
(1) ITNOR,
Mar 17 2021, 03:45:31 Morbus Grave & Deathfucker - Defilers In Morbid Decay [split] (2020)
Changeling & Everlasting Light - Changeling/Everlasting Light [split] (2021) пример правильного оформления сплита
(2) ITNOR, Occultas,
Feb 27 2021, 01:46:39 Los Males Del Mundo - Descent Towards Death (2021)
Added links by Samaritianin
(3) infiltrator, rickzammuto, The_Hound,
Feb 11 2021, 03:09:27 Asregen - Saturnus’ Nacht (2014)
Added links by smysl
(1) Occultas,
Feb 1 2021, 02:18:22 Humiliation - Xi: Triumphant (2020)
Added links by Geluelf
(1) Samaritianin,
Jan 21 2021, 12:46:49 Ektomorf - Reborn (2021)
Кому как. По мне прошлый мощнейший драйвовый альбом! Надеюсь и здесь не подвели.
(3) Bloodn Lord, infiltrator, Shadechaser,
Dec 9 2020, 00:57:02 Nihil Invocation & Drug Darkness - Deathly Hand & Spirits Unredeemed [split] (2020)

 ! 

Пример правильного оформления треклиста для сплита Kommodus & Valac - Eclipsing Honour And Decay [split] (2020)
 
(1) Cramloth,
Nov 28 2020, 12:27:08 Sodom - Genesis XIX (2020)
Это что ещё такое?! Сингл и EP вселяли надежды, слабые, но они были. И всё оправдалось! metaler.gif Настолько неожиданным вышел релиз, мощным, энергичным, что не верится, что старички на такое способны. Ни одного проходного трека, ни одной унылой сопли. На фоне тех же Kreator выглядят молодыми и поджарыми) И доказали что могут тряхнуть стариной, и выдать бомбу.

Послесловие:
М-16 унылые сопли.
Думаю львиную долю свежести и мощи группе предала свежая кровь в составе, иначе они бы так и остались старпёрским среднетемповым трешем.
(2) BelfegoR13, Mick Dundee,
Nov 15 2020, 03:07:15 Belphegor - Necrodaemon Terrorsathan (2000)
ЦИТАТА(Occultas @ 14th November 2020 - 04:06:01) *
reissue, remastered 2020

Вот за это 9.gif
(2) infiltrator, Occultas,
Nov 10 2020, 02:16:04 Cytolysis - Portraits Of Malevolence (2020)
Added links by Andrew
(2) EvilSpirit, infiltrator,
Oct 30 2020, 12:19:45 Convulse - Deathstar (2020)
ЦИТАТА(troll_swamp @ 30th October 2020 - 20:24:45) *
Ну это конечно же не дет.

Однозначно нет. Вышли за рамки дэт метала, я бы назвал progressive death metal, обобщив все стили что здесь можно услышать.
(4) infiltrator, Metalass, Storky, troll_swamp,
Oct 17 2020, 13:46:40 Benediction - Scriptures (2020)
Однако очень неожиданно. Насколько приятный альбом вышел, суровый, без соплей. Старички тряхнули так тряхнули) Узнаваемый звук, вокал, всё прекрасно)
(4) Alexis The Best, hammer, Samaritianin, Strangler,
Oct 6 2020, 02:35:58 Kataklysm - Unconquered (2020)
Уже лет 20 ничего интересного у них нет.
(3) hammer, infiltrator, sabr,

111 Pages V   1 2 3 > » 
- Lo-Fi Version Support form
Copyrights and abuse reports form
Time is now: 24th October 2021 - 14:39:05