Welcome Guest ( Log In | Register )

История благодарностей участнику дивин ::: Спасибо сказали: 366 раз(а)
Дата поста: В теме: За сообщение: Спасибо сказали:
Jun 10 2022, 17:42:50 Satyricon - Satyricon & Munch (2022)
[youtube]iXapvhWbjmc[/youtube]
(4) Chasm, LadyElvina, Occultas, rominow,
Jun 2 2022, 20:00:37 Astronoid - Radiant Bloom (2022)
Эмо панк какой-то.
[youtube]vWYYDZKyafk[/youtube]
(2) aleon, Shadowman,
May 29 2022, 11:06:27 Pardals - Pardals [ep] (2022)


*Artist: Pardals
*Album: Pardals [ep]
*Year: 2022
*Genre: Instrumental Post-Rock
*Country: Spain
*Format: mp3@CBR320kbps
*Size: 51MB

Tracklist:
1. I 04:09
2. II 03:14
3. III 04:18
4. V 04:13
5. X 05:05
******************************
Total playing time: 20:59



[more=Extended info]Дебютный релиз из Ибицы (Испания). Да, они умеют считать до 5 римскими цифрами, это долгая история...
[/more]

[more=Technical info]
Input File: 01 - I.mp3
Channels : 2
Sample Rate : 44100
Precision : 16-bit
Duration : 00:04:09.14 = 10986942 samples = 18685.3 CDDA sectors
File Size : 10.4M
Bit Rate : 335k
Sample Encoding: MPEG audio (layer I, II or III)
Comments :
Title=I
Artist=PARDALS
Album=Pardals (EP)
Tracknumber=1
Year=2022
Genre=Post-Rock

[/more]

Register
(2) Buregon, Olethros,
May 26 2022, 07:41:16 Mournful Congregation - The Exuviae Of Gods - Part I [ep] (2022)
ЦИТАТА(Ambercandle @ 25th May 2022 - 23:35:35) *
mirror

Register
(18) Ambercandle, doomTemplar, ENDSMOUTH, Femto, Ingvar, Irimias, kluval, madera, marilin, Mencae77, milosdjor, nadin85, ondrazevsi, sergsazan, Strygaldwir, valgalder, vyacheslav, Xor,
May 25 2022, 18:00:46 Hexis - Exhaurire [single] (2022)
ЦИТАТА(Andrew @ 25th May 2022 - 11:20:56) *
*Стиль: Black Metal

Blackened Sludge
Как всегда Hexis на высоте. Жду новый альбом "Aeternum". Вроде как 26 августа 2022.
(1) scrollbar,
May 24 2022, 20:09:30 Pagan Reign - Огни Мироздания [ep] (2022)
Про музыку говорить не буду, я такое не люблю. Но меня заинтриговало 4. Рассвет (Live in Tokyo) подумал, что это за Токио такой, клуб наверное так называется. Хрен там, действительно в 2019 были в Японии в мини туре с EINHERJER и TYR. Сказать, что я удивлён, да я охренел, даже видео нашёл на ютубе. Весьма неожиданно для меня во всяком случае из Твери в Токио.
[youtube]1uWecNCdgA8[/youtube]
(1) Necromicon666,
May 24 2022, 10:52:19 Einvigi - Yö Kulje Kanssani (2022)
ЦИТАТА(deathic @ 24th May 2022 - 11:18:24) *
Please, re-upload.


Register
(3) deathic, Farfarello, Ludwig Hagen,
May 22 2022, 18:22:45 Gauntlet Ring - Tyrannical Bloodlust (2022)
ЦИТАТА(rimfrost @ 22nd May 2022 - 15:23:59) *
Отзеркальте плз на медиаогонь или мегу !



Register
(9) eisigerwind, gobblin, Ignativs, metaljosue, rimfrost, robertho777, Storky, vasiljev_sergej, WOLAND,
May 22 2022, 11:15:56 Vetëvrakh - Satanic Black Moloch (2022)
[youtube]i9y7KwcS1E4[/youtube]
(4) ent404, Occultas, rominow, TodesGott,
May 22 2022, 10:57:57 Ophe - Somnium Nocte Mendaciis (2022)
ЦИТАТА(WOLAND @ 22nd May 2022 - 00:09:15) *
Что кофе?


Это шутки за 300.

Вот нашёл свежий клип на ютубе
[youtube]4EbVHikJ4Os[/youtube]
(1) WOLAND,
May 17 2022, 12:26:13 Blut Aus Nord - Disharmonium - Undreamable Abysses (2022)
ЦИТАТА(AHBAnep @ May 17 2022, 11:55:26) *
Ступенька на сонограмме на 16 КГц. Характерная для оцифровки потокового аудио. Плюс подозрительно всё слишком раннее. Преждевременное тем более.


Спасибо за пояснение, конечно.
Так себе новость. У меня наверное половина релизов в Spek ступеньками на 16кГц показывает, а я всё на 20 кГц смотрел, думал что не транскод, это если на 16 обрезано, то плохо. Вот и качай с сусликов\трекеров с их заявленными 320. 6.gif

По теме, BaN не разочаровал.
(1) Occultas,
May 14 2022, 12:36:06 Mountaineer - Sirens & Slumber (2017)
Re-Upload
Register
(1) quarantine,
May 14 2022, 12:33:49 Mountaineer - Passages (2018)
Re-upload
Register
(1) quarantine,
May 14 2022, 12:32:37 Mountaineer - Giving Up The Ghost (2022)
Re-upload
Register
(3) Ingvar, metaljosue, quarantine,
May 12 2022, 06:44:29 The Gathering - Beautiful Distortion (2022)
Нашёл в интернетах вот такое исследование:
ЦИТАТА
Как хорошо складываются названия песен в предложения:
In colour when we fall grounded we rise. Black is [the]magnified weightless pulse of life on delay.

Черный — это усиленный невесомый пульс отложенной жизни. Пульс жизни — чистый сигнал. При применении дисторшна с усилением входного сигнала увеличивается доля искажений этого сигнала.
В цвете, когда мы падаем на землю, мы поднимаемся. То есть, цвет — это чистый слабый сигнал за всеми помехами, который нужно разглядеть.

После того, как я это заметил, стало окончательно понятно и название альбома, и решение выпустить 2 трека отдельно на EP.

Получается, и название Interference (помехи) означает, что эти треки помешали бы восприятию главной идеи, если бы были включены в альбом"
(2) Ghostb, mirotvorets,
May 7 2022, 15:14:44 1648 - Lying Among Despised Ones Of The Earth (2022)
ЦИТАТА
Темы «Lying Among Despised Ones Of The Earth» уходят корнями в английскую историю, особенно в английскую революционную историю. 1648 год был годом начала Второй гражданской войны в Англии, события, которое привело к казни — обезглавливанию — короля Карла I в следующем году.
© Bandcamp

ЦИТАТА
Основанный в «Мэдчестере», Англия, и созданный одним человеком, 1648 строит свое звучание на упрощенных, драйвовых битах драм-машины, а затем доводит идею «сырого блэк-метала» до предела своих возможностей. Пять растянутых треков, бескомпромиссно резких более 40 минут подряд, 1648 держит темп до самой смерти, все время достигая пика, как межпространственный вулкан. Неожиданный и ошеломляющий, «Laying Among the Despised Ones of the Earth» — это подвиг впечатляющей самоотверженности, дикого мастерства и садистской звукорежиссуры.
© thecallofthenight.com

Мне релиз неожиданно понравился. Возможно в настроение попал, но тут вполне себе атмосферненько.
(1) Danilodanilo,
May 4 2022, 08:12:18 Aūkels - Ebwaidilīsnā (2022)
Первый альбом 2021 Raynkaym неплохим был, этот думаю тоже не подкачает. Такой своеобразный польский вариант Drudkh с лирикой на польском.
(1) smes,
Apr 29 2022, 08:12:50 The Gathering - Beautiful Distortion (2022)


*Artist: The Gathering
*Album: Beautiful Distortion
*Year: 2022
*Genre: Atmospheric/Alternative Rock
*Country: Netherlands
*Format: mp3@CBR320kbps
*Size: 160MB

Tracklist:
CD 1:
1. In Colour 05:49
2. When We Fall 05:23
3. Grounded 06:52
4. We Rise 06:47
5. Black is Magnified 06:19
6. Weightless 05:50
7. Pulse of Life 06:44
8. On Delay 04:30
CD 2:
1. Stronger 05:26
2. Disconnect 06:04
3. How to Measure a Planet? (Live Version) 10:28
******************************
Total playing time: 1:10:12



[more=Extended info]The Gathering:
Frank Boeijen – keyboards, hammond, rhodes, wurlitzer & grand piano
Hugo Prinsen Geerligs - bass guitars, electric guitars, keyboards, grand piano & percussion
René Rutten - electric and acoustic guitars, keyboards & percussion
Hans Rutten - drums & percussion
Silje Wergeland - vocals
[youtube]rBZY7bFYlWY[/youtube][/more]

[more=Technical info]
Input File: 02 - Disconnect.mp3
Channels : 2
Sample Rate : 44100
Precision : 16-bit
Duration : 00:06:03.73 = 16040317 samples = 27279.5 CDDA sectors
File Size : 14.6M
Bit Rate : 320k
Sample Encoding: MPEG audio (layer I, II or III)
Comments :
Title=Disconnect
Artist=The Gathering
Album=Beautiful Distortion
Tracknumber=2/3/3
Year=2022
Discnumber=1/1/1

[/more]

Register
(48) 6666666, A.L.Rapsod, Alpha_Prime, Aresson, BERZERK, Cartman223, cesar, demogogron, garml2, Ghostb, gwar, HMHamster, Hovnoliaty, IamTLR, judaz, kimkayoung, Konst, Kwaad, LiarOfAngmar, Lord Noctua, lucifix, madera, metala, Mist13Signifier, Mplast, natrogrii, Noxius, nsmetalhead, obituarydark, Old Vyaine, oldvarg, Olethros, paganheart, Peikko, Phlebotomized, plfan93, popen13, princeshr, recber, Shadechaser, Un4given, VALERY, varnack, Wail, Xor, Yarri, yuratroll, ZloY_GreY,
Apr 25 2022, 20:16:11 Celestial Season - Mysterium I (2022)
ЦИТАТА(mirotvorets @ Apr 25 2022, 12:26:05) *
Эта группа более всего примечательна тем, что в ней играет участник The Kilimanjaro Darkjazz Ensemble. )


А ещё вокалист Orphanage ))) Хорошая была группа, жаль что распались.
(2) Emm Human, Mplast,
Mar 24 2022, 10:34:15 Various Artists - A Maximum Tribute To Pantera (Metal Hammer Promo CD) [compilation] (2022)


*Artist: Various Artists
*Album: A Maximum Tribute To Pantera (Metal Hammer Promo CD) [compilation]
*Year: 2022
*Genre: Groove/Thrash Metal
*Country: Many
*Format: mp3@CBR320kbps
*Size: 105MB

Tracklist:
01. Cataract - Fucking Hostile 02:54
02. Aborted - Slaughtered 03:57
03. Tyr - Cemetery Gates 07:27
04. Hellsongs - Walk 04:48
05. Whitechapel - Strength Beyond Strength 03:50
06. Nonpoint - 5 Minutes Alone 05:47
07. O'Keefe Music Foundation – Drag The Waters 04:38
08. Steve 'n' Seagulls - I'm Broken 02:59
09. Angelus Apatrida - Domination 05:05
******************************
Total playing time: 41:25

[more=Extended info]Released in a cardboard sleeve. Comes for free with the German magazine "Metal Hammer" issue February 2022.[/more]

[more=Technical info]
Input File: 01. Cataract - Fucking Hostile.mp3
Channels : 2
Sample Rate : 44100
Precision : 16-bit
Duration : 00:02:53.83 = 7665947 samples = 13037.3 CDDA sectors
File Size : 6.95M
Bit Rate : 320k
Sample Encoding: MPEG audio (layer I, II or III)
Comments :
Title=Fucking Hostile
Artist=Cataract
Album=A Maximum Tribute to Pantera
Tracknumber=1
Year=2022

[/more]

Register
(21) artscald, Carcharoth, caro, chipsgott, CTPEMLEHIE, Diflock, DMIYUR, Hell_Is_Here, infozahist, KKK1488, Marek, METALHUNTER, noel666, Occultas, piwimetal, popen13, robertho777, sludge666, varlam4, Wail, wreak,
Mar 22 2022, 10:00:05 Кметъ - Солнце, Ладога И Киев (2022)
Я так понимаю, это импортозамещение Limp Bizkit.
(2) Chasm, Storky,
Mar 18 2022, 17:45:23 Nanna Barslev - Lysbærer (2022)
Register
(7) + ATheisT +, garml2, KKK1488, lafuma, leks, oden44, vader9,
Feb 28 2022, 20:13:44 Catbamboo - Fervor (2022)


*Artist: Catbamboo
*Album: Fervor
*Year: 2022
*Genre: Progressive/Math Rock/Instrumental
*Country: United States
*Format: mp3@CBR320kbps
*Size: 75MB

Tracklist:
01. Swindle (02:51)
02. Second Guess (03:22)
03. Blackjack (03:29)
04. Afflicted (03:19)
05. Interlude (01:10)
06. Jelly (04:06)
07. Crave (03:12)
08. Next (03:29)
09. 50/50 (03:27)
10. Flee (03:32)
******************************
Total playing time: 31:57


 i 

2.3.в
 





[more=Technical info]
Input File: 01 - Swindle.mp3
Channels : 2
Sample Rate : 44100
Precision : 16-bit
Duration : 00:02:51.38 = 7557638 samples = 12853.1 CDDA sectors
File Size : 7.03M
Bit Rate : 328k
Sample Encoding: MPEG audio (layer I, II or III)
Comments :
Title=Swindle
Artist=刀愀昀愀 刀漀搀爀椀最甀攀稀
Album=Fervor
Tracknumber=1
Year=2022
Discnumber=1/1

[/more]

Register
(1) Ogidni,
Feb 28 2022, 17:22:39 Kyoty - Isolation (2022)
Релиз инструментальный, что-то типа Pelican, может нужен кому-нибудь FLAC
Register
(3) Mencae77, Olethros, wreak,
Feb 28 2022, 16:05:34 Kyoty - Isolation (2022)


*Artist: Kyoty
*Album: Isolation
*Year: 2022
*Genre: Sludge
*Country: United States
*Format: mp3@CBR320kbps
*Size: 161MB

Tracklist:
1. Quarantine 08:27
2. Ventilate 06:36
3. Onus 03:56
4. Holter 04:30
5. Languish 08:37
6. Rift 06:55
7. Faith 11:44
8. Respite 06:00
9. Memory 05:59
10. In a Fog, A Future Like a Past Imagined 07:26
******************************
Total playing time: 1:10:10


official site

instagram

[more=Technical info]
Input File: 01 - Quarantine.mp3
Channels : 2
Sample Rate : 44100
Precision : 16-bit
Duration : 00:08:27.17 = 22366153 samples = 38037.7 CDDA sectors
File Size : 20.4M
Bit Rate : 321k
Sample Encoding: MPEG audio (layer I, II or III)
Comments :
Title=Quarantine
Artist=Kyoty
Album=Isolation
Genre=Atmospheric Sludge | Post-Metal

[/more]

Register
(11) artscald, caro, gena, HMHamster, marilin, Mencae77, Olethros, Ostinato, robertho777, stumpheavyrock, wreak,

5 Pages V   1 2 3 > » 
- Lo-Fi Version Support form
Copyrights and abuse reports form
Time is now: 6th July 2022 - 13:25:30