Welcome Guest ( Log In | Register )

Объявления

* gmail.com упорно продолжает считать почту с нас "unsolicited" и отбивает в том числе и письма активации, поэтому просьба использовать альтернативные почтовые ящики.
------------
* gmail.com continues reject all mail from us as "unsolicited" (activation mails too) therefore please use alternate mail servers.
История благодарностей участнику дивин ::: Спасибо сказали: 1038 раз(а)
Дата поста: В теме: За сообщение: Спасибо сказали:
Dec 11 2022, 11:33:30 Dan Johansen - Depths Of Oblivion (2015)
re-upload mp3@320 ~90mb smile1.gif
Register
(1) kimkayoung,
Dec 10 2022, 18:42:52 Today Needed
ЦИТАТА(Grzechu @ 10th December 2022 - 19:33:16) *
Piołun - Rzeki goryczy

mp3@320 ~90mb smile1.gif
Register
(3) Grzechu, thenecromancer, Veggr,
Dec 10 2022, 16:46:49 Today Needed
ЦИТАТА(Veggr @ Dec 10 2022, 06:04:46) *
Ramchat - Krveľ (2022)

нашёл mp3@320 ~97mb bye.gif
Register
(1) Veggr,
Dec 10 2022, 14:03:39 Today Needed
ЦИТАТА(Grzechu @ 10th December 2022 - 03:17:24) *
Ashes – Gloom Ash and Emptiness to the Horizon

smile1.gif mp3@320 ~87mb
Register
(3) Grzechu, thenecromancer, Veggr,
Dec 10 2022, 10:21:52 Valence - Cognitive Dissidents (2019)
re-upload mp3@320
Register
(1) dimitriusk,
Dec 10 2022, 09:43:38 Malhkebre - In His Name [demo] (2004)
re-upload mp3@320
Register
(7) Antichrist, kim666, Sergey, SyncestrA, thenecromancer, vasiljev_sergej, wendigo,
Dec 9 2022, 13:35:44 À L'ombre D'héméra - Saison De Déceptions (2022)


*Artist: À L'ombre D'héméra
*Album: Saison De Déceptions
*Year: 2022
*Genre: Atmospheric/Post-Black Metal
*Country: Canada
*Format: mp3@CBR320kbps
*Size: 83MB

Tracklist:
1. S'ouvrir au mal
2. Disciple je deviendrai
3. La marche
4. Vers l'abandon
5. Au point de non-retour
******************************
Total playing time: 35:52



[more=Technical info]
Input File: À l'Ombre d'Héméra - La marche (320).mp3
Channels : 2
Sample Rate : 44100
Precision : 16-bit
Duration : 00:00:00.40 = 17816 samples = 30.2993 CDDA sectors
File Size : 16.6M
Bit Rate : 328M
Sample Encoding: MPEG audio (layer I, II or III)
Comments :
Title=La marche
Artist=À l'Ombre d'Héméra
Album=Saison de déceptions
Tracknumber=3/5
Year=2022
Genre=Metal
Discnumber=1/1

[/more]

Register
(11) aleon, AlexSmith, artscald, dermarsoran, FuneralWolf, kim666, Occultas, SatanicPanzer, sergsazan, stormhatt, vasiljev_sergej,
Dec 9 2022, 08:26:27 Lucifer - Lucifer Iii (2020)
re-upload mp3@320
Register

(4) cesar, kauyumari, oldvarg, Wail,
Dec 9 2022, 08:23:08 Lucifer - Lucifer II (2018)
re-upload mp3@320
Register
(2) cesar, kauyumari,
Dec 8 2022, 16:33:45 Rebel - Ha Eljön Majd A Vég (2015)
re-upload mp3@320
Register
(4) Bloodline Christian, Ingvar, strato20, warrr,
Dec 8 2022, 16:16:04 Today Needed
ЦИТАТА(warrr @ 8th December 2022 - 15:46:04) *
Angertea - Snakes In Blossom (2016)
Begotten Silence - Faces Of Suffering (2016)
Black Tomb - Black Tomb (2016)
The Beast Within - Temperance (2016)
Rebel - Ha Eljön Majd A Vég (2015)

done bye.gif
(1) warrr,
Dec 8 2022, 16:14:56 The Beast Within - Temperance (2016)
re-upload mp3@320
Register
(1) warrr,
Dec 8 2022, 16:12:21 Black Tomb - Black Tomb (2016)
re-upload mp3@320
Register
(3) chickenfucker, Wail, warrr,
Dec 8 2022, 16:10:10 Begotten Silence - Faces Of Suffering (2016)
re-upload mp3@320
Register

(2) Wail, warrr,
Dec 8 2022, 16:06:47 Angertea - Snakes In Blossom (2016)
re-upload mp3@320
Register
(1) warrr,
Dec 8 2022, 15:45:56 Planet Of The Dead - Pilgrims (2021)
re-upload
Planet Of The Dead(nz) 2021 - Pilgrims mp3@320 ~90mb
Register
(4) gorven, SatanicPanzer, valash, Wail,
Dec 8 2022, 08:28:04 Misteria - Философия Зла [demo] (2001)
Возможно транскод, а может и нет. хз. Другого файла я не нашёл smile4.gif
Misteria - Философия Зла [demo] (2001) mp3@320 ~95mb
Register
(4) dermarsoran, thenecromancer, Wail, Wilczygniew Strzygoń,
Dec 7 2022, 20:38:29 Today Needed
ЦИТАТА(Sigoth @ 7th December 2022 - 20:55:15) *
Against Myself - Odyssey to reflexion
Against Myself - Sky Ashes

Against Myself - 2011 - Sky Ashes mp3@320 ~90mb
Register

Against Myself - 2015 - Odyssey To Reflexion mp3@320 ~150mb
Register
(1) Ingvar,
Dec 7 2022, 06:46:12 Pleasant Valley - Starling [ep] (2022)
re-upload
Pleasant Valley - Starling EP (2022) FLAC ~65mb
Register

(2) Wail, wreak,
Dec 7 2022, 06:25:01 Misteria - Сумрак Веков [ep] (2009)
re-upload
Misteria - Сумрак Веков [ep] (2009) mp3@224 ~36mb
Register
(3) dermarsoran, Wail, Wilczygniew Strzygoń,
Dec 6 2022, 20:35:01 Plague - Down In Flames (2022)


*Artist: Plague
*Album: Down In Flames
*Year: 2022
*Genre: Melodic Death Metal/Metalcore
*Country: United States
*Format: mp3@CBR320kbps
*Size: 122MB

Tracklist:
1. Detached 04:50
2. Waste Away 04:04
3. Alone 03:57
4. Conflicted 04:00
5. One In The Chamber 04:49
6. Escape 04:06
7. Parasite 04:03
8. The Fall 03:56
9. Down In Flames 05:18
10. Demons 05:42
11. Will I Ever Be Okay 03:49
12. Desecrated 04:55
******************************
Total playing time: 53:29



[more=Technical info]
Input File: 01 - Detached.mp3
Channels : 2
Sample Rate : 44100
Precision : 16-bit
Duration : 00:04:50.92 = 12829484 samples = 21818.9 CDDA sectors
File Size : 11.7M
Bit Rate : 322k
Sample Encoding: MPEG audio (layer I, II or III)
Comments :
Title=Detached
Artist=Plague
Album=Down in Flames
Tracknumber=1/12
Year=2022
Genre=9
Discnumber=1/1

[/more]

Register
(3) artscald, Extol, Wail,
Dec 6 2022, 19:28:20 Norrsköld - Prisma Aeternus (2022)


*Artist: Norrsköld
*Album: Prisma Aeternus
*Year: 2022
*Genre: Melodic Black/Folk Metal
*Country: Sweden
*Format: mp3@CBR320kbps
*Size: 76MB

Tracklist:
1. Witness the Illusion 04:11
2. This End 03:54
3. Hollow Adoration 03:31
4. Perfection into Solitude 03:34
5. Dissolved 03:15
6. Indifference 03:37
7. Beyond the Night 03:30
8. Only Silence 03:51
9. Stars to Reside 04:43
******************************
Total playing time: 34:06



[more=Technical info]
Input File: 01. Witness the Illusion.mp3
Channels : 2
Sample Rate : 44100
Precision : 16-bit
Duration : 00:04:06.90 = 10888290 samples = 18517.5 CDDA sectors
File Size : 9.88M
Bit Rate : 320k
Sample Encoding: MPEG audio (layer I, II or III)
Comments :
Title=Witness the Illusion
Artist=Norrsköld
Album=Prisma Aeternus
Tracknumber=1
Year=2022
Discnumber=1

[/more]

Register
(34) AlexSmith, Altkiller, artscald, aviacademy, BugEyes, chipsgott, dermarsoran, Grev, gwynnbleid, Kaphiel, kimkayoung, Korpse, Lord Of The Siths, metala, Mogozoz, nemx, oldvarg, randumbum, sergsazan, Shadechaser, SilentNidhogg, smes, stormhatt, supremo, talismanFS, TeamatSE, VALERY, varlam4, vasiljev_sergej, Vitald, Wail, wreak, zhol, Сварог Барг,
Dec 6 2022, 08:15:06 Today Needed
ЦИТАТА(zyklon @ 5th December 2022 - 08:08:14) *
Kaptain Sun 
Promo 2007 Demo 2007

Kaptain Sun - 2007 promo mp3@320 ~33mb
Register
(1) zyklon,
Dec 5 2022, 21:25:46 Łūt & Nāv - Łūt/Nāv [split] (2022)
Łūt супер. Пойду искать первые 4 трека metaler.gif
(1) Branis,
Dec 5 2022, 09:31:30 Haavard - Haavard (2022)
для тех, кто не хочет гневить Одина smile1.gif
Haavard - Haavard (2022) FLAC ~320mb
Register
(3) Kodel, nemx, valash,

12 Pages V  < 1 2 3 4 > » 
- Lo-Fi Version Support form
Copyrights and abuse reports form
Time is now: 23rd July 2024 - 22:35:22