Welcome Guest ( Log In | Register )

История благодарностей участнику NachtWulf ::: Спасибо сказали: 19130 раз(а)
Дата поста: В теме: За сообщение: Спасибо сказали:
Oct 13 2021, 20:05:40 Silenced Minstrel - An Ode To A Sickening Year [compilation] (2020)


*Artist: Silenced Minstrel
*Album: An Ode To A Sickening Year [compilation]
*Year: 2020
*Genre: Black/Gothic Metal
*Country: Malaysia
*Format: mp3@CBR320kbps
*Size: 118MB

Tracklist:
01. Chaos, Revisited 4:28
02. I Shall Miss Quintessa 5:42
03. Valedictory Sigh 4:44
04. Misery, Revisited 7:01
05. Another Black Year 6:39
06. In Memoriam: Undertaker's Lament 4:40
07. Black Hearted Mystic 5:06
08. (Blood Red Flowers) Bleeding Moon 5:07
09. Canto Diablo 1: Demonic Epiphany 3:56
10. In Memoriam: October Skies 3:59
******************************
Total playing time: 51:22



[more=Technical info]
Input File: 01. Chaos, Revisited (Remixed 2020).mp3
Channels : 2
Sample Rate : 44100
Precision : 16-bit
Duration : 00:00:00.27 = 11819 samples = 20.1003 CDDA sectors
File Size : 10.8M
Bit Rate : 323M
Sample Encoding: MPEG audio (layer I, II or III)
Comments :
Title=Chaos, Revisited
Artist=Silenced Minstrel
Album=An Ode to a Sickening Year (Compilation)
Tracknumber=1
Year=2020-12-01
Genre=Alternative & Indie Rock & Metal
Discnumber=1

[/more]

Register
(5) aleon, artscald, caro, robertho777, vasiljev_sergej,
Oct 13 2021, 19:48:28 Silenced Minstrel - Volume 5 (2020)


*Artist: Silenced Minstrel
*Album: Volume 5
*Year: 2020
*Genre: Black/Gothic Metal
*Country: Malaysia
*Format: mp3@CBR320kbps
*Size: 116MB

Tracklist:
01. Unenlightened Beast 3:42
02. Twilight Of Religion 3:32
03. Hell On Earth 5:10
04. Descent Into Madness 5:31
05. Canto Diablo 3 - Plagued By The Future 4:27
06. Canto Diablo 4 - Ballad For Satan 5:28
07. Ex Lucis Tenebris 5:00
08. Night Hunt Of The Unseelie 4:16
09. Dirge Of The Eternal Winter 4:43
10. Regina Of The Blessed Moon (Instrumental) 8:25
******************************
Total playing time: 50:14



[more=Technical info]
Input File: 01. Unenlightened Beast.mp3
Channels : 2
Sample Rate : 44100
Precision : 16-bit
Duration : 00:00:00.22 = 9746 samples = 16.5748 CDDA sectors
File Size : 9.00M
Bit Rate : 326M
Sample Encoding: MPEG audio (layer I, II or III)
Comments :
Title=Unenlightened Beasts
Artist=Silenced Minstrel
Album=Silenced Minstrel, Vol. 5
Tracknumber=1
Year=2020-10-31
Genre=Alternative & Indie Rock & Metal
Discnumber=1

[/more]

Register
(5) aleon, artscald, caro, robertho777, vasiljev_sergej,
Oct 13 2021, 19:42:55 Silenced Minstrel - Vol. 4 (2020)


*Artist: Silenced Minstrel
*Album: Vol. 4
*Year: 2020
*Genre: Black/Gothic Metal
*Country: Malaysia
*Format: mp3@CBR320kbps
*Size: 98MB

Tracklist:
01. The Black Journal of Alkrun-Nar 5:04
02. The Dark Almighty 4:16
03. The Silenced Minstrel 3:00
04. Mortifications of the Flesh 3:17
05. Godkiller (Forever Burning Me) 3:20
06. Dark Brotherhood of the Mind-Benders 3:57
07. Laments from a Forgotten Age 4:07
08. The Final Journey 5:41
09. Canto Diablo 2 - Necrotic Mantras 4:10
10. Quod Damnum Omnis Spes 5:44
******************************
Total playing time: 42:36



[more=Technical info]
Input File: 01. The Black Journal of Alkrun-Nar.mp3
Channels : 2
Sample Rate : 44100
Precision : 16-bit
Duration : 00:00:00.30 = 13406 samples = 22.7993 CDDA sectors
File Size : 12.3M
Bit Rate : 324M
Sample Encoding: MPEG audio (layer I, II or III)
Comments :
Title=The Black Journal of Alkrun-Nar
Artist=Silenced Minstrel
Album=Vol. 4
Tracknumber=1
Year=2020-01-01
Genre=Alternative & Indie Rock & Metal
Discnumber=1

[/more]

Register
(5) aleon, artscald, caro, robertho777, vasiljev_sergej,
Oct 13 2021, 19:31:25 Silenced Minstrel - Vol. 3 (2019)


*Artist: Silenced Minstrel
*Album: Vol. 3
*Year: 2019
*Genre: Black/Gothic Metal
*Country: Malaysia
*Format: mp3@CBR320kbps
*Size: 90MB

Tracklist:
01. Valedictory Sigh 4:44
02. Demonic Epiphany 3:56
03. In Memoriam (Undertaker's Lament) 4:40
04. In Memoriam (I Will Keep on Going) 4:40
05. Laying Down the Wreaths 4:55
06. Merentap Tirai Senja 5:13
07. Incantations in Tongues 5:30
08. Valedictory Sigh (Reprise) 4:44
******************************
Total playing time: 38:22



[more=Technical info]
Input File: 02. Demonic Epiphany.mp3
Channels : 2
Sample Rate : 44100
Precision : 16-bit
Duration : 00:00:00.24 = 10364 samples = 17.6259 CDDA sectors
File Size : 9.69M
Bit Rate : 330M
Sample Encoding: MPEG audio (layer I, II or III)
Comments :
Title=Demonic Epiphany
Artist=Silenced Minstrel
Album=Silenced Minstrel, Vol. 3
Tracknumber=2
Year=2019-10-01
Genre=Alternative & Indie Rock & Metal
Discnumber=1

[/more]

Register
(5) aleon, artscald, caro, robertho777, vasiljev_sergej,
Oct 13 2021, 19:21:10 Silenced Minstrel - Volume 2 (2018)


*Artist: Silenced Minstrel
*Album: Volume 2
*Year: 2018
*Genre: Black/Gothic Metal
*Country: Malaysia
*Format: mp3@CBR320kbps
*Size: 101MB

Tracklist:
01. Into the Void 4:27
02. Morbid Endings I Wished for Them 4:44
03. I Shall Miss Quintessa 5:42
04. (Blood Red Flowers) Bleeding Moon 5:07
05. Entangled in Thorns 6:10
06. Another Black Year 6:39
07. Dark Deceptions 4:26
08. Another Black Year 6:39
******************************
Total playing time: 43:54



[more=Technical info]
Input File: 02. Morbid Endings I Wished for Them.mp3
Channels : 2
Sample Rate : 44100
Precision : 16-bit
Duration : 00:00:00.28 = 12524 samples = 21.2993 CDDA sectors
File Size : 11.5M
Bit Rate : 324M
Sample Encoding: MPEG audio (layer I, II or III)
Comments :
Title=Morbid Endings I Wished for Them
Artist=Silenced Minstrel
Album=Silenced Minstrel, Vol. II
Tracknumber=2
Year=2018-11-01
Genre=Alternative & Indie Rock & Metal
Discnumber=1

[/more]

Register
(4) artscald, caro, robertho777, vasiljev_sergej,
Oct 13 2021, 18:51:01 Silenced Minstrel - Volume 1 (2017)


*Artist: Silenced Minstrel
*Album: Volume 1
*Year: 2017
*Genre: Black/Gothic Metal
*Country: Malaysia
*Format: mp3@CBR320kbps
*Size: 98MB

Tracklist:
01. Chaos, Revisited 4:28
02. I Remember... Insanity 5:10
03. Black Hearted Sufi 5:03
04. Twilight Catharsis 4:57
05. Misery, Revisited 7:00
06. Enemy Within Me... 4:42
07. Johnny Demonic 4:04
08. 13th May 69 7:03
******************************
Total playing time: 42:27



[more=Technical info]
Input File: 02. I Remember... Insanity.mp3
Channels : 2
Sample Rate : 44100
Precision : 16-bit
Duration : 00:00:00.31 = 13627 samples = 23.1752 CDDA sectors
File Size : 12.5M
Bit Rate : 324M
Sample Encoding: MPEG audio (layer I, II or III)
Comments :
Title=I Remember... Insanity
Artist=Silenced Minstrel
Album=Vol. 1
Tracknumber=2
Year=2017-01-01
Genre=Alternative & Indie Rock & Metal
Discnumber=1

[/more]

Register
(4) artscald, caro, robertho777, vasiljev_sergej,
Oct 2 2021, 16:18:38 Rites Of Baalberith - Infernalis Execratione Maledicta Congressit (2020)


*Artist: Rites Of Baalberith
*Album: Infernalis Execratione Maledicta Congressit
*Year: 2020
*Genre: Black Metal
*Country: Peru
*Format: mp3@CBR320kbps
*Size: 85MB

Tracklist:
01. Ritual Chamber 1:32
02. LaVey 4:01
03. Evocation of Set 4:26
04. Flesh & Lust 4:07
05. Chant to Satan 2:04
06. Adversary 3:32
07. Bringer of Black Flame 3:43
08. Leviathan's Damnation 3:16
09. Infernal Path 2:40
10. Walpurgisnacht 4:59
11. Acolytes 1:45
******************************
Total playing time: 36:05

[more=Technical info]
Input File: 02. LaVey.mp3
Channels : 2
Sample Rate : 44100
Precision : 16-bit
Duration : 00:00:00.24 = 10628 samples = 18.0748 CDDA sectors
File Size : 9.94M
Bit Rate : 330M
Sample Encoding: MPEG audio (layer I, II or III)
Comments :
Title=Walpurgisnacht
Artist=Rites Of Baalberith
Album=Infernalis Execratione Maledicta Congessit (Remastered)
Tracknumber=10
Year=2020-10-31
Genre=Rock
Discnumber=1

[/more]

Register
(6) artscald, dcatagua, kim666, Olethros, stormhatt, vasiljev_sergej,
Oct 2 2021, 16:13:15 Rites Of Baalberith - Rites Of Baalberith [ep] (2020)


*Artist: Rites Of Baalberith
*Album: Rites Of Baalberith [ep]
*Year: 2020
*Genre: Black Metal
*Country: Peru
*Format: mp3@CBR320kbps
*Size: 54MB

Tracklist:
01. Intro: Ordo Serpentis 1:29
02. Black Legion 4:43
03. Destroyed 2:59
04. Anger 3:12
05. Into My Hated Dreams 5:25
06. My Darkest Desires 6:35
******************************
Total playing time: 24:23

[more=Technical info]
Input File: 03. Destroyed.mp3
Channels : 2
Sample Rate : 44100
Precision : 16-bit
Duration : 00:00:00.18 = 7850 samples = 13.3503 CDDA sectors
File Size : 7.22M
Bit Rate : 324M
Sample Encoding: MPEG audio (layer I, II or III)
Comments :
Title=Destroyed
Artist=Rites Of Baalberith
Album=Rites Of Baalberith
Tracknumber=3
Year=2020-10-13
Genre=Rock
Discnumber=1

[/more]

Register
(5) artscald, kim666, Olethros, stormhatt, vasiljev_sergej,
Sep 17 2021, 18:34:10 Godbelow - Unchaste [single] (2021)


*Artist: Godbelow
*Album: Unchaste [single]
*Year: 2021
*Genre: Post-Black Metal
*Country: Mexico
*Format: mp3@CBR320kbps
*Size: 13MB

Tracklist:
01. Unchaste 5:29
******************************
Total playing time: 5:29

[more=Technical info]
Input File: 01. Unchaste.mp3
Channels : 2
Sample Rate : 44100
Precision : 16-bit
Duration : 00:00:00.33 = 14465 samples = 24.6003 CDDA sectors
File Size : 13.3M
Bit Rate : 324M
Sample Encoding: MPEG audio (layer I, II or III)
Comments :
Title=Unchaste
Artist=Godbelow
Album=Unchaste
Tracknumber=1
Year=2021-04-02
Genre=Alternative & Indie Rock & Metal
Discnumber=1

[/more]

Register
(6) caro, Olethros, Taakeferd, vasiljev_sergej, Wail, wreak,
Sep 17 2021, 18:18:24 Godbelow - Godbelow [ep] (2020)


*Artist: Godbelow
*Album: Godbelow [ep]
*Year: 2020
*Genre: Post-Black Metal
*Country: Mexico
*Format: mp3@CBR320kbps
*Size: 59MB

Tracklist:
01. Nothing X Everything 5:16
02. Perfect Tense 5:07
03. Nobody 6:55
04. Opulence 8:04
******************************
Total playing time: 25:22

[more=Technical info]
Input File: 03. Nobody.mp3
Channels : 2
Sample Rate : 44100
Precision : 16-bit
Duration : 00:00:00.41 = 18257 samples = 31.0493 CDDA sectors
File Size : 16.9M
Bit Rate : 327M
Sample Encoding: MPEG audio (layer I, II or III)
Comments :
Title=Nobody
Artist=Godbelow
Album=Godbelow EP
Tracknumber=3
Year=2020-03-31
Genre=Alternative & Indie Rock & Metal
Discnumber=1

[/more]

Register
(10) aleon, caro, kim666, Mencae77, Olethros, Taakeferd, VALERY, vasiljev_sergej, Wail, wreak,
Sep 17 2021, 16:35:50 Weltar & Kiste - Weltar/Kiste [split] (2021)


*Artist: Weltar & Kiste
*Album: Weltar/Kiste [split]
*Year: 2021
*Genre: Black Metal | Black Metal
*Country: United States | Unknown
*Format: mp3@CBR320kbps
*Size: 12MB

Tracklist:
Weltar:
01. Haunting Wails 2:50
Kiste:
02. Den Svarte Vinteren 2:22
******************************
Total playing time: 5:12

[more=Technical info]
Input File: 01. Haunting Wails.mp3
Channels : 2
Sample Rate : 44100
Precision : 16-bit
Duration : 00:00:00.17 = 7453 samples = 12.6752 CDDA sectors
File Size : 6.92M
Bit Rate : 327M
Sample Encoding: MPEG audio (layer I, II or III)
Comments :
Title=Haunting Wails
Artist=Weltar
Album=Weltar / Kiste Split Tape
Tracknumber=1/2
Year=2021
Genre=Black Metal

[/more]

Register
(7) caro, dermarsoran, kim666, Taakeferd, vasiljev_sergej, Wail, wreak,
Sep 17 2021, 02:03:12 Nýr Gata - Seraphim (2015)


*Artist: Nýr Gata
*Album: Seraphim
*Year: 2015
*Genre: Melodic Black/Death Metal
*Country: Germany
*Format: mp3@CBR320kbps
*Size: 88MB

Tracklist:
01. Gefangen in der Ewigkeit
02. Hinab vom Lichte
03. Im Reich der Leere
04. Marter
05. Im Flammenregen
06. Cherubim
07. Acheron
08. In falscher Freiheit
09. Sohn des Hasses
******************************
Total playing time: 38:10



[more=Technical info]
Input File: 01. Gefangen in der Ewigkeit.mp3
Channels : 2
Sample Rate : 44100
Precision : 16-bit
Duration : 00:00:00.28 = 12128 samples = 20.6259 CDDA sectors
File Size : 11.2M
Bit Rate : 325M
Sample Encoding: MPEG audio (layer I, II or III)
Comments :
Title=Gefangen in der Ewigkeit
Artist=Nýr Gata
Album=Seraphim
Tracknumber=1/9
Year=2020-10-10
Genre=Melodic Death/Black Metal

[/more]

Register
(19) aleon, AlexSmith, AnthonyHipHopkins, BugEyes, caro, cist, Marek, Olethros, sergsazan, supremo, Svafrlami, symphonicadiction, VALERY, vasiljev_sergej, Wail, wanderer73, wreak, zhol, Сварог Барг,
Sep 17 2021, 01:43:29 Livløst - Symphony Of Flies (2021)


*Artist: Livløst
*Album: Symphony Of Flies
*Year: 2021
*Genre: Black Metal/Dungeon Synth
*Country: Norway
*Format: mp3@CBR320kbps
*Size: 94MB

Tracklist:
01. Symphony of Flies
02. No Reason
03. Holy Night
04. Angelperfume
05. Red
06. Hostel
******************************
Total playing time: 40:57

[more=Technical info]
Input File: 05. Red.mp3
Channels : 2
Sample Rate : 44100
Precision : 16-bit
Duration : 00:00:00.47 = 20595 samples = 35.0255 CDDA sectors
File Size : 18.8M
Bit Rate : 322M
Sample Encoding: MPEG audio (layer I, II or III)
Comments :
Title=Red
Artist=Livløst
Album=Symphony of Flies
Tracknumber=5/6
Year=2021
Genre=Black Metal
Discnumber=1/1

[/more]

Register
(17) aleon, AlexSmith, cancer1974, caro, cist, grimoir, kim666, kryptor, oldskooldeathjunkie, Olethros, robertho777, smes, stormhatt, supremo, VALERY, Wail, wreak,
Sep 13 2021, 14:37:49 Ecpatia - Touched By Sun (2021)


*Artist: Ecpatia
*Album: Touched By Sun
*Year: 2021
*Genre: Depressive Black Metal
*Country: Costa Rica
*Format: mp3@CBR320kbps
*Size: 107MB

Tracklist:
01. Intro: 911 5:03
02. Sirenas 5:08
03. The Child 5:48
04. A Wortheless Life 7:00
05. Mass Rejected 5:19
06. Touched by Sun 8:15
07. When Was the Last Time You Were Actually Happy? 4:54
08. Last Good Bye 6:19
******************************
Total playing time: 47:46

[more=Technical info]
Input File: 05. Mass Rejected.mp3
Channels : 2
Sample Rate : 44100
Precision : 16-bit
Duration : 00:00:00.32 = 14024 samples = 23.8503 CDDA sectors
File Size : 12.8M
Bit Rate : 322M
Sample Encoding: MPEG audio (layer I, II or III)
Comments :
Title=Mass Rejected
Artist=Ecpatia
Album=Touched by Sun
Tracknumber=5
Year=2021-03-03
Genre=Metal
Discnumber=1

[/more]

Register
(17) aleon, AlexSmith, Buregon, caro, kim666, metala, Misanthrope@, Olethros, robertho777, stormhatt, supremo, Taakeferd, VALERY, varlam4, vasiljev_sergej, Wail, wreak,
Sep 13 2021, 14:29:38 Ecpatia - 3:15 Am (2021)


*Artist: Ecpatia
*Album: 3:15 Am
*Year: 2021
*Genre: Depressive Black Metal
*Country: Costa Rica
*Format: mp3@CBR320kbps
*Size: 67MB

Tracklist:
01. Lost
02. By My Name
03. Encierro
04. Last Sound of Bells
06. 3:15 AM
07. Outro: Bye
******************************
Total playing time: 31:18

[more=Technical info]
Input File: 01. Lost.mp3
Channels : 2
Sample Rate : 44100
Precision : 16-bit
Duration : 00:00:00.34 = 15038 samples = 25.5748 CDDA sectors
File Size : 13.7M
Bit Rate : 322M
Sample Encoding: MPEG audio (layer I, II or III)
Comments :
Title=Lost
Artist=Ecpatia
Album=3:15Am
Tracknumber=1
Year=2021-01-03
Genre=Metal
Discnumber=1

[/more]

Register
(15) aleon, AlexSmith, Buregon, caro, kim666, Misanthrope@, robertho777, stormhatt, supremo, Taakeferd, VALERY, varlam4, vasiljev_sergej, Wail, wreak,
Sep 13 2021, 13:21:04 Månen Skygge - Drowning In Silent Echoes (2021)


*Artist: Månen Skygge
*Album: Drowning In Silent Echoes
*Year: 2021
*Genre: Atmospheric/Depressive Black Metal
*Country: Australia
*Format: mp3@CBR320kbps
*Size: 87MB

Tracklist:
01. Spiral to Severance
02. The Dark Room
03. Drowning in Silent Echoes
04. And Forever the Worms Will Feed
******************************
Total playing time: 37:50



[more=Technical info]
Input File: 01 - Spiral to Severance.mp3
Channels : 2
Sample Rate : 44100
Precision : 16-bit
Duration : 00:00:00.56 = 24784 samples = 42.1497 CDDA sectors
File Size : 22.7M
Bit Rate : 324M
Sample Encoding: MPEG audio (layer I, II or III)
Comments :
Title=Spiral to Severance
Artist=Månen Skygge
Album=Drowning in Silent Echoes
Tracknumber=1/4
Year=2021
Genre=Atmospheric/Depressive Black Metal

[/more]

Register
(19) aleon, AlexSmith, caro, kim666, Mencae77, metala, Misanthrope@, nemx, Olethros, robertho777, rominow, stormhatt, supremo, Taakeferd, VALERY, vasiljev_sergej, Wail, wreak, Yorker,
Sep 8 2021, 00:13:20 Daemonos - Shadows Of The Mind (2021)


*Artist: Daemonos
*Album: Shadows Of The Mind
*Year: 2021
*Genre: Black Death Metal
*Country: Netherlands
*Format: mp3@CBR320kbps
*Size: 107MB

Tracklist:
01. Act I: Prison of the Mind 6:00
02. Act II: Seeker of Darkness 5:19
03. Act III: Spectre of Misery 6:15
04. Act IV: Abduction of Innocence 5:27
05. Act V: Ritual of Transformation 3:31
06. Act VI: Unholy Chimaera 6:34
07. Act VII: Parasitic Entity 7:08
08. Act VIII: Demonic Demise 5:48
******************************
Total playing time: 46:02



[more=Technical info]
Input File: 02. Act II- Seeker of Darkness.mp3
Channels : 2
Sample Rate : 44100
Precision : 16-bit
Duration : 00:00:00.32 = 14024 samples = 23.8503 CDDA sectors
File Size : 13.0M
Bit Rate : 328M
Sample Encoding: MPEG audio (layer I, II or III)
Comments :
Title=Act II : Seeker of Darkness
Artist=Daemonos
Album=Shadows of the Mind
Tracknumber=2
Year=2021-03-31
Genre=Metal
Discnumber=1

[/more]

Register
(9) AlexSmith, cesar, cryptal, GorAtheist, Korpse, metala, TeamatSE, tim47, Wail,
Sep 7 2021, 19:53:58 Skorbvstr - Sakte Fort Veldig Kraftig [demo] (2020)


*Artist: Skorbvstr
*Album: Sakte Fort Veldig Kraftig [demo]
*Year: 2020
*Genre: Raw Black Metal
*Country: United States
*Format: mp3@CBR320kbps
*Size: 50MB

Tracklist:
01. Åtte av ti 1:05
02. En veldig tung og melodisk lyd starter 5:38
03. Veldig mørkt men tungt 5:05
04. En flott blanding 4:07
05. En rå følelse 4:44
06. Mest dystre 4:13
******************************
Total playing time: 24:52

[more=Technical info]
Input File: 06. Mest dystre.mp3
Channels : 2
Sample Rate : 44100
Precision : 16-bit
Duration : 00:00:00.25 = 11157 samples = 18.9745 CDDA sectors
File Size : 10.2M
Bit Rate : 323M
Sample Encoding: MPEG audio (layer I, II or III)
Comments :
Title=Mest dystre
Artist=Skorbvstr
Album=Sakte Fort Veldig Kraftig
Tracknumber=6
Year=2020-11-06
Genre=Metal
Discnumber=1

[/more]

Register
(4) Alexis The Best, kim666, vasiljev_sergej, Wail,
Sep 7 2021, 18:53:40 Setronah - Drifting Belief [ep] (2021)


*Artist: Setronah
*Album: Drifting Belief [ep]
*Year: 2021
*Genre: Depressive Black Metal
*Country: New Zealand
*Format: mp3@CBR320kbps
*Size: 50MB

Tracklist:
01. Drowned Sorrows on a Mountain of Nothingness (Intro) 1:47
02. Frozen in Despair (Ft. Black Noise Dream) 4:14
03. Drifting Belief 5:08
04. You 4:14
05. Serrated Blades 4:41
06. Sertraline Ballet (Outro) 1:14
******************************
Total playing time: 21:18



[more=Technical info]
Input File: 02. Frozen in Despair (Ft. Black Noise Dream).mp3
Channels : 2
Sample Rate : 44100
Precision : 16-bit
Duration : 00:00:00.25 = 11201 samples = 19.0493 CDDA sectors
File Size : 10.4M
Bit Rate : 329M
Sample Encoding: MPEG audio (layer I, II or III)
Comments :
Title=Frozen In Despair (feat. Black Noise Dream)
Artist=Setronah, BLACK NOISE DREAM
Album=Drifting Belief
Tracknumber=2
Year=2021-03-10
Genre=Metal
Discnumber=1

[/more]

Register
(10) aleon, caro, kim666, Misanthrope@, Olethros, Taakeferd, varlam4, vasiljev_sergej, Wail, wreak,
Sep 7 2021, 18:49:35 Setronah - Southbound [single] (2020)


*Artist: Setronah
*Album: Southbound [single]
*Year: 2020
*Genre: Depressive Black Metal
*Country: New Zealand
*Format: mp3@CBR320kbps
*Size: 14MB

Tracklist:
01. Southbound 5:52
******************************
Total playing time: 5:52

[more=Technical info]
Input File: 01. Southbound.mp3
Channels : 2
Sample Rate : 44100
Precision : 16-bit
Duration : 00:00:00.35 = 15523 samples = 26.3997 CDDA sectors
File Size : 14.2M
Bit Rate : 323M
Sample Encoding: MPEG audio (layer I, II or III)
Comments :
Title=Southbound
Artist=Setronah
Album=Southbound
Tracknumber=1
Year=2020-09-14
Genre=Metal
Discnumber=1

[/more]

Register
(9) aleon, caro, Misanthrope@, Olethros, Taakeferd, varlam4, vasiljev_sergej, Wail, wreak,
Sep 7 2021, 13:55:43 Oslona - Moon Wraith [single] (2020)


*Artist: Oslona
*Album: Moon Wraith [single]
*Year: 2020
*Genre: Symphonic Black/Doom Metal
*Country: United States
*Format: mp3@CBR320kbps
*Size: 13MB

Tracklist:
01. Moon Wraith 5:22
******************************
Total playing time: 5:22

[more=Technical info]
Input File: 01. Moon Wraith.mp3
Channels : 2
Sample Rate : 44100
Precision : 16-bit
Duration : 00:00:00.32 = 14200 samples = 24.1497 CDDA sectors
File Size : 13.1M
Bit Rate : 326M
Sample Encoding: MPEG audio (layer I, II or III)
Comments :
Title=Moon Wraith
Artist=OSLONA
Album=Moon Wraith
Tracknumber=1
Year=2020-07-31
Genre=Metal
Discnumber=1

[/more]

Register
(8) caro, GorAtheist, Olethros, sergsazan, symphonicadiction, Taakeferd, Wail, wreak,
Sep 4 2021, 19:08:21 Deathvoid - Terrace (2020)


*Artist: Deathvoid
*Album: Terrace
*Year: 2020
*Genre: Raw Black Metal
*Country: Switzerland
*Format: mp3@CBR320kbps
*Size: 67MB

Tracklist:
01. Bell 1:51
02. Terrace 6:05
03. Geranium 4:05
04. Plateaux 5:33
05. Realm 3:55
06. Summit 7:45
******************************
Total playing time: 29:14

[more=Technical info]
Input File: 03. Geranium.mp3
Channels : 2
Sample Rate : 44100
Precision : 16-bit
Duration : 00:00:00.24 = 10760 samples = 18.2993 CDDA sectors
File Size : 10.0M
Bit Rate : 329M
Sample Encoding: MPEG audio (layer I, II or III)
Comments :
Title=Geranium
Artist=Deathvoid
Album=Terrace
Tracknumber=3
Year=2020-09-04
Genre=Rock
Discnumber=1

[/more]

Register
(13) AlexSmith, artscald, caro, Hell_Is_Here, kim666, sagratan, SilentNidhogg, supremo, Svafrlami, varlam4, vasiljev_sergej, Wail, wreak,
Sep 4 2021, 19:04:37 Deathvoid - Disappear [ep] (2019)


*Artist: Deathvoid
*Album: Disappear [ep]
*Year: 2019
*Genre: Raw Black Metal
*Country: Switzerland
*Format: mp3@CBR320kbps
*Size: 65MB

Tracklist:
01. Ornamented Secret Rooms 7:33
02. Ceramic Sun 5:21
03. Mills 4:56
04. Disappear 9:42
******************************
Total playing time: 27:32

[more=Technical info]
Input File: 03. Mills.mp3
Channels : 2
Sample Rate : 44100
Precision : 16-bit
Duration : 00:00:00.30 = 13010 samples = 22.1259 CDDA sectors
File Size : 12.2M
Bit Rate : 332M
Sample Encoding: MPEG audio (layer I, II or III)
Comments :
Title=Mills
Artist=Deathvoid
Album=Disappear
Tracknumber=3
Year=2019-12-31
Genre=Rock
Discnumber=1

[/more]

Register
(10) artscald, caro, Hell_Is_Here, kim666, Olethros, SilentNidhogg, Svafrlami, varlam4, vasiljev_sergej, wreak,
Sep 4 2021, 18:58:30 Deathvoid & まがる もり - Deathvoid/まがる もり [split] (2017)


*Artist: Deathvoid & まがる もり
*Album: Deathvoid/まがる もり [split]
*Year: 2017
*Genre: Raw Black Metal | Noise
*Country: Switzerland | Unknown
*Format: mp3@CBR320kbps
*Size: 45MB

Tracklist:
Deathvoid:
01. The Silverfish Behind the Painting 8:42
まがる もり:
02. しょうめつファイナルおんがく 10:48
******************************
Total playing time: 19:30

[more=Technical info]
Input File: 01. Deathvoid - The Silverfish Behind the Painting.mp3
Channels : 2
Sample Rate : 44100
Precision : 16-bit
Duration : 00:00:00.52 = 22976 samples = 39.0748 CDDA sectors
File Size : 21.1M
Bit Rate : 324M
Sample Encoding: MPEG audio (layer I, II or III)
Comments :
Title=The Silverfish Behind the Painting
Artist=Deathvoid
Album=Deathvoid / まがる もり
Tracknumber=1
Year=2021-07-16
Genre=Rock
Discnumber=1

[/more]

Register
(8) caro, Hell_Is_Here, kim666, SilentNidhogg, Svafrlami, varlam4, vasiljev_sergej, wreak,
Sep 4 2021, 18:16:38 Deathvoid - Chandeliers [single] (2017)


*Artist: Deathvoid
*Album: Chandeliers [single]
*Year: 2017
*Genre: Raw Black Metal
*Country: Switzerland
*Format: mp3@CBR320kbps
*Size: 17MB

Tracklist:
01. Chandeliers 7:13
******************************
Total playing time: 7:13

[more=Technical info]
Input File: 01. Chandeliers.mp3
Channels : 2
Sample Rate : 44100
Precision : 16-bit
Duration : 00:00:00.43 = 19051 samples = 32.3997 CDDA sectors
File Size : 17.4M
Bit Rate : 322M
Sample Encoding: MPEG audio (layer I, II or III)
Comments :
Title=Chandeliers
Artist=Deathvoid
Album=Chandeliers
Tracknumber=1
Year=2021-07-16
Genre=Rock
Discnumber=1

[/more]

Register
(7) artscald, caro, Hell_Is_Here, Svafrlami, varlam4, vasiljev_sergej, wreak,

82 Pages V   1 2 3 > » 
- Lo-Fi Version Support form
Copyrights and abuse reports form
Time is now: 16th October 2021 - 19:14:37

здесь палят секреты вконтакте.