Welcome Guest ( Log In | Register )

История благодарностей участнику NachtWulf ::: Спасибо сказали: 19854 раз(а)
Дата поста: В теме: За сообщение: Спасибо сказали:
Dec 20 2021, 10:36:54 Vesperwynd - Unseen Depths Of Black And Green [single] (2019)


*Artist: Vesperwynd
*Album: Unseen Depths Of Black And Green [single]
*Year: 2019
*Genre: Atmospheric/Melodic Black Metal
*Country: United States
*Format: mp3@CBR320kbps
*Size: 12MB

Tracklist:
01. Unseen Depths of Black and Green 04:58
******************************
Total playing time: 4:58

[more=Technical info]
Input File: 01. Unseen Depths of Black and Green.mp3
Channels : 2
Sample Rate : 44100
Precision : 16-bit
Duration : 00:00:00.30 = 13098 samples = 22.2755 CDDA sectors
File Size : 12.1M
Bit Rate : 325M
Sample Encoding: MPEG audio (layer I, II or III)
Comments :
Title=Unseen Depths of Black and Green
Artist=Vesperwynd
Album=Unseen Depths of Black and Green (Single)
Tracknumber=1/1
Year=2019
Genre=Atmospheric Black Metal
Discnumber=1/1

[/more]

Register
(5) artscald, Olethros, satanist666, sergsazan, vasiljev_sergej,
Dec 20 2021, 10:28:53 Vesperwynd - Breathe In The Blood [single] (2019)


*Artist: Vesperwynd
*Album: Breathe In The Blood [single]
*Year: 2019
*Genre: Atmospheric/Melodic Black Metal
*Country: United States
*Format: mp3@CBR320kbps
*Size: 12MB

Tracklist:
01. Breathe in the Blood 05:21
******************************
Total playing time: 5:21

[more=Technical info]
Input File: 01. Breathe in the Blood.mp3
Channels : 2
Sample Rate : 44100
Precision : 16-bit
Duration : 00:00:00.32 = 14112 samples = 24 CDDA sectors
File Size : 13.0M
Bit Rate : 324M
Sample Encoding: MPEG audio (layer I, II or III)
Comments :
Title=Breathe in the Blood
Artist=Vesperwynd
Album=Breathe in the Blood (Single)
Tracknumber=1/1
Year=2019-11-15
Genre=Atmospheric Black Metal
Discnumber=1/1

[/more]

Register
(5) artscald, Olethros, satanist666, sergsazan, vasiljev_sergej,
Dec 20 2021, 10:18:49 Gurthang - Forgotten Deity [ep] (2012)


*Artist: Gurthang
*Album: Forgotten Deity [ep]
*Year: 2012
*Genre: Black/Funeral Doom Metal
*Country: Poland
*Format: mp3@CBR320kbps
*Size: 57MB

Tracklist:
01. Forgotten Deity
02. The Last One
03. Frozen Is the Light
04. Desecrated Earth (alternative version)
******************************
Total playing time: 24:40

[more=Technical info]
Input File: 02. The Last One.mp3
Channels : 2
Sample Rate : 44100
Precision : 16-bit
Duration : 00:00:00.44 = 19184 samples = 32.6259 CDDA sectors
File Size : 17.6M
Bit Rate : 324M
Sample Encoding: MPEG audio (layer I, II or III)
Comments :
Title=The Last One
Artist=Gurthang
Album=Forgotten Deity (EP)
Tracknumber=2/4
Year=2012
Genre=Black/Funeral Doom Metal
Discnumber=1/1

[/more]

Register
(8) artscald, kim666, Olethros, quarantine, sergsazan, thenecromancer, VALERY, vasiljev_sergej,
Dec 14 2021, 08:14:21 Son Of Battles - The Old Blood Of Manetheren [ep] (2021)


*Artist: Son Of Battles
*Album: The Old Blood Of Manetheren [ep]
*Year: 2021
*Genre: Atmospheric Doom Metal
*Country: United States
*Format: mp3@CBR320kbps
*Size: 57MB

Tracklist:
01. One Eye Peers into Midnight
02. White Flame, Dragon Fang
03. Lamenting the Forsaken
04. The World Unseen
******************************
Total playing time: 24:52

[more=Technical info]
Input File: 01. One Eye Peers into Midnight.mp3
Channels : 2
Sample Rate : 44100
Precision : 16-bit
Duration : 00:00:00.53 = 23373 samples = 39.75 CDDA sectors
File Size : 21.4M
Bit Rate : 323M
Sample Encoding: MPEG audio (layer I, II or III)
Comments :
Title=One Eye Peers into Midnight
Artist=Son of Battles
Album=The Old Blood of Manetheren (EP)
Tracknumber=1/4
Year=2021-10-29
Genre=Atmospheric Doom Metal
Discnumber=1/1

[/more]

Register
(17) artscald, caro, ctulhudagon, gav-gafi, HMHamster, Ice Gnoll, metala, Mogozoz, Nattfodd, Olethros, quarantine, sergsazan, Shadechaser, stumpheavyrock, uk82grind, VALERY, wreak,
Dec 5 2021, 23:36:39 Veldraveth - Live Malformation [live] (2015)


*Artist: Veldraveth
*Album: Live Malformation [live]
*Year: 2015
*Genre: Black Metal
*Country: Venezuela
*Format: mp3@CBR320kbps
*Size: 75MB

Tracklist:
01. Plague of the Antichrist
02. No Life, No Light
03. In Chaos Born
04. Yetzer Ha'ra
05. From the Devil's Trench
06. Emblemata Evangelika
07. In Terms of Violence
08. Malformations of God
******************************
Total playing time: 32:16

[more=Technical info]
Input File: 03. In Chaos Born.mp3
Channels : 2
Sample Rate : 44100
Precision : 16-bit
Duration : 00:00:00.28 = 12216 samples = 20.7755 CDDA sectors
File Size : 11.3M
Bit Rate : 327M
Sample Encoding: MPEG audio (layer I, II or III)
Comments :
Title=In Chaos Born (Live)
Artist=Veldraveth
Album=Live Malformation
Tracknumber=3/8
Year=2015
Genre=Black Metal
Discnumber=1/1

[/more]

Register
(6) artscald, Olethros, stormhatt, varlam4, vasiljev_sergej, Wail,
Dec 3 2021, 20:06:50 Ergholae Somptator - Morendo Jusqu'à La Fin [ep] (2016)


*Artist: Ergholae Somptator
*Album: Morendo Jusqu'à La Fin [ep]
*Year: 2016
*Genre: Black Metal
*Country: France
*Format: mp3@CBR320kbps
*Size: 46MB

Tracklist:
01. Rhizomes insidieux
02. Prisonnier des orbites
03. Un manteau en chauves-souris
04. La mélodie de l'horloge
******************************
Total playing time: 19:40

[more=Technical info]
Input File: 02. Prisonnier des orbites.mp3
Channels : 2
Sample Rate : 44100
Precision : 16-bit
Duration : 00:00:00.38 = 16626 samples = 28.2755 CDDA sectors
File Size : 15.4M
Bit Rate : 327M
Sample Encoding: MPEG audio (layer I, II or III)
Comments :
Title=Prisonnier des orbites
Artist=Ergholae Somptator
Album=Morendo jusqu'à la fin (EP)
Tracknumber=2/4
Year=2016
Genre=Black Metal
Discnumber=1/1

[/more]

Register
(9) artscald, caro, kim666, Olethros, satanist666, VALERY, varlam4, vasiljev_sergej, wreak,
Dec 3 2021, 19:45:29 Blood Dominion - Sworn To Evil [single] (2021)


*Artist: Blood Dominion
*Album: Sworn To Evil [single]
*Year: 2021
*Genre: Black Metal
*Country: Sweden
*Format: mp3@CBR320kbps
*Size: 13MB

Tracklist:
01. Sworn To Evil 5:39
******************************
Total playing time: 5:39

[more=Technical info]
Input File: 01. Sworn To Evil.mp3
Channels : 2
Sample Rate : 44100
Precision : 16-bit
Duration : 00:00:00.34 = 14950 samples = 25.4252 CDDA sectors
File Size : 13.7M
Bit Rate : 324M
Sample Encoding: MPEG audio (layer I, II or III)
Comments :
Title=Sworn to Evil
Artist=Blood Dominion
Album=Sworn To Evil (Single)
Tracknumber=1/1
Year=2021
Genre=Black Metal
Discnumber=1/1

[/more]

Register
(4) dermarsoran, Olethros, varlam4, vasiljev_sergej,
Dec 3 2021, 19:40:46 Blood Dominion - Tribute Ritual, Pt. 1 [single] (2019)


*Artist: Blood Dominion
*Album: Tribute Ritual, Pt. 1 [single]
*Year: 2019
*Genre: Black Metal
*Country: Sweden
*Format: mp3@CBR320kbps
*Size: 24MB

Tracklist:
01. Roswell 47
02. Apocalypse
******************************
Total playing time: 10:33

[more=Technical info]
Input File: 01. Roswell 47.mp3
Channels : 2
Sample Rate : 44100
Precision : 16-bit
Duration : 00:00:00.31 = 13583 samples = 23.1003 CDDA sectors
File Size : 12.5M
Bit Rate : 324M
Sample Encoding: MPEG audio (layer I, II or III)
Comments :
Title=Roswell 47
Artist=Blood Dominion
Album=Tribute Ritual, Pt. 1 (Single)
Tracknumber=1/2
Year=2019
Genre=Black Metal
Discnumber=1/1

[/more]

Register
(4) dermarsoran, Olethros, varlam4, vasiljev_sergej,
Dec 3 2021, 09:59:11 Archurahl - Nihilistic Black Metal [ep] (2021)


*Artist: Archurahl
*Album: Nihilistic Black Metal [ep]
*Year: 2021
*Genre: Black Metal
*Country: Turkey
*Format: mp3@CBR320kbps
*Size: 49MB

Tracklist:
01. Nihilistic Black Metal
02. Fear Of Humanity
03. There's No One Left Here
04. Death Anniversary Of Hope
05. Maybe This Efforts Are All İn Vain
******************************
Total playing time: 21:42

[more=Technical info]
Input File: 01. Nihilistic Black Metal.mp3
Channels : 2
Sample Rate : 44100
Precision : 16-bit
Duration : 00:00:00.25 = 10981 samples = 18.6752 CDDA sectors
File Size : 10.1M
Bit Rate : 325M
Sample Encoding: MPEG audio (layer I, II or III)
Comments :
Title=Nihilistic Black Metal
Artist=Archurahl
Album=Nihilistic Black Metal (EP)
Tracknumber=1/5
Year=2021
Genre=Black Metal
Discnumber=1/1

[/more]

Register
(4) kim666, Olethros, varlam4, vasiljev_sergej,
Dec 3 2021, 09:55:13 Archurahl - Forest Melody [single] (2021)


*Artist: Archurahl
*Album: Forest Melody [single]
*Year: 2021
*Genre: Black Metal
*Country: Turkey
*Format: mp3@CBR320kbps
*Size: 4MB

Tracklist:
01. Forest Melody 1:42
******************************
Total playing time: 1:42

[more=Technical info]
Input File: 01. Forest Melody.mp3
Channels : 2
Sample Rate : 44100
Precision : 16-bit
Duration : 00:00:00.10 = 4498 samples = 7.64966 CDDA sectors
File Size : 4.28M
Bit Rate : 336M
Sample Encoding: MPEG audio (layer I, II or III)
Comments :
Title=Forest Melody
Artist=Archurahl
Album=Forest Melody (Single)
Tracknumber=1/1
Year=2021
Genre=Black Metal
Discnumber=1/1

[/more]

Register
(3) Olethros, varlam4, vasiljev_sergej,
Dec 2 2021, 23:41:07 Miazmaty - Apeirofobia [ep] (2021)


*Artist: Miazmaty
*Album: Apeirofobia [ep]
*Year: 2021
*Genre: Post-Black Metal
*Country: Poland
*Format: mp3@CBR320kbps
*Size: 65MB

Tracklist:
01. Symbole
02. Miazmaty
03. Lęki
04. Marazm
05. Vastarien
06. Bezsens
******************************
Total playing time: 28:05



[more=Technical info]
Input File: 01. Symbole.mp3
Channels : 2
Sample Rate : 44100
Precision : 16-bit
Duration : 00:00:00.30 = 13186 samples = 22.4252 CDDA sectors
File Size : 12.2M
Bit Rate : 327M
Sample Encoding: MPEG audio (layer I, II or III)
Comments :
Title=Symbole
Artist=Miazmaty
Album=Apeirofobia (EP)
Tracknumber=1/6
Year=2021-11-13
Genre=Post-Black Metal
Discnumber=1/1

[/more]

Register
(16) aleon, artscald, caro, grimoir, judaz, kim666, Mencae77, Olethros, robertho777, Sanctus, stormhatt, VALERY, varlam4, vasiljev_sergej, wreak, yuratroll,
Nov 23 2021, 21:06:27 L'accusateur - Opus Mystérique (2021)
Register
(1) dermarsoran,
Nov 23 2021, 08:58:05 Opletaj - Дочерь Богов [demo] (2018)


*Artist: Opletaj
*Album: Дочерь Богов [demo]
*Year: 2018
*Genre: Melodic Doom/Death Metal
*Country: Russian Federation
*Format: mp3@CBR320kbps
*Size: 59MB

Tracklist:
01. Дочерь богов (Reginleif)
02. Смерть тянет стяг
03. Драккар
04. Кульминация
******************************
Total playing time: 25:22



[more=Technical info]
Input File: 03. Драккар.mp3
Channels : 2
Sample Rate : 44100
Precision : 16-bit
Duration : 00:00:00.40 = 17508 samples = 29.7755 CDDA sectors
File Size : 16.3M
Bit Rate : 328M
Sample Encoding: MPEG audio (layer I, II or III)
Comments :
Title=Драккар
Artist=Opletaj
Album=Дочерь богов (Demo)
Tracknumber=3/4
Year=2018
Genre=Melodic Doom/Death Metal
Discnumber=1/1

[/more]

Register
(13) artscald, Bregon, caro, julianotidre, Metalass, Olethros, quarantine, Shadechaser, stumpheavyrock, VALERY, varlam4, wreak, Сварог Барг,
Nov 22 2021, 16:47:15 Noisefog - Into The Ruin [ep] (2020)


*Artist: Noisefog
*Album: Into The Ruin [ep]
*Year: 2020
*Genre: Black Metal
*Country: Italy
*Format: mp3@CBR320kbps
*Size: 38MB

Tracklist:
01. Aesir's Hall
02. Bless Rotting Dead
03. Buried Pagan Ruin
04. Torn Apart
05. Noisefog
******************************
Total playing time: 16:54



[more=Technical info]
Input File: 04. Torn Apart.mp3
Channels : 2
Sample Rate : 44100
Precision : 16-bit
Duration : 00:00:00.27 = 11687 samples = 19.8759 CDDA sectors
File Size : 10.8M
Bit Rate : 326M
Sample Encoding: MPEG audio (layer I, II or III)
Comments :
Title=Torn Apart
Artist=Noisefog
Album=Into the Ruin (EP)
Tracknumber=4/5
Year=2020
Genre=Black Metal
Discnumber=1/1

[/more]

Register
(7) artscald, kim666, Olethros, stormhatt, vasiljev_sergej, Wail, wreak,
Nov 22 2021, 15:51:49 Kvävning - Skära [ep] (2021)


*Artist: Kvävning
*Album: Skära [ep]
*Year: 2021
*Genre: Depressive Black Metal
*Country: Sweden
*Format: mp3@CBR320kbps
*Size: 41MB

Tracklist:
01. Funeral (instrumental)
02. Ensam
03. Ta Mitt Liv
04. Slakta Mig
******************************
Total playing time: 17:42



[more=Technical info]
Input File: 03. Ta Mitt Liv.mp3
Channels : 2
Sample Rate : 44100
Precision : 16-bit
Duration : 00:00:00.21 = 9041 samples = 15.3759 CDDA sectors
File Size : 8.36M
Bit Rate : 326M
Sample Encoding: MPEG audio (layer I, II or III)
Comments :
Title=Ta Mitt Liv
Artist=Kvävning
Album=Skära (EP)
Tracknumber=3/4
Year=2021-11-19
Genre=Depressive Black Metal
Discnumber=1/1

[/more]

Register
(11) aleon, artscald, kim666, Olethros, Qliphoth, stormhatt, Styx, TemujinRaze, Tyrone, vasiljev_sergej, wreak,
Nov 22 2021, 10:51:40 Stagwounder - Abhold [ep] (2020)


*Artist: Stagwounder
*Album: Abhold [ep]
*Year: 2020
*Genre: Black/Doom Metal
*Country: Germany
*Format: mp3@CBR320kbps
*Size: 70MB

Tracklist:
01. From the Ivory Deathbed
02. Council of Rats
03. Tongue Eaters
04. Indra's Wound
******************************
Total playing time: 30:00



[more=Technical info]
Input File: 03. Tongue Eaters.mp3
Channels : 2
Sample Rate : 44100
Precision : 16-bit
Duration : 00:00:00.51 = 22623 samples = 38.4745 CDDA sectors
File Size : 20.9M
Bit Rate : 325M
Sample Encoding: MPEG audio (layer I, II or III)
Comments :
Title=Tongue Eaters
Artist=Stagwounder
Album=Abhold (EP)
Tracknumber=3/4
Year=2020
Genre=Black/Doom Metal
Discnumber=1/1

[/more]

Register
(12) artscald, dermarsoran, kauyumari, Olethros, satanist666, sergsazan, stormhatt, VALERY, vasiljev_sergej, Vitald, Wail, wreak,
Nov 22 2021, 10:10:01 Blood Eclipse - Part I [ep] (2021)


*Artist: Blood Eclipse
*Album: Part I [ep]
*Year: 2021
*Genre: Black/Gothic Metal
*Country: Russian Federation
*Format: mp3@CBR320kbps
*Size: 54MB

Tracklist:
01. Deathdream
02. Bloodthirst
03. Curse
04. Waltz of Despair
05. Ancient Castle Apparitions
06. Wraiths Amongst the Cursed Forest
07. Hades
******************************
Total playing time: 22:37



[more=Technical info]
Input File: 02. Bloodthirst.mp3
Channels : 2
Sample Rate : 44100
Precision : 16-bit
Duration : 00:00:00.22 = 9570 samples = 16.2755 CDDA sectors
File Size : 9.15M
Bit Rate : 337M
Sample Encoding: MPEG audio (layer I, II or III)
Comments :
Title=Bloodthirst
Artist=Blood Eclipse
Album=Part I (EP)
Tracknumber=2/7
Year=2021-10-10
Genre=Black/Gothic Metal

[/more]

Register
(12) aleon, artscald, caro, Cartman223, DarkHorde, julianotidre, obituarydark, Olethros, Shadechaser, VALERY, varlam4, wreak,
Nov 21 2021, 23:47:08 Gestorven - Lucht [ep] (2021)


*Artist: Gestorven
*Album: Lucht [ep]
*Year: 2021
*Genre: Atmospheric Doom/Black Metal/Dark Ambient
*Country: Malaysia
*Format: mp3@CBR320kbps
*Size: 63MB

Tracklist:
01. Regen I
02. Zeeën Die de Aarde Scheppen
03. Schuimvlokken
04. It Lân Fan Dreamen
05. Regen II
******************************
Total playing time: 27:02



[more=Technical info]
Input File: 03. Schuimvlokken.mp3
Channels : 2
Sample Rate : 44100
Precision : 16-bit
Duration : 00:00:00.52 = 22712 samples = 38.6259 CDDA sectors
File Size : 20.9M
Bit Rate : 324M
Sample Encoding: MPEG audio (layer I, II or III)
Comments :
Title=Schuimvlokken
Artist=Gestorven
Album=Lucht (EP)
Tracknumber=3/5
Year=2021-10-22
Genre=Atmospheric Black/Doom Metal/Dark Ambient
Discnumber=1/1

[/more]

Register
(3) Olethros, VALERY, vasiljev_sergej,
Nov 21 2021, 23:10:48 Isataii - Horns Of Power [ep] (2021)


*Artist: Isataii
*Album: Horns Of Power [ep]
*Year: 2021
*Genre: Black Metal
*Country: United States
*Format: mp3@CBR320kbps
*Size: 63MB

Tracklist:
01. Scorching Warfare
02. Horns of Power
03. Horns of Power Part II
04. Battalion of Wolves
05. Winds of Napalm
06. Reign of the Hellion (bonus)
******************************
Total playing time: 27:25



[more=Technical info]
Input File: 01. Scorching Warfare.mp3
Channels : 2
Sample Rate : 44100
Precision : 16-bit
Duration : 00:00:00.31 = 13671 samples = 23.25 CDDA sectors
File Size : 12.5M
Bit Rate : 323M
Sample Encoding: MPEG audio (layer I, II or III)
Comments :
Title=Scorching Warfare
Artist=Isataii
Album=Horns of Power (EP)
Tracknumber=1
Year=2021
Genre=Black Metal

[/more]

Register
(5) kim666, Korpse, Olethros, Styx, vasiljev_sergej,
Nov 20 2021, 23:27:28 The Final Command - Last War [demo] (2021)


*Artist: The Final Command
*Album: Last War [demo]
*Year: 2021
*Genre: Black Metal
*Country: Brazil
*Format: mp3@CBR320kbps
*Size: 31MB

Tracklist:
01. Annihilation
02. Last War
03. Misanthropic Wrath
******************************
Total playing time: 13:34

[more=Technical info]
Input File: 01. Annihilation.mp3
Channels : 2
Sample Rate : 44100
Precision : 16-bit
Duration : 00:00:00.38 = 16802 samples = 28.5748 CDDA sectors
File Size : 15.3M
Bit Rate : 322M
Sample Encoding: MPEG audio (layer I, II or III)
Comments :
Title=Annihilation
Artist=The Final Command
Album=Last War
Tracknumber=1
Year=2021-04-11
Genre=Metal
Discnumber=1

[/more]

Register
(8) artscald, kim666, Olethros, rickzammuto, stormhatt, Styx, vasiljev_sergej, wgs73,
Nov 20 2021, 23:15:45 Hexenschorf - Hexenschorf [demo] (2021)


*Artist: Hexenschorf
*Album: Hexenschorf [demo]
*Year: 2021
*Genre: Raw Black Metal
*Country: United States
*Format: mp3@CBR320kbps
*Size: 28MB

Tracklist:
01. Be Aware
02. Deadfelt
03. Which Scabs
******************************
Total playing time: 11:42



[more=Technical info]
Input File: 01. Be Aware.mp3
Channels : 2
Sample Rate : 44100
Precision : 16-bit
Duration : 00:00:00.32 = 13936 samples = 23.7007 CDDA sectors
File Size : 13.2M
Bit Rate : 334M
Sample Encoding: MPEG audio (layer I, II or III)
Comments :
Title=Be Aware
Artist=Hexenschorf
Album=Hexenschorf (Demo)
Tracknumber=1/3
Year=2021
Genre=Raw Black Metal
Discnumber=1/1

[/more]

Register
(5) artscald, kim666, Olethros, stormhatt, vasiljev_sergej,
Nov 20 2021, 22:55:31 Disorientation - Disorientation [ep] (2021)


*Artist: Disorientation
*Album: Disorientation [ep]
*Year: 2021
*Genre: Gothic/Doom/Death Metal
*Country: Canada
*Format: mp3@CBR320kbps
*Size: 40MB

Tracklist:
01. Break Down
02. Nature
03. Epilogue
******************************
Total playing time: 16:55



[more=Technical info]
Input File: 01. Break Down.mp3
Channels : 2
Sample Rate : 44100
Precision : 16-bit
Duration : 00:00:00.37 = 16097 samples = 27.3759 CDDA sectors
File Size : 15.1M
Bit Rate : 330M
Sample Encoding: MPEG audio (layer I, II or III)
Comments :
Title=Break Down
Artist=Disorientation
Album=Disorientation (EP)
Tracknumber=1/3
Year=2021
Genre=Gothic/Doom/Death Metal
Discnumber=1/1

[/more]

Register
(8) artscald, Cartman223, Ice Gnoll, Olethros, quarantine, sergsazan, VALERY, vyacheslav,
Nov 20 2021, 20:25:01 Xenomorph8472 - Xenomorph [demo] (2021)


*Artist: Xenomorph8472
*Album: Xenomorph [demo]
*Year: 2021
*Genre: Raw Black Metal
*Country: United States
*Format: mp3@CBR320kbps
*Size: 40MB

Tracklist:
01. Die Kraft Arbeit
02. Punition qui fait mal
03. Broken Paradigm of Worth
04. Possessed by Satan (Gorgoroth cover)
******************************
Total playing time: 17:24



[more=Technical info]
Input File: 01. Die Kraft Arbeit.mp3
Channels : 2
Sample Rate : 44100
Precision : 16-bit
Duration : 00:00:00.21 = 9305 samples = 15.8248 CDDA sectors
File Size : 8.68M
Bit Rate : 329M
Sample Encoding: MPEG audio (layer I, II or III)
Comments :
Title=Die Kraft-Arbeit
Artist=Xenomorph8472
Album=Xenomorph (Demo)
Tracknumber=1/1
Year=2021
Genre=Raw Black Metal
Discnumber=1/1

[/more]

Register
(5) artscald, kim666, Olethros, stormhatt, vasiljev_sergej,
Nov 20 2021, 13:31:34 Ainulindalë - Les Chroniques D'arda [ep] (2021)


*Artist: Ainulindalë
*Album: Les Chroniques D'arda [ep]
*Year: 2021
*Genre: Epic Black Metal
*Country: France
*Format: mp3@CBR320kbps
*Size: 35MB

Tracklist:
01. Les damnés de Numénor
02. Dagor-Nuin-Giliath
03. Le geste de Maeglin
04. Et même les milles cavernes se sont vidées....
******************************
Total playing time: 14:51



[more=Technical info]
Input File: 01. Les damnés de Numénor.mp3
Channels : 2
Sample Rate : 44100
Precision : 16-bit
Duration : 00:00:00.27 = 12039 samples = 20.4745 CDDA sectors
File Size : 11.3M
Bit Rate : 330M
Sample Encoding: MPEG audio (layer I, II or III)
Comments :
Title=Les damnés de Numénor
Artist=Ainulindalë
Album=Les chroniques d'Arda (EP)
Tracknumber=1/4
Year=2021-11-19
Genre=Epic Black Metal
Discnumber=1/1

[/more]

Register
(11) artscald, Dark_Viking, kim666, Mencae77, Olethros, sergsazan, stormhatt, Torop, varlam4, vasiljev_sergej, zhol,
Nov 20 2021, 12:48:10 Plaagdrager - Rampspoed & Verdriet (2021)


*Artist: Plaagdrager
*Album: Rampspoed & Verdriet
*Year: 2021
*Genre: Black Metal
*Country: Netherlands
*Format: mp3@CBR320kbps
*Size: 125MB

Tracklist:
01. Opening
02. Yersinia Pestis
03. Dans met mij, Miasma
04. Blindeman
05. Kluizenaar
06. De Angst van Dwazen
07. Slaaf van Gula
08. Horde van het Brakke Water
09. Paradigma
10. Kwaadspraak
11. Woestenij
12. Slot (de Pest)
******************************
Total playing time: 53:50



[more=Technical info]
Input File: 03. Dans met mij, Miasma.mp3
Channels : 2
Sample Rate : 44100
Precision : 16-bit
Duration : 00:00:00.26 = 11378 samples = 19.3503 CDDA sectors
File Size : 10.5M
Bit Rate : 327M
Sample Encoding: MPEG audio (layer I, II or III)
Comments :
Title=Dans met mij, Miasma
Artist=Plaagdrager
Album=Rampspoed & Verdriet
Tracknumber=3/12
Year=2021-11-20
Genre=Black Metal
Discnumber=1/1

[/more]

Register
(2) desekrator, Olethros,

84 Pages V   1 2 3 > » 
- Lo-Fi Version Support form
Copyrights and abuse reports form
Time is now: 6th July 2022 - 14:32:18

здесь палят секреты вконтакте.