Welcome Guest ( Log In | Register )

История благодарностей участнику GloomyDeath ::: Спасибо сказали: 5815 раз(а)
Дата поста: В теме: За сообщение: Спасибо сказали:
Sep 19 2023, 08:08:07 Դագաղ (Dagagh) - Dungeon Lust (2023)


*Artist: Դագաղ (Dagagh)
*Album: Dungeon Lust
*Year: 2023
*Genre: Black Metal
*Country: Armenia
*Format: mp3@CBR128kbps
*Size: 25MB

Tracklist:
1. It Awakens
2. Sacrificial Lunacy
3. Black Magic Worship
4. Night of the Witch
5. Bloodlust in the Dungeons of Gomorrah
6. His Power Is Pure Evil
7. Dungeon Lust
******************************
Total playing time: 26:16

[more=Extended info]The band's name (Dagagh) means "Coffin" in Armenian.[/more]

[more=Technical info]
Input File: 1 It Awakens .mp3
Channels : 2
Sample Rate : 44100
Precision : 16-bit
Duration : 00:01:49.00 = 4806900 samples = 8175 CDDA sectors
File Size : 2.02M
Bit Rate : 148k
Sample Encoding: MPEG audio (layer I, II or III)
Comments :
Title=It Awakens
Artist=Dagagh
Album=Dungeon Lust
Year=2023
Genre=138

[/more]

Register
(14) Asketto, Bzth, Carcharoth, Grev, judaz, kim666, satanath, satanist666, thenecromancer, vasiljev_sergej, Vidder242, Vidyadharov, Wail, yarrsuaa,
Jul 4 2023, 10:44:54 Blood Coloured Beast V/A - TSES Ծես [compilation] (2023)


*Artist: Blood Coloured Beast V/A
*Album: TSES Ծես [compilation]
*Year: 2023
*Genre: Black Metal
*Country: Armenia
*Format: mp3@CBR320kbps
*Size: 139MB

Tracklist:
1. BCB - Intro
2. Odz Manouk - A Dungeon of Gravitational Regret
3. Dzhokhk - Arbiter of Death
4. Battalion - Ararat's Breeze
5. Azhdahak - The Vengeful Winds of Artsakh
6. Mtnshagh - Tumult in the Spheres
7. Dahich - Ira Anounov
8. Vox Clamantis - The Rust of Time
9. Andound - Ritual Placentophagy of the Plutonian Sphinx
10. Kayzak - Night of the 666
11. Rampant Beast - Bestial Torment
12. Vishap - Where the Night Sky Reigns Supreme
******************************
Total playing time: 59:00

[more=Extended info]11 songs from 11 Armenian extreme metal artists spanning the globe from Asia to North America. Ծես meaning "Ritual", is an eclectic curation of tracks ranging from lo-fi atmospheric black metal to black thrash and speed metal. 60 minutes of exclusive music not previously published. All contemporary active projects with the exception of the Battalion song recorded over 25 years ago in Lebanon.

A testament of unity, but also of blood and wisdom from an ancient civilization. From the freezing winds of Ararat, to the ominous spiritual grandeur of Khor Vishap, to the imposing, monumental natural splendour of Lake Sevan, or the rich tapestries of colours as shown in Parajanov's everlasting movies, Armenia is a testament to perseverance and strength of millenial civilizations, and to this ancient glories but also to a history ripe from anguish, these artists sing.

A terrific compendium of blackened music, ranging from the more experimental and matured sound of the experienced modern classic that is Odz Manouk, and similarities present in Mtnshagh, to the ancient, arid Black/Thrash/Death incantations of Dzhokhk or Battalion, to the freezing Blazebirth Hall-ish hymn of Vox Clamantis or the primeval, to the brute geological force of Vishap's Black/Doom and plenty in between; this released definitely shows a thriving scene hidden in the underground.

Released on cassette by Blood Coloured Beast
Tapes available here:
www.bloodcolouredbeast.com
Label info & updates
www.instagram.com/bloodcolouredbeast/

"Ծես (Tses) meaning "Ritual" in Armenian is a collection of Armenian underground metal artists spanning the globe from Asia to North America. Creators of dark audial arts that challenge the boundaries of contemporary Armenian culture, pay homage to a pre-christian past and nearly three thousand years of a history of creation, struggle, victory, and defeat. Armenia is greater than that which lies on the plains of Ararat, it emanates from the soul and is carried upon the backs of a people dispersed through the sands of time across the earth in pursuit of knowledge and adventure but also by blood, fire, and death."[/more]

[more=Technical info]
Input File: 12 Vishap - Where the Night Sky Reigns Supreme.mp3
Channels : 2
Sample Rate : 48000
Precision : 16-bit
Duration : 00:06:30.82 = 18759312 samples ~ 29311.4 CDDA sectors
File Size : 16.1M
Bit Rate : 330k
Sample Encoding: MPEG audio (layer I, II or III)
Comments :
Title=Vishap - Where the Night Sky Reigns Supreme
Artist=Blood Coloured Beast
Album=Tses
Tracknumber=12
Year=2023
Genre=138

[/more]

Register
(11) artscald, dermarsoran, Fire_Christ, kefka, kim666, Messian, mizantrophist, supremo, VALERY, vasiljev_sergej, wreak,
Mar 15 2023, 12:00:19 Suicide Silence - Remember... You Must Die (2023)
[youtube]https://youtu.be/2f0mM58_lJY[/youtube]
(1) Fire_Christ,
Feb 7 2023, 08:12:20 Falling In Reverse - The Drug In Me Is You (2011)


*Artist: Falling In Reverse
*Album: The Drug In Me Is You
*Year: 2011
*Genre: Post Hardcore/Metalcore/Alternative
*Country: United States
*Format: mp3@CBR320kbps
*Size: 105MB

Tracklist:
01. Raised By Wolves
02. Tragic Magic
03. The Drug In Me Is You
04. I’m Not A Vampire
05. Good Girls Bad Guys
06. Pick Up The Phone
07. Don’t Mess With Ouija Boards
08. Sink Or Swim
09. Caught Like A Fly
10. Goodbye Graceful
11. The Westerner
******************************
Total playing time: 45:53

[more=Technical info]
Input File: 03 - The Drug In Me Is You.mp3
Channels : 2
Sample Rate : 44100
Precision : 16-bit
Duration : 00:03:38.87 = 9652123 samples = 16415.2 CDDA sectors
File Size : 8.81M
Bit Rate : 322k
Sample Encoding: MPEG audio (layer I, II or III)
Comments :
Title=The Drug In Me Is You
Artist=Falling In Reverse
Album=The Drug In Me Is You
Tracknumber=03
Year=2011
Genre=Alternative
Discnumber=1

[/more]

Register
(1) Fire_Christ,
Feb 7 2023, 08:09:52 Falling In Reverse - Fashionably Late (Deluxe Edition) (2013)


*Artist: Falling In Reverse
*Album: Fashionably Late (Deluxe Edition)
*Year: 2013
*Genre: Post Hardcore/Metalcore/Alternative
*Country: United States
*Format: mp3@CBR320kbps
*Size: 137MB

Tracklist:
01. Champion
02. Bad Girls Club
03. Rolling Stone
04. Fashionably Late
05. Alone
06. Born to Lead
07. It's Over When It's Over
08. Game Over
09. Self-Destruct Personality
10. Fuck the Rest
11. Keep Holding On
12. Drifter
13. Where Have You Been
14. Goddamn
15. Rolling Stone (Shy Kidx Remix)
******************************
Total playing time: 59:46

[more=Technical info]
Input File: 05 - Alone.mp3
Channels : 2
Sample Rate : 44100
Precision : 16-bit
Duration : 00:04:39.16 = 12311088 samples = 20937.2 CDDA sectors
File Size : 11.2M
Bit Rate : 321k
Sample Encoding: MPEG audio (layer I, II or III)
Comments :
Title=Alone
Artist=Falling In Reverse
Album=Fashionably Late (Deluxe Edition)
Tracknumber=05
Year=2013
Genre=Rock
Discnumber=1

[/more]

Register
(1) Fire_Christ,
Feb 7 2023, 08:07:14 Falling In Reverse - Just Like You (Deluxe Edition) (2015)


*Artist: Falling In Reverse
*Album: Just Like You (Deluxe Edition)
*Year: 2015
*Genre: Post Hardcore/Metalcore/Alternative
*Country: United States
*Format: mp3@CBR320kbps
*Size: 120MB

Tracklist:
01. Chemical Prisoner
02. God, If You Are Above...
03. Sexy Drug
04. Just Like You
05. Guillotine IV (The Final Chapter)
06. Stay Away
07. Wait and See
08. The Bitter End
09. My Heart's To Blame
10. Get Me Out
11. Die For You
12. Brother
13. My Apocalypse II
14. Pray
******************************
Total playing time: 52:27

[more=Technical info]
Input File: 10 - Get Me Out.mp3
Channels : 2
Sample Rate : 44100
Precision : 16-bit
Duration : 00:03:45.48 = 9943580 samples = 16910.9 CDDA sectors
File Size : 9.08M
Bit Rate : 322k
Sample Encoding: MPEG audio (layer I, II or III)
Comments :
Title=Get Me Out
Artist=Falling In Reverse
Album=Just Like You (Deluxe Edition)
Tracknumber=10
Year=2015
Genre=Rock
Discnumber=1

[/more]

Register
(1) Fire_Christ,
Dec 22 2022, 10:00:33 Mayhem - Black Glass Communion [studio clip] (2021)
ЦИТАТА(Froze @ Dec 21 2022, 13:36:30) *
Итого, даже один палец остается свободным)))

Были еще концертники 2000 или 2002 года.


ИТД ....


[youtube]https://www.youtube.com/watch?v=YeniEveQW-I[/youtube]
(1) Fire_Christ,
Dec 21 2022, 15:05:15 Mayhem - Black Glass Communion [studio clip] (2021)
ЦИТАТА(Froze @ Dec 20 2022, 12:28:11) *
RUSP73, а у них были клипы? Я даже приличного лайва не могу вспомнить...

Mayhem - De Mysteriis Dom Sathanas Alive [concert] (2016)
Mayhem - Falsified And Hated [studio clip] (2019)
Mayhem - De Mysteriis Dom Sathanas Alive [concert] (2019)
Mayhem - Anti [studio clip] (2008)
(1) Occultas,
Dec 19 2022, 16:04:22 Mayhem - Black Glass Communion [studio clip] (2021)


*Performer: Mayhem
*Title: Black Glass Communion
*Type: Studio Clip
*Album: Atavistic Black Disorder / Kommando
*Year: 2021
*Genre: Black Metal
*Country: Norway

*Audio: ac3@127kbps
*Video: h.264@4406kbps
*Resolution: 1920x1080
*Size: 144MB
******************************
*Length: 00:04:32

Register
(12) AlexSmith, Kaamos, Lord Of The Siths, Mencae77, metalboll, Occultas, Pinhead666, recber, RUSP73, thenecromancer, VALERY, ZloY_GreY,
Feb 19 2022, 19:36:19 Bloodywood - Rakshak (2022)
очень классная группа, респект ․․․․․․
(1) BleedingSun,
Jan 22 2022, 19:13:53 Slaughter To Prevail - Kostolom (2021)
ЦИТАТА(xax @ Jan 22 2022, 16:49:16) *
почему 2022? прошлогодний же

исправил bye.gif
(1) Emm Human,
Jan 22 2022, 16:36:56 Slaughter To Prevail - Kostolom (2021)


*Artist: Slaughter To Prevail
*Album: Kostolom
*Year: 2021
*Genre: Deathcore
*Country: Russian Federation
*Format: mp3@CBR320kbps
*Size: 113MB

Tracklist:
1. Bonebreaker
2. Demolisher
3. Baba Yaga
4. Made in Russia
5. Agony
6. Zavali Ebalo
7. Your Only
8. Killed a Man
9. Bratva
10. Ouroboros
11. Head on a Plate
12. Father
******************************
Total playing time: 49:05

[more=Technical info]
Input File: 03 Baba Yaga.mp3
Channels : 2
Sample Rate : 44100
Precision : 16-bit
Duration : 00:04:15.08 = 11248852 samples = 19130.7 CDDA sectors
File Size : 10.2M
Bit Rate : 321k
Sample Encoding: MPEG audio (layer I, II or III)
Comments :
Title=Baba Yaga
Artist=Slaughter to Prevail
Album=Kostolom
Tracknumber=3/12
Year=2021
Genre=Deathcore | Nu Metalcore
Discnumber=1/1

[/more]

Register
(16) artscald, Brutal, caro, cenzored, chipsgott, Emhyr var Emreis, Foneg, Golfzilla, GorAtheist, infernallord, maochen, Metalass, Olethros, Taakeferd, VALERY, wreak,
Mar 25 2020, 19:09:17 Rahvira - Կար Ժամանակ [demo live clip] (2020)


*Performer: Rahvira
*Title: Կար Ժամանակ
*Type:Demo Live Clip
*Year: 2020
*Genre: Pagan Black Metal
*Country: Armenia

*Audio: ac3@192kbps
*Video: h.264@5000kbps
*Resolution: 1920x1080
*Size: 223MB
******************************
*Length: 00:06:00

[more=Extended info][youtube]https://www.youtube.com/watch?v=rO43raGyZS4[/youtube][/more]

Register
(4) infiltrator, Necromag, noxspiritus, thenecromancer,
Jan 7 2020, 12:49:05 Necro Polaris - Rise In Rebellion (2018)
НЕНАВИЖУ mega
(3) infiltrator, Killrain, VALERY,
Nov 8 2019, 06:14:38 Mayhem - Falsified And Hated [studio clip] (2019)


*Performer: Mayhem
*Title: Falsified And Hated
*Type: Studio Clip
*Album: Daemon
*Year: 2019
*Genre: Black Metal
*Country: Norway

*Audio: ac3@128kbps
*Video: h.264@4696kbps
*Resolution: 1920x1080
*Size: 218MB
******************************
*Length: 00:06:19

Register
(12) AlexSmith, Clitoriduss, gwar, Kaamos, Kaiser, Rosen, RUSP73, Scuns, Soleil14, StabWound, VALERY, VSvaleryVS,
Oct 24 2019, 09:21:24 Infected Rain - Endorphin (2019)


*Artist: Infected Rain
*Album: Endorphin
*Year: 2019
*Genre: Nu-Metal/Metalcore
*Country: Moldova
*Format: mp3@CBR320kbps
*Size: 93MB

Tracklist:
01. The Earth Mantra (4:46)
02. Black Gold (4:10)
03. Symphony of Trust (4:21)
04. Pendulum (3:50)
05. Passerby (3:23)
06. Lure (2:29)
07. Victims (3:26)
08. Walking Dead (3:41)
09. Taphephonia (5:28)
10. Storm (5:00)
******************************
Total playing time: 40:34

[more=Technical info]
Input File: 01. The Earth Mantra.mp3
Channels : 2
Sample Rate : 44100
Precision : 16-bit
Duration : 00:04:46.37 = 12629049 samples = 21478 CDDA sectors
File Size : 11.5M
Bit Rate : 320k
Sample Encoding: MPEG audio (layer I, II or III)
Comments :
Title=The Earth Mantra
Artist=Infected Rain
Album=Endorphin
Tracknumber=1
Year=2019
Genre=Rock

[/more]

Register
(7) Alpha_Prime, boby9052, China, chipsgott, John Beak, TeamatSE, tschunioronbeer,
Oct 24 2019, 09:17:58 Infected Rain - 86 (2017)


*Artist: Infected Rain
*Album: 86
*Year: 2017
*Genre: Nu-Metal/Metalcore
*Country: Moldova
*Format: mp3@CBR320kbps
*Size: 110MB

Tracklist:
01. Mold 5:49
02. Serendipity 3:45
03. Freaky Carnival 5:12
04. Endless Stairs 4:27
05. Orphan Soul 4:49
06. Fool The Gravity 3:24
07. Intoxicating 4:03
08. Smoking Lies 3:05
09. Peculiar Kind Of Sanity 5:13
10. Queen Of The Candy World 3:31
11. My Home 4:06
******************************
Total playing time: 47:24

[more=Technical info]
Input File: 01. Mold.mp3
Channels : 2
Sample Rate : 44100
Precision : 16-bit
Duration : 00:05:49.49 = 15412421 samples = 26211.6 CDDA sectors
File Size : 14.0M
Bit Rate : 322k
Sample Encoding: MPEG audio (layer I, II or III)
Comments :
Title=Mold
Artist=Infected Rain
Album=86
Tracknumber=01
Year=2017
Genre=Metal

[/more]

Register
(8) artscald, boby9052, China, chipsgott, gwar, John Beak, Olethros, Rosen,
Oct 24 2019, 09:14:44 Infected Rain - Embrace Eternity (2014)
Register
(1) boby9052,
Oct 24 2019, 09:14:03 Infected Rain - Asylum (2011)
Register
(2) boby9052, John Beak,
Oct 24 2019, 09:13:15 Infected Rain - Demo [demo] (2008)


*Artist: Infected Rain
*Album: Demo [demo]
*Year: 2008
*Genre: Nu-Metal/Metalcore
*Country: Moldova
*Format: mp3@CBR320kbps
*Size: 25MB

Tracklist:
01. No Idols 3:16
02. Parasite 3:25
03. With Me 4:17
******************************
Total playing time: 10:58

[more=Technical info]
Input File: 01. No Idols.mp3
Channels : 2
Sample Rate : 44100
Precision : 16-bit
Duration : 00:03:16.43 = 8662475 samples = 14732.1 CDDA sectors
File Size : 7.93M
Bit Rate : 323k
Sample Encoding: MPEG audio (layer I, II or III)
Comments :
Title=No Idols
Artist=Infected Rain
Album=Demo
Tracknumber=01
Year=2008

[/more]

Register
(4) artscald, gwar, Olethros, Rosen,
Oct 24 2019, 09:12:20 Infected Rain - Infected Rain [ep] (2009)
Register
(2) boby9052, chipsgott,
Mar 2 2019, 18:39:17 Lords Of Chaos - Властелины Хаоса [Художественный Фильм] (2018)


*Title: Lords Of Chaos - Властелины Хаоса
*Type: Художественный Фильм
*Year: 2018
*Genre: Драма / Биография / Криминал / Музыка
*Country: Sweden / England

*Режиссер: Йонас Окерлунд
*Сценарий: Деннис Магнуссон, Йонас Окерлунд, Michael Moynihan, ...
*Продюсер: Джек Арбутнотт, Джим Чарнеки, Квеси Диксон, ...
*Оператор: Пер М. Экберг
*Композитор: Сигюр Роус
*Художник: Эмма Фэйрли, Чаба Лоди, Сьюзи Култхард, ...
*Монтаж: Рикард Крантц
*В ролях: Рори Калкин, Эмори Коэн, Джек Килмер, Скай Феррейра, Вальтер Скарсгард, Энтони Де Ла Торре, Джонатан Барнвелл, Сэм Коулман, Уилсон Оксенкнехт, Люсиан Чарльз Колье

*Audio: ac3@192kbps
*Video: xvid@1453kbps
*Resolution: 720x384
*Size: 1360MB
******************************
*Length: 01:58:11



Register
(9) canadaspaceman, Fire_Christ, nikolay81, Occultas, Ostinato, recber, rominow, Rosen, sacrut,
Feb 10 2019, 20:40:18 Ecliptica - Resiliens [ep] (2010)


*Artist: Ecliptica
*Album: Resiliens [ep]
*Year: 2010
*Genre: Heavy/Power Metal
*Country: Uruguay
*Format: mp3@CBR320kbps
*Size: 50MB

Tracklist:
1. Ab Initio Ad Eternum
2. Abismo
3. Enfrentando El Destino
4. Reflexion
5. Mas Alla De Los Sueños
6. Oscura Agonía
******************************
Total playing time: 22:45

[more=Technical info]
Input File: 03 Enfrentando El Destino.mp3
Channels : 2
Sample Rate : 44100
Precision : 16-bit
Duration : 00:04:42.63 = 12463807 samples = 21197 CDDA sectors
File Size : 11.3M
Bit Rate : 320k
Sample Encoding: MPEG audio (layer I, II or III)
Comments :
Title=Enfrentando El Destino
Artist=Ecliptica
Album=Resiliens EP
Tracknumber=3
Year=2010
Genre=Heavy Metal

[/more]

Register
(3) gwar, Rosen, strato20,
Jan 20 2019, 09:34:30 Rockbitch - Bitchcraft [concert] (1997)


*Performer: Rockbitch
*Title: Bitchcraft
*Type: Concert
*Year: 1997
*Genre: Avant-Garde Metal/Heavy Metal/Rock
*Country: United Kingdom

*Audio: mp3@128kbps
*Video: divx@1157kbps
*Resolution: 592x464
*Size: 702MB
******************************
*Length: 01:15:53

[more=Extended info]1-Introduction
2-Cindy
3-Kill
4-The Gloden Condom Award
5-Exploring Amsterdam
6-Lucifer
7-Bitter Rose
8-Fist Fuck (Part I)
9-France
10-Whore Of Statan
11-Kalima
12-Up & Down
13-Fist Fuck (Part II)
14-The Sex MAniac Ball
15-Sex Slut Interlude
16-Pissdrippingfurburger


http://www.rockbitch.com[/more]

Register
(5) gwar, morbidangelo, Rosen, socrates9, ZarK,
Jan 20 2019, 08:28:44 Águila Negra - Nativo (2016)


*Artist: Águila Negra
*Album: Nativo
*Year: 2016
*Genre: Heavy/Power Metal
*Country: Chile
*Format: mp3@CBR320kbps
*Size: 109MB

Tracklist:
1. La Última Frontera
2. Águila Negra
3. Hijos De La Tierra
4. Líbranos Del Mal
5. Voces Del Pasado
6. Ellos Sangran (Labali)
7. Huella Y Pasado
8. In Nomine
9. Nativo
******************************
Total playing time: 51:49

[more=Technical info]
Input File: 03. Hijos de la Tierra.mp3
Channels : 2
Sample Rate : 44100
Precision : 16-bit
Duration : 00:07:14.70 = 19170446 samples = 32602.8 CDDA sectors
File Size : 17.5M
Bit Rate : 322k
Sample Encoding: MPEG audio (layer I, II or III)
Comments :
Title=Hijos de la Tierra
Artist=Águila Negra
Album=Nativo
Tracknumber=3
Year=2018
Discnumber=1

[/more]

Register
(8) artscald, aviacademy, Herrant, Lukittaz, Olethros, pichileon, Rosen, varlam4,

36 Pages V   1 2 3 > » 
- Lo-Fi Version Support form
Copyrights and abuse reports form
Time is now: 24th February 2024 - 10:01:42