Welcome Guest ( Log In | Register )

История благодарностей участнику squall8fr ::: Спасибо сказали: 987 раз(а)
Дата поста: В теме: За сообщение: Спасибо сказали:
Jul 18 2022, 17:10:29 Entität - Entität (2022) (1) Storky,
Apr 30 2022, 15:34:52 Teufelsberg - Ordre Du Diable (2022)
(3) Alexis The Best, Occultas, Storky,
Mar 28 2022, 17:46:03 Skaur - Reis Te Haelvete (2021)


*Artist: Skaur
*Album: Reis Te Haelvete
*Year: 2021
*Genre: Black Metal
*Country: Norway
*Format: mp3@CBR320kbps
*Size: 115MB

Tracklist:
01. Reis te Haelvete 06:24
02. Ved noed foelger doed 07:02
03. Nattsangen 07:01
04. Himmelild 08:30
05. Nordland og ned 11:44
06. Stjerna 10:11
******************************
Total playing time: 50:52



[more=Extended info]CD-Rip

Official Website
Metal Archives[/more]

[more=Technical info]
Input File: 01 - Reis Te Haelvete.mp3
Channels : 2
Sample Rate : 44100
Precision : 16-bit
Duration : 00:06:25.07 = 16981543 samples = 28880.2 CDDA sectors
File Size : 15.4M
Bit Rate : 320k
Sample Encoding: MPEG audio (layer I, II or III)
Comments :
Title=Reis Te Haelvete
Artist=Skaur
Album=Reis Te Haelvete
Tracknumber=01
Year=2021
Discnumber=1/1

[/more]

Register
(40) aleon, alikkon, artscald, Branis, cancer1974, Carcharoth, caro, DarkHorde, Hell_Is_Here, Ildjarn, Kazoth, kim666, Korpse, kryptor, LEGION69, lordsloth, Marek, Moonshtook, multizwilling, nsk2008, Olethros, pfk505, Qliphoth, rimfrost, robertho777, SilentNidhogg, smes, stormhatt, supremo, Taakeferd, thenecromancer, VALERY, varlam4, vasiljev_sergej, VeDaath, Victim of fate, Wail, WOLAND, wreak, Авел,
Jan 30 2022, 10:03:40 Thanatomania - Kalamität [ep] (2022)


*Artist: Thanatomania
*Album: Kalamität [ep]
*Year: 2022
*Genre: Black Metal
*Country: Germany
*Format: mp3@CBR320kbps
*Size: 35MB

Tracklist:
01. I 06:48
02. II 01:23
03. III 05:51
04. IV 01:22
******************************
Total playing time: 15:24





[more=Extended info]Metal Archives[/more]

[more=Technical info]
Input File: 01 - I.mp3
Channels : 2
Sample Rate : 44100
Precision : 16-bit
Duration : 00:06:48.53 = 18016085 samples = 30639.6 CDDA sectors
File Size : 16.4M
Bit Rate : 321k
Sample Encoding: MPEG audio (layer I, II or III)
Comments :
Title=I
Artist=Thanatomania
Album=Kalamität (EP)
Tracknumber=01
Year=2022

[/more]

Register
(14) artscald, Carcharoth, caro, GorAtheist, Ildjarn, kim666, lopuh21, SilentNidhogg, stormhatt, VALERY, varlam4, vasiljev_sergej, Wotanwatch, wreak,
Nov 28 2021, 16:10:40 Orlok - The Dark Knell (2021) (1) stub888,
Sep 16 2021, 17:54:09 Peste Noire - Le Retour Des Pastoureaux (2021)
Still no proper CD or Vinyl rip ? 16.gif
(1) Falx,
Sep 14 2021, 18:01:38 Dødsferd - Skotos [ep] (2021)
QUOTE(thenecromancer @ Sep 13 2021, 13:52:24) *
nope, link is no longer working 16.gif


Well it's strange, I just used it and it works. Do you have any restriction with mediafire ?

Edit : try with this shorter link

Register

(2) andivi, Chasm,
Sep 7 2021, 18:09:40 Dødsferd - Skotos [ep] (2021)


*Artist: Dødsferd
*Album: Skotos [ep]
*Year: 2021
*Genre: Black Metal
*Country: Greece
*Format: mp3@CBR320kbps
*Size: 140MB

Tracklist:
01. Skotadi 05:04
02. Cursed to Die at First Light 04:22
03. My Father, My Wrath! 08:41
04. An Existence Without Purpose 11:00
05. Diseased Remnants of a Dying World 16:18
06. Loyal to the Black Oath 09:23
07. Back to My Homeland... My Last Breath 06:22
******************************
Total playing time: 1:01:10



[more=Extended info]Metal Archives[/more]

[more=Technical info]
Input File: 02 - Cursed To Die At First Light.mp3
Channels : 2
Sample Rate : 44100
Precision : 16-bit
Duration : 00:04:22.47 = 11574883 samples = 19685.2 CDDA sectors
File Size : 10.8M
Bit Rate : 329k
Sample Encoding: MPEG audio (layer I, II or III)
Comments :
Title=Cursed To Die At First Light
Artist=Dødsferd
Album=Skotos (EP)
Tracknumber=02
Year=2021

[/more]

Register
(25) aleon, Alexis The Best, blacky66, boby9052, cancer1974, caro, cesar, garml2, GorAtheist, Marek, Metalass, nemx, Olethros, rammmirez, Razorbladeswaltz, smes, Taakeferd, thenecromancer, Tino, VALERY, vasiljev_sergej, Wail, wreak, yarrsuaa, yuratroll,
Jun 14 2021, 17:04:09 Néfastes - Scumanity (2021) (2) nsk2008, rominow,
Feb 6 2021, 17:08:29 Hate Forest - Celestial Wanderer [ep] (2020)


*Artist: Hate Forest
*Album: Celestial Wanderer [ep]
*Year: 2020
*Genre: Black Metal
*Country: Ukraine
*Format: mp3@CBR320kbps
*Size: 24MB

Tracklist:
1. The Dead Talk to the Stars 05:13
2. Goddess with Six Serpentine Legs 05:16
******************************
Total playing time: 10:29




[more=Extended info]Metal Archives[/more]

[more=Technical info]
Input File: 01 - The Dead Talk To The Stars.mp3
Channels : 2
Sample Rate : 44100
Precision : 16-bit
Duration : 00:05:13.60 = 13829848 samples = 23520.1 CDDA sectors
File Size : 12.8M
Bit Rate : 326k
Sample Encoding: MPEG audio (layer I, II or III)
Comments :
Title=The Dead Talk To The Stars
Artist=Hate Forest
Album=Celestial Wanderer (EP)
Tracknumber=01
Year=2020
Genre=Black Metal

[/more]

Register
(56) acerbus, Antichrist, Aresson, BERZERK, blacky66, Boozer, Branis, caro, cist, El_Chibo, Femto, Fryz, gena, goat_horns, grimoir, gutted, Hell_Is_Here, igore2911, Ildjarn, infiltrator, infozahist, jelly_kt, kim666, maochen, Marek, Mencae77, Metalass, metalfanatic666, metaljosue, Mist13Signifier, mondlicht, nsk2008, Occultas, Olethros, peppuzzo, Premature_Devotion, princeshr, randumbum, recber, ripper33, Rosen, RUSP73, sarcophagus, Shadechaser, SilentNidhogg, smes, supremo, Surt, VALERY, varlam4, vasiljev_sergej, Wilczygniew Strzygoń, wreak, Авел, Варяг, дивин,
Oct 9 2020, 19:53:41 Lorem Ipsum - Fifth Plateau (2020) (2) smysl, stub888,
Sep 7 2020, 16:53:54 Rutabaga - Экзистенция (2020)
(1) randumbum,
Aug 31 2020, 19:06:40 Tomb - Gates Of Gehenna [ep] (2019) (1) Occultas,
Aug 29 2020, 13:04:29 Oppressive Descent - Within The Horrific Vault [ep] (2020)


*Artist: Oppressive Descent
*Album: Within The Horrific Vault [ep]
*Year: 2020
*Genre: Black Metal
*Country: United States
*Format: mp3@CBR320kbps
*Size: 72MB

Tracklist:
1. Within the Horrific Vault 11:48
2. Years Frozen in Time 04:19
3. Hidden Path 04:49
4. Torture II 10:29
******************************
Total playing time: 31:25



[more=Extended info]Metal Archives

Files from Bandcamp[/more]

[more=Technical info]
Input File: 02 - Years Frozen In Time.mp3
Channels : 2
Sample Rate : 44100
Precision : 16-bit
Duration : 00:04:19.31 = 11435483 samples = 19448.1 CDDA sectors
File Size : 10.5M
Bit Rate : 324k
Sample Encoding: MPEG audio (layer I, II or III)
Comments :
Title=Years Frozen In Time
Artist=Oppressive Descent
Album=Within The Horrific Vault (EP)
Tracknumber=02
Year=2020

[/more]

Register
(20) 1968_janeart, artscald, AwaitingDawn, grimoir, Ildjarn, infiltrator, kim666, lestllk, nemx, Olethros, randumbum, robertho777, Rosen, SilentNidhogg, stub888, VALERY, varlam4, vasiljev_sergej, Velmi, wreak,
Aug 29 2020, 12:58:48 Oppressive Descent - Tihuta Pass [ep] (2020)


*Artist: Oppressive Descent
*Album: Tihuta Pass [ep]
*Year: 2020
*Genre: Black Metal
*Country: United States
*Format: mp3@CBR320kbps
*Size: 25MB

Tracklist:
1. Tihuta Pass 07:07
2. The Story of Time Below 03:56
******************************
Total playing time: 11:03



[more=Extended info]Metal Archives

Files from Bandcamp[/more]

[more=Technical info]
Input File: 02 - The Story Of Time Below.mp3
Channels : 2
Sample Rate : 44100
Precision : 16-bit
Duration : 00:03:57.00 = 10451656 samples = 17774.9 CDDA sectors
File Size : 9.57M
Bit Rate : 323k
Sample Encoding: MPEG audio (layer I, II or III)
Comments :
Title=The Story Of Time Below
Artist=Oppressive Descent
Album=Tihuta Pass (EP)
Tracknumber=02
Year=2020

[/more]

Register
(20) 1968_janeart, artscald, AwaitingDawn, grimoir, infiltrator, kim666, Ludwig Hagen, nemx, Olethros, randumbum, robertho777, Rosen, SilentNidhogg, stub888, VALERY, varlam4, vasiljev_sergej, Velmi, Wotanwatch, wreak,
Aug 29 2020, 12:52:04 Oppressive Descent - Throne Of Solitude [ep] (2019)


*Artist: Oppressive Descent
*Album: Throne Of Solitude [ep]
*Year: 2019
*Genre: Black Metal
*Country: United States
*Format: mp3@CBR320kbps
*Size: 56MB

Tracklist:
1. Channeling the Cries of the Past 02:42
2. Throne of Solitude 05:09
3. Ghosts in the Chambers of Sorrow 08:22
4. Timeless Monuments 02:20
5. Reawakening a Poisoned Mind 06:13
******************************
Total playing time: 24:46



[more=Extended info]Metal Archives

Files from Bandcamp[/more]

[more=Technical info]
Input File: 01 - Channeling The Cries Of The Past.mp3
Channels : 2
Sample Rate : 44100
Precision : 16-bit
Duration : 00:02:42.55 = 7168279 samples = 12191 CDDA sectors
File Size : 6.57M
Bit Rate : 323k
Sample Encoding: MPEG audio (layer I, II or III)
Comments :
Title=Channeling The Cries Of The Past
Artist=Oppressive Descent
Album=Throne Of Solitude (EP)
Tracknumber=01
Year=2019

[/more]

Register
(18) 1968_janeart, artscald, AwaitingDawn, grimoir, infiltrator, kim666, lestllk, Olethros, randumbum, robertho777, Rosen, SilentNidhogg, stub888, VALERY, varlam4, vasiljev_sergej, Velmi, wreak,
Aug 29 2020, 12:47:45 Oppressive Descent - Death Was The Only Path We Knew (2016)


*Artist: Oppressive Descent
*Album: Death Was The Only Path We Knew
*Year: 2016
*Genre: Black Metal
*Country: United States
*Format: mp3@CBR320kbps
*Size: 76MB

Tracklist:
1. Prologue 03:50
2. As Ashes Fell Pt.1 04:11
3. The Steel Was Met with Grieving Wounds 03:51
4. Onward Towards the Sepulchral Arch 06:48
5. Suicide at a Funeral 11:34
6. As Ashes Fell Pt.2 02:44
******************************
Total playing time: 32:58



[more=Extended info]Metal Archives

Files from Bandcamp[/more]

[more=Technical info]
Input File: 06 - As Ashes Fell Pt. 2.mp3
Channels : 2
Sample Rate : 44100
Precision : 16-bit
Duration : 00:02:46.60 = 7346840 samples = 12494.6 CDDA sectors
File Size : 6.76M
Bit Rate : 325k
Sample Encoding: MPEG audio (layer I, II or III)
Comments :
Title=As Ashes Fell Pt. 2
Artist=Oppressive Descent
Album=Death Was The Only Path We Knew
Tracknumber=06
Year=2016

[/more]

Register
(17) artscald, atavist, dermarsoran, grimoir, infiltrator, kim666, lestllk, Olethros, randumbum, Rosen, SilentNidhogg, stub888, VALERY, varlam4, vasiljev_sergej, Velmi, wreak,
Aug 29 2020, 12:42:38 Oppressive Descent & Sangre De La Luna - Northwest Winds Of Hostility [split] (2020)


*Artist: Oppressive Descent & Sangre De La Luna
*Album: Northwest Winds Of Hostility [split]
*Year: 2020
*Genre: Black Metal | Black Metal
*Country: United States | United States
*Format: mp3@CBR320kbps
*Size: 37MB

Tracklist:
Oppressive Descent:
1. Morbid Wishes For A Putrid World 04:33
2. Deathlands 04:56
Sangre De La Luna:
3. Septicemia 03:29
4. Look What You Left Behind 03:00
******************************
Total playing time: 15:58



[more=Extended info]Oppressive Descent (Metal Archives)
Sangre De La Luna (Metal Archives)

Files from Bandcamp[/more]

[more=Technical info]
Input File: 04 - Sangre De La Luna - Look What You Left Behind.mp3
Channels : 2
Sample Rate : 44100
Precision : 16-bit
Duration : 00:03:00.75 = 7971251 samples = 13556.5 CDDA sectors
File Size : 7.33M
Bit Rate : 324k
Sample Encoding: MPEG audio (layer I, II or III)
Comments :
Title=Sangre De La Luna - Look What You Left Behind
Artist=Oppressive Descent
Album=Northwest Winds Of Hostility (Split Oppressive Descent & Sangre De La Luna)
Tracknumber=04
Year=2020

[/more]

Register
(20) 1968_janeart, artscald, AwaitingDawn, grimoir, infiltrator, kim666, Lanceatum, lestllk, nemx, Pinhead666, randumbum, robertho777, Rosen, SilentNidhogg, stub888, VALERY, varlam4, vasiljev_sergej, Velmi, wreak,
Aug 28 2020, 16:22:20 Macabre Omen - Anamneses [ep] (2020) (1) Gylve,
May 11 2020, 10:07:17 Mørkt Tre - Necrofolk [ep] (2019)


*Artist: Mørkt Tre
*Album: Necrofolk [ep]
*Year: 2019
*Genre: Black Metal
*Country: Ukraine
*Format: mp3@CBR320kbps
*Size: 52MB

Tracklist:
1. Блуд 00:52
2. Порожніми очима 05:55
3. Мертвий космос 06:43
4. Проща 03:17
5. Huta Laura (Furia cover) 05:49
******************************
Total playing time: 22:36



[more=Extended info]Files come from Bandcamp

Encyclopedia Metallum[/more]

[more=Technical info]
Input File: 01 - Блуд.mp3
Channels : 2
Sample Rate : 44100
Precision : 16-bit
Duration : 00:00:52.09 = 2297345 samples = 3907.05 CDDA sectors
File Size : 2.19M
Bit Rate : 337k
Sample Encoding: MPEG audio (layer I, II or III)
Comments :
Title=Блуд
Artist=Mørkt Tre
Album=Necrofolk (EP)
Tracknumber=01
Year=2019

[/more]

Register
(25) 1968_janeart, ahp, Antiscum, Black Cat, cesar, Ildjarn, infiltrator, kim666, lestllk, Ludwig Hagen, Moonshtook, nsk2008, Ostinato, randumbum, Razorbladeswaltz, robertho777, Rosen, SilentNidhogg, technoboy69, terron, VALERY, varlam4, vasiljev_sergej, wreak, yuratroll,
Apr 25 2020, 17:06:44 Árstíðir Lífsins & Carpe Noctem - Aldrnari [split] (2020)


*Artist: Árstíðir Lífsins & Carpe Noctem
*Album: Aldrnari [split]
*Year: 2020
*Genre: Black Metal | Black Metal
*Country: Iceland | Iceland
*Format: mp3@CBR320kbps
*Size: 103MB

Tracklist:
Árstíðir Lífsins:
1. Hvers Viðar Bani 22:53
Carpe Noctem:
2. Hrækyndill 22:33
******************************
Total playing time: 45:26


Youtube - Carpe Noctem



[more=Extended info]Audio files from Bandcamp

https://www.metal-archives.com/bands/%C3%81...sins/3540315587

If you like it, buy it : https://van-records.com/navi.php?qs=Aldrnari[/more]

[more=Technical info]
Input File: 02 - Carpe Noctem - Hrækyndill.mp3
Channels : 2
Sample Rate : 44100
Precision : 16-bit
Duration : 00:22:34.14 = 59717354 samples = 101560 CDDA sectors
File Size : 54.2M
Bit Rate : 320k
Sample Encoding: MPEG audio (layer I, II or III)
Comments :
Title=Carpe Noctem - Hrækyndill
Artist=Árstíðir Lífsins
Album=Aldrnari (Split Árstíðir Lífsins & Carpe Noctem)
Tracknumber=02
Year=2020

[/more]

Register
(60) 1968_janeart, AHBAnep, ahp, alikkon, andivi, Antichrist, Astralgeist, Black Cat, Boozer, cancer1974, CultMetalSerge, Cyrci, dermarsoran, Dirt_ORFEY, Doooomed, Druidir, ENDSMOUTH, ent404, gena, Hell_Is_Here, igore2911, Infidel, infiltrator, Irimias, kauyumari, khestanow3001, kim666, kryptor, Lamby90, Lanceatum, lestllk, LordOvDarkness, Lux, Mortuusinfernus, multizwilling, murian, nadin85, Narasimha, nemx, Oath19, Old Vyaine, peppuzzo, randumbum, Rikardo90, robertho777, Rosen, SilentNidhogg, smes, smysl, stub888, TheLuringDepths, VALERY, varg-38ru, varlam4, vasiljev_sergej, vovenom, yuratroll, ZambuL, Zenial, Авел,
Mar 26 2020, 18:52:31 Igorrr - Spirituality And Distortion (2020)
QUOTE(vosmidesijatye @ Mar 25 2020, 20:50:54) *
Fuck spectrum.

Is the album good?


Yes I think it is, lots of different atmospheres in this one ! smile1.gif
About the uploaded version, this is the free download from Bandcamp I got when buying the vinyl. So this is not an upscale from a 128kbps...
If you want another version from Bandcamp, just ask.
(3) babanguida, infiltrator, MetalAreola,
Mar 25 2020, 18:01:11 Thy Dying Light - Thy Dying Light (2020)
One day maybe he'll release an album with only new songs smile4.gif
(1) Occultas,
Mar 24 2020, 19:21:36 Igorrr - Spirituality And Distortion (2020)


*Artist: Igorrr
*Album: Spirituality And Distortion
*Year: 2020
*Genre: Experimental Metal/Breakcore/Neoclassical
*Country: France
*Format: mp3@CBR320kbps
*Size: 128MB

Tracklist:
1. Downgrade Desert 4:24
2. Nervous Waltz 3:23
3. Very Noise 01:47
4. Hollow Tree 3:07
5. Camel Dancefloor 3:13
6. Parpaing 03:37
7. Musette Maximum 2:19
8. Himalaya Massive Ritual 7:06
9. Lost In Introspection 4:57
10. Overweight Poesy 5:50
11. Paranoid Bulldozer Italiano 3:48
12. Barocco Satani 3:36
13. Polyphonic Rust 4:17
14. Kung-Fu Chèvre 4:14
******************************
Total playing time: 55:38




[more=Extended info]Official Website
Merchandising[/more]

[more=Technical info]
Input File: 03 - Very Noise.mp3
Channels : 2
Sample Rate : 44100
Precision : 16-bit
Duration : 00:01:47.22 = 4728182 samples = 8041.13 CDDA sectors
File Size : 4.46M
Bit Rate : 333k
Sample Encoding: MPEG audio (layer I, II or III)
Comments :
Title=Very Noise
Artist=Igorrr
Album=Spirituality And Distortion
Tracknumber=03
Year=2020

[/more]

Register
(57) 6666666, andgrek28, as71, babanguida, Black Cat, BlackTroll, Bloodn Lord, boby9052, Boozer, Branis, Dark Sage, Deada, deadwater, djsema4, Druidir, exorcist1969, Femto, garml2, gena, gwar, Hell_Is_Here, Indamage, Infidel, infiltrator, insufferable, John Beak, judaz, K-61082, kendo, kimkayoung, Lord_Hip, menofiliomano, Metalass, metaljosue, morve, nadin85, Nata, nemx, Old Vyaine, Olethros, ondrazevsi, Ostinato, Panacea, Phlebotomized, plfan93, popen13, Relicario, sludge666, trabantfan, Tular, VALERY, Xor, xska, yuratroll, Герб, дивин, Нигилист,
Mar 7 2020, 15:52:40 Pure Wrath - The Forlorn Soldier [ep] (2020)
(1) randumbum,

6 Pages V   1 2 3 > » 
- Lo-Fi Version Support form
Copyrights and abuse reports form
Time is now: 17th August 2022 - 05:40:28