Welcome Guest ( Log In | Register )

История благодарностей участнику scrollbar ::: Спасибо сказали: 1185 раз(а)
Дата поста: В теме: За сообщение: Спасибо сказали:
Apr 9 2022, 18:46:06 Nunca Más - Fuego En Mi (2002)


*Artist: Nunca Más
*Album: Fuego En Mi
*Year: 2002
*Genre: Metalcore
*Country: Mexico
*Format: mp3@CBR320kbps
*Size: 52MB

Tracklist:
1. Sin verdad 03:22
2. Sacrificame 03:40
3. Inconsciente 04:08
4. Enterrado vivo 03:11
5. Convicciones 02:56
6. Enfrentar 02:46
7. Fuego en mi 02:32
******************************
Total playing time: 22:35



[more=Extended info]олдскульные мощи[/more]

[more=Technical info]
Input File: Nunca Más - Enterrado vivo.mp3
Channels : 2
Sample Rate : 44100
Precision : 16-bit
Duration : 00:03:11.14 = 8429318 samples = 14335.6 CDDA sectors
File Size : 7.65M
Bit Rate : 320k
Sample Encoding: MPEG audio (layer I, II or III)

[/more]

Register
(1) Olethros,
Jan 15 2022, 21:23:53 Knife Spitter - Nocturne (2021)


*Artist: Knife Spitter
*Album: Nocturne
*Year: 2021
*Genre: Metalcore
*Country: United Kingdom
*Format: mp3@CBR320kbps
*Size: 79MB

Tracklist:
1.Mdcxcii 01:35
2.Forsaken 02:35
3.Rituals at Night 03:37
4.Alone. 02:10
5.Cøven 03:21
6.3:6 01:27
7.Forbidden Names 01:23
8.Mark Ov the Goat 03:02
9.By Blood 02:39
10.Incantation 01:30
11.Nocturne 10:09
******************************
Total playing time: 33:28

[more=Extended info]Хорошо
[youtube]lKQ5pc2e4qU[/youtube][/more]

[more=Technical info]
Input File: 05-knife_spitter-coven.mp3
Channels : 2
Sample Rate : 44100
Precision : 16-bit
Duration : 00:03:21.60 = 8890604 samples = 15120.1 CDDA sectors
File Size : 8.25M
Bit Rate : 327k
Sample Encoding: MPEG audio (layer I, II or III)
Comments :
Title=Cøven
Artist=Knife Spitter
Album=Nocturne
Tracknumber=5/11
Year=2021-11-26
Genre=Hardcore

[/more]

Register
(8) artscald, caro, chipsgott, csgmnk, Marek, Olethros, Ostinato, wreak,
Jan 15 2022, 20:27:52 Roflen - [序ノ一]1St Demo [demo] (2021)


*Artist: Roflen
*Album: [序ノ一]1St Demo [demo]
*Year: 2021
*Genre: Metalcore
*Country: Japan
*Format: mp3@CBR160kbps
*Size: 10MB

Tracklist:
1.Get Up, Stand Up 01:46
2.美しき世界へ 01:54
3.Everlight 04:37
******************************
Total playing time: 8:17

[more=Extended info]Хорошо[/more]

[more=Technical info]
Input File: 02 美しき世界へ.mp3
Channels : 2
Sample Rate : 44100
Precision : 16-bit
Duration : 00:01:54.59 = 5053463 samples = 8594.32 CDDA sectors
File Size : 2.35M
Bit Rate : 164k
Sample Encoding: MPEG audio (layer I, II or III)
Comments :
Title=美しき世界へ
Artist=Roflen
Album=[序ノ一]1st Demo
Tracknumber=2
Year=2021

[/more]

Register
(1) Olethros,
Oct 18 2021, 15:43:43 Asschapel - Total Worship [EP] (2001)
REUP
from web
ЦИТАТА(IronMan @ 6th November 2009 - 00:22:56) *
Совершенные психи.
Обращает на себя внимание довольно необычно звучащий своей атональностью "тревожно-напряжённый" фон. Из-за чего что-то не припомню так сразу похожих по звучанию групп

Полно похожих. Обычный старый металкор. Качественный
(1) Wail,
Apr 29 2021, 18:18:19 Red Means No Mercy - Motheater (2021)


*Artist: Red Means No Mercy
*Album: Motheater
*Year: 2021
*Genre: Deathcore
*Country: Germany
*Format: mp3@CBR320kbps
*Size: 91MB

Tracklist:
1.Scarmend 02:18
2.Spiegelkratzer 01:56
3.Crippled and Pinned Down 03:02
4.Sacrilege (ft. Harvest Their Bodies, Kuma) 03:22
5.Pain (ft. Repressed) 01:31
6.Gatewatcher (ft. Alan Grnja of Distant) 03:23
7.Pestilentia Hominae 03:36
8.Heresy 03:17
9.Rotting Elysium (ft. Exorcised Gods) 03:07
10.Explanation of Inhuman Acts 02:40
11.Motheater 03:52
12.Depths of Me 04:12
******************************
Total playing time: 36:16



[more=Technical info]
Input File: Red Means No Mercy - Motheater - 08 Heresy.mp3
Channels : 2
Sample Rate : 44100
Precision : 16-bit
Duration : 00:03:17.94 = 8729154 samples = 14845.5 CDDA sectors
File Size : 8.17M
Bit Rate : 330k
Sample Encoding: MPEG audio (layer I, II or III)
Comments :
Title=Heresy
Artist=Red Means No Mercy
Album=Motheater
Tracknumber=8
Year=2021

[/more]

Register
(10) 6666666, Bloodn Lord, infiltrator, infozahist, Lukittaz, Marek, Olethros, Ostinato, Wail, wreak,
Mar 6 2021, 09:29:14 Лучший советчик МА - НАЙС СТАТИСТИКА
конечно исправляй. Хотел бы 0 поставить - поставил бы 0. Ты ж меня знаешь
Еще радует, что не один стиль без защитничков не остался
(1) Deze,
Feb 9 2021, 16:43:32 Covid-19 - We All Die (2020)
ЦИТАТА(troll1980 @ Feb 9 2021, 17:17:13) *
Извините за то, что не по теме немного! Не связывайтесь с создателем данного чудесного проекта по нижеследующим причинам.
А создатель сего проекта не хочет поведать форумчанам как он взял деньги за мифический винил и компакт диски и ничего не отправил и деньги вернул только половину! причем деньги взял в апреле 2020 а половину и вернул только в январе. А все это время прикрывался тем, что он то выслал, то забыл, то на другой адрес ошибочно отправил, то диски не у него а у мифического лейбла лежат. К то му же он умудрился выставить на bandcamp физические копии своих творений, которых в реале не существует. 22.gif Для всех желающих в личку готов предоставить скрины переписки с этим псевдоиздателем своей музыки...


Яблоко от яблони (то бишь говноальбом от говночеловечишки) недалеко упало
(1) Foneg,
Jan 18 2021, 16:04:27 Лучший советчик МА - Часть 13 (Солянка) - Тур 2, Рейтингование
ну в общем, пустили прог-козла в огород: половина тура "неожиданно" оказалaсь им обмазанa.
(4) Alexis The Best, infiltrator, Thiarnan, Tular,
Jan 8 2021, 17:06:43 Лучший советчик МА - Часть 13 (Солянка) - Тур 2, Рейтингование
Deze, и тебя с праздниками. Желаю тебе еще интересных и оригинальных голосовалок вроде этой, а не унылоту с лучшими альбомами по годам.

ЦИТАТА(mirotvorets @ 7th January 2021 - 23:20:42) *
Вот и мне этот тур показался филиалом проговой части.

Никогда такого не было, и..

Итак, сначала показалось, что этот тур будет лучшим для меня по количеству положительных оценок. К счастью, я все ненули, как водится, переслушивал, по итогам чего большая половина из них превратилась в нули


Стоунер:
Dunsmuir - Dunsmuir  0
Mammothwing - Morning Light 0
Spaceking - The Piper At The Gates Of Stone  0
Speedblow - Fields Of Doom  0
Stangala - Klañv  0
The Hedons - Tomb Of Stars 0
Vodun - Possession  0


Сладж:
Brainoil - Brainoil  0

Endorphins - Where Evil Lies 1 - просто неплохой бодрячок. Этих, а также Shemales From Outta Space Of Death и правда можно было объединить в кор с Анной пест, чтоб ей одной обидно не было.

Hebosagil - Colossal  1 - мрак с нойзовым звуком трудно испортить до нуля, но только за счет этого понравиться тоже тяжеловато

Legalize Crime - Beat The Law 0
Mur - Brutalism  0


Индастриал:
Beyond - Reassemble  0
Burlak - Burlak 0
Dead World - The Machine  0
Ewigkeit - Conspiritus  0
Oozepus ‎- Your Limit (EP)  0
The Cyan Velvet Project - The Towers And The Blizzard  0


Грув:
Crucible - Scars Of The Hardened  0
Gack - Fix  0


Дроун:
Black Boned Angel - The End  2 - не для частого прослушивания такая музыка, но если уж включаю, то получаю удовольствие. В первой половине хороши гитары (это ведь они?), изображающие заунывный рев чудища. Жаль , что во второй половине перестали этим злоупотреблять, но и так норм

Planet AIDS - Apokalyptik AIDS (EP)  0


Металкор:
Anna Pest - The Ocean Calls Me Home (EP)  0


Мат-метал:
Buzzard - Churp!!!  0
Journal - Unlorja  0 - а когда-то тоже любил..


Мутный прог:
[youtube]KKWoF7LcAFA[/youtube]
Ages Gone - Ages Gone  0
Amogh Symphony - The Quantum Hack Code  0
Azure Emote - The Gravity of Impermanence 0
Braindance - Redemption  0
Depressive Age - Electric Scum  0
Gardenjia - Arkestral 0
Kognitiv Tod - Howls From The Void 0
Korovakill - Waterhells  0

No Made Sense - The Epillanic Choragi  1 - оставил Milachis Depths, остальное тоже небезнадежно, но и не двойка

öOoOoOoOoOo - Samen  0


Something Wild:
Neptunian Maximalism - Éons  0

Servants Of The Apocalyptic Goat Rave - Queen Of Darkness  1 - брэйкбитом тоже трудно мрачную кашу испортить

Shemales From Outta Space Of Death - Das Virus Ist Der Fetisch  0 - такое безбожное подражание we butter the bread with butter (страна, стебность, тип электроники и брейков), что аж мне стыдно. Не помогло. Может это даже их сайд-проект, в таком случае это пустая трата времени
Umbah - Enter The Dagobah Core 0

(3) infiltrator, Thiarnan, Un4given,
Dec 28 2020, 21:43:33 Лучший советчик МА - Часть 13 (Солянка) - Тур 2, Рейтингование
ЦИТАТА(FunZombie @ 29th December 2020 - 02:17:13) *
Ни хрена подобного, ты многократно во многих темах упоминал меня и мою "япономанию". Накипело!

Врешь. не многократно и не во многих.
ЦИТАТА(FunZombie @ 29th December 2020 - 02:02:42) *
Zigoku Quartet и Yuzukingdom одинаковыми, нужно либо быть глухим,

Врешь. Эти две точно похожи японистостью своей. К сожалению, я помню
ЦИТАТА(FunZombie @ 29th December 2020 - 02:17:13) *
я не собираюсь не отвечать на эти тупые реплики лишь для того, чтобы доказать тебе, что могу это

Врешь. не можешь
И ты должен отвечать на любые реплики, втч на эту, нравится тебе или нет, Изаура. Потому что я так сказал
ЦИТАТА(FunZombie @ 29th December 2020 - 02:26:36) *
Предвосхищая тупую ответную реакцию: нет, я не о себе.

Врешь
ЦИТАТА(FunZombie @ 29th December 2020 - 02:26:36) *
Deze, ты понимаешь, что мне по*уй?

Врешь
(4) 6666666, Deze, infiltrator, plfan93,
Dec 28 2020, 21:11:13 Лучший советчик МА - Часть 13 (Солянка) - Тур 2, Рейтингование
а я всего лишь мимоходом упомянул твое сузуки. Два словечка-то было
Интересно, а что случится с миром, если ты не ответишь хоть на одно сообщение, где упомянута частичка тебя?,

Вопрос риторический, можешь не отвечать... а нет, не можешь
(8) 6666666, Deze, Exorcist, hammer, infiltrator, Penetralia, plfan93, Tular,
Dec 28 2020, 20:12:52 Лучший советчик МА - Часть 13 (Солянка) - Тур 2, Рейтингование
FunZombie, душный ты. Сузуки я по созвучию назвал именно твой мдмсовет т.к его название точно не помнил, ибо нафиг надо. По поводу одинаковости твоих японосоветов я на этот раз молчал, но ты все равно в ответ постелил несвежую простынь. И как обычно сделал вид, что тут не любят всё японское, хотя я и другие приводили тебе "нормальные" японские группы без (если выражаться сильно политкорректно) излишнего национального колорита. Но от таких японцев ты как раз и плюешься , верно? Изюминок жы там нету 15.gif

Тоже поддержу челлендж с перечислением стран своих советов:

США
Англия
США
Голландия
-----
Германия
Канада
Франция
Мексика (явно индейская причем)
Швеция
-----
Кипр
Испания



(3) 6666666, infiltrator, plfan93,
Dec 28 2020, 18:11:21 Лучший советчик МА - Часть 13 (Солянка) - Тур 2, Рейтингование
ЦИТАТА(Deze @ 28th December 2020 - 16:56:59) *
как не заострял внимание не первых советах Скроллбара (тоже выданных с целью издевательства)

такс, хотел спасибнуть, а тут вот это. Ты уже поднимал эту тему, и я тогда объяснил, что все советы. которые я давал, в основном тройки для меня. Или как минимум хилая двойка для стиля, который я не люблю и не знаю (в думе). Какие еще вопросы?
Фанзомби любит свои сузуки, a мне нравятся советуемые альбомы Empty Tomb и Cyst, вот прям до троек.
А так поддерживаю тебя в данном вопросе. И раз подписали по стилям. то можно было бы подписать, какой из советов был дан не из желания поделиться чем-то недооцененным. а из соображений убогой петросятины
(3) Deze, infiltrator, Tular,
Dec 7 2020, 16:33:56 Лучший советчик МА - Часть 12 (МДМ) - Тур 2, Рейтингование
ЦИТАТА(Deze @ 7th December 2020 - 21:26:34) *
- сладж-метала (который без дума)

и без поста, который уже был genius.gif а то понасуют..
грувмет не забыл?
(2) Deze, infiltrator,
Nov 29 2020, 14:26:18 Лучший советчик МА - Часть 12 (МДМ) - Тур 2, Рейтингование
Обе двойки, что я выставил - строго говоря, полуторки, ну да ладно. Раннее неизвестны


A Canorous Quintet - Silence of the World Beyond  1 -
один из первых прослушанных мдм-альбомов. На момент знакомства оценка почти 3, сейчас почти 0, спас только синдром утенка

A Soul Called Perdition - Into The Formless Dawn  0
An Abstract Illusion - Illuminate The Path  0
Auberon - The Tale Of Black  0

Aurora - Eos  2 -
удивился, что альбом аж 1998 года. Похоже на смесь поц-метала с МДМ. Многослойно, полифонично и оригинально, на последующем творчестве со всем этим проблемы.

Autumn Leaves - As Night Conquers Day  0
Blood Rainbow - Upheaval  0

Bloodshot Dawn - Demons  0 -
Этот альбом запомнился в свое время отчасти из-за обложки, отчасти от того, что вырубил в ужасе превью аж на 10-15 секунд позже обычного, благодаря некому напорчику. Думал, тут точно единичка будет, оказался точно 0. Приз за самую длинную мою рецензию на 0-альбом

Brotthogg - Echoes of the Past  0

Compos Mentis - Fragments Of A Withered Dream  1 -
оставил трек "the prophecy"

Crown of Autumn - Treasures Arcane  0

Dark Oath - When Fire Engulfs The Earth  2 -
Длинновато, но затянуло, примерно как это было с The red widows в дум-голосне, разве что послабже. Вокал хороший, надрывный. Как и в случае с Aurora, для оценки "1" слишком много треков зашло

Deathless - The Time To Be Immortal  0
Decameron - My Shadow  0
Dies Irae - Naïve  0
Dispatched - Terrorizer  0
Dulcamara - Anatómicamente Imperfecto 0
Ebony Tears - Tortura Insomniae  0
Ego Fall - Inner M  0
Garden Of Shadows - Oracle Moon  0
Gathering of Obscurity - The Pain of Humiliation 0

Invisius - The Spawn of Condemnation  0 -
кор не спас от нуля. А ведь тоже нравились раньше альбомы группы, этот и 2012..

Lothlorien - The Primal Event  0
Lucis Absentia - Gehenna Gate  0
Malefactor - Centurian  0
Malevolence - Martyrialized  0

Midvinter - At the Sight of the Apocalypse Dragon  1 -
оставил трек "All Things to End Are Made". Вообще такой себе формат, местами трублацк проскакивает

Mourning Caress - Imbalance 0

Orpheus - So It Begins... (EP) 1 -
местами душевно

Sacrilege - Lost In The Beauty You Slay    1 -
местами душевно (2) и плотненько

Searing Meadow - Corroding From Inside  0
Serenity In Murder - The Eclipse  0

Sinira - The Everlorn  1 -
случай, обратный Aurora - здесь я наоборот думал, что альбом более, чем на 20 лет старше, чем он есть. Не буду поклонником группы. но респект за успешно переданную атмосферу тогдашнего блэка. Тоже так себе формат

Templestowe - Cimmerian  0
The Wake - Ode To My Misery  0
Unmoored - Indefinite Soul-Extension  0
Withering Surface - Scarlet Silhouettes  0
Yuzukingdom - Dadaism  0
(6) Daale, Deze, Emm Human, infiltrator, mirotvorets, Old Vyaine,
Nov 16 2020, 13:07:12 Лучший советчик МА - Часть 12 (МДМ) - Тур 2, Рейтингование
ЦИТАТА(Arseniy @ 16th November 2020 - 12:35:06) *
Благо в его случае всё просто: третьесорт и точка.

Ну и что, тут в одном туре кто-то (нет, это был не я) абсолютно всем советам поставил оценку нуль, т.е третьесорт, так что пусть себе Дениска третьесортит. К тому же, как минимум Mourning Caress - Imbalance у него уже не третьесорт
ЦИТАТА(DenisKov @ 16th November 2020 - 15:22:27) *
Отлично. Но слушать 30 ноунеймов, нет желания как и лупить им 0 наотмашь, голосовалки дело такое конечно

Если полностью альбомы слушать мочи нет - вон предусмотрен попыр-режим. Даже можно скачать для последующего shift+del. Все условия для тебя созданы.
На портале многие в комментах к твоим комментам спрашивали тебя, какой альбом ты считаешь нетретьесортным, если почти все для тебя третьесорт. Вот и посоветуй этот альбом при условии, что у группы, написавшей его, меньше 10000 на last.fm.
Deze ради такого случая даже в виде сиключения примет твой совет с опозданием (все равно ведь правила формально нарушены, т.к ждем опоздавшего Язву). Да, ДоброДез?
(3) 6666666, infiltrator, plfan93,
Nov 11 2020, 15:37:53 Лучший советчик МА - Часть 12 (МДМ) - Тур 1, Общий сбор
ЦИТАТА(Deze @ 11th November 2020 - 13:55:16) *
Quinta Essentia - Archetypal Transformation

так надо было на входе проверить этот совет. ясно же было, что Язва технодет попытается присунуть)
ЦИТАТА(scrollbar @ 9th November 2020 - 21:49:28) *
Пощел я дальше в закромах рыться

и ведь нарыл же. Вот она, вот она - на xyю намотана:
Khrysaor - Chaos (2015)
[youtube]G0uRRhyMft8[/youtube]
И ведь не вспомнил бы про них, если б не этот тур. Так что можно засчитать мне ОЦС от себя же
Настроем симфы немного смахивают на Miquian, которых я в павере советовал, но тут без павера и без кора, как по заказу.
Сейчас поменяли название на Tartarum. У них еще есть епишка 2019 года неплохая и с соблазнительным хронометражом на грани (20:03). Но этот полноформат лучше
(2) infiltrator, скептик,
Nov 9 2020, 16:49:28 Лучший советчик МА - Часть 12 (МДМ) - Тур 1, Общий сбор
ЦИТАТА(Deze @ 8th November 2020 - 18:13:48) *
FunZombie,
опять хрен знает что, куча альтернативы и какого-то японского попа, но ВРОДЕ бы мелодэт в основе. Засчитываю.

Дез, ну может нинада принимать это в советы, может там альт/модернмет/металкор/что угодно кроме мдм?
Зомби, ты в прошлом туре говорил, что каждый раз в советы подбираешь "что-то этакое", чтоб ух как нас всех удивить!! Но все знают, что именно ты посоветуешь и как оно будет звучать (японочно и с айдло-вокалами), не получается у тебя удивить нас

И,как я уже сказал, строго у вас тут. Я нравящийся некоровый мдм и вспомнить-то не могу (даже тот, что раньше нравился уже не прет) Пощел я дальше в закромах рыться
(5) Deze, infiltrator, plfan93, Tular, Un4given,
Oct 26 2020, 13:55:43 Лучший советчик МА - Часть 11 (Готик) - Тур 2, Рейтингование
ЦИТАТА(FunZombie @ 21st October 2020 - 15:15:07) *
Эх, металлисты-традиционалисты-консерваторы, ищешь-ищешь для вас что-нить эдакое... Находишь, радуешься, - "Вот поделюсь щас!", - и потом читаешь, что как раз те эксперименты, которые считал фичей, вы называете багом

Ну ты можешь провести эксперимент - посоветовать в оставшихся турах неэкспериментальные альбомы, а не виляющие словно какой-то японометал между границами разных стилей 1488.gif
ЦИТАТА(Deze @ 25th October 2020 - 22:32:11) *
UPD. Не был бы, 20К на Ласте) Расходимся, пацаны.

Тоже, кстати, Dark хотел просунуть, но посмотрел ластфм и "разошелся"

_______________________________________________________________

Antichrisis - Cantara Anachoreta  0
Autumnblaze - DämmerElbenTragödie  0
Beyon-D-Lusion - Intuispection 0
Con Anima - The Book Of Riddles  0
Dawn Of Dreams - Amber  0
Decoryah - Wisdom Floats  0
Diathra - My Endless Sorrow  0
Dies Irae - Etherial  (переиздание 2019 года, когда они ноль получили) 0
Elegeion - Through The Eyes Of Regret 0
Elizium - Relief By The Sun  0

Eterne - Deadauthor  1 -
хотя бы риффачки четкие

Havayoth (Ancient Wisdom-side) - His Creation Reversed  0
Hefeystos - Psycho Café   0
Interitus Dei - Unholy  0

Light Of The Morning Star ‎- Nocta 2 -
угадали мелодию, что называется. Но без хитов. ОЦС впервые со времен хэви, епт

Little Dead Bertha - Two Sides  0
Maelström - Maelstrom 0
Mordor - The Earth  0
Myriads - In Spheres Without Time  0
Myriads - Introspection  0

Nefilim (Fields Of The Nephilim-side) - Zoon  1 -
в начале преимущественно ангеровский индастриалмет, но не стоило потом так резко скатываться в медляки

Öxxö Xööx - Rëvëürt  0 - необычный нулёк, авангардный, возвышенный
Painted Black - Cold Comfort  0

Regardless Of Me - The World Within 1 -
очень понравился кавер на мадонну с хорошо жужжащими гитарками, но он не отсюда. Слегка попырил остальное творчество: там тоже порой жужжат. Кроме этого ничего не зацепило, ничего не скачал, но для нуля слишком много времени в целом на эту группу затратил

Savn - Savn  0
Sundown (Cemetary-side) - Design 19  0
The Equinox Ov Gods - Fruits And Flowers Of The Spectral Garden  0
The Provenance - How Would You Like to Be Spat At  0
To Cast A Shadow - All Alone  0
(3) acerbus, infiltrator, Old Vyaine,
Oct 17 2020, 16:28:49 Xedenisgonex - Scattering Of My Malice [ep] (2020)


*Artist: xEdenIsGonex
*Album: Scattering Of My Malice [ep]
*Year: 2020
*Genre: Metalcore
*Country: Unknown
*Format: mp3@CBR320kbps
*Size: 49MB

Tracklist:
1. Punishment 04:39
2. Countless 03:01
3. Decontamination 04:02
4. Tisiphone 04:16
5. Annihilating Your Peace 05:24
******************************
Total playing time: 21:22



[more=Extended info]хороший альбом[/more]

[more=Technical info]
Input File: Eden Is Gone - Decontamination.mp3
Channels : 2
Sample Rate : 44100
Precision : 16-bit
Duration : 00:04:02.90 = 10711846 samples = 18217.4 CDDA sectors
File Size : 9.72M
Bit Rate : 320k
Sample Encoding: MPEG audio (layer I, II or III)

[/more]

Register
(10) chipsgott, gwar, infiltrator, Lukittaz, METALHUNTER, Olethros, Ostinato, Rosen, varlam4, wreak,
Oct 13 2020, 11:50:01 Lupus - Caníbales (2020)


*Artist: Lupus
*Album: Caníbales
*Year: 2020
*Genre: Modern Metal
*Country: Chile
*Format: mp3@CBR320kbps
*Size: 96MB

Tracklist:
1. Go! 3:59
2. Fuego 4:16
3. Corre 2:59
4. Héroe 3:54
5. Caníbales 4:03
6. Iluminación 4:09
7. Inestable 3:37
8. Palabras Negras 4:35
9. Tus Manos 3:58
10. Lacuna 4:09
******************************
Total playing time: 39:39

Preview 1

[more=Extended info]муза для качалки[/more]

[more=Technical info]
Input File: 01 Go!.mp3
Channels : 2
Sample Rate : 44100
Precision : 16-bit
Duration : 00:00:00.24 = 10584 samples = 18 CDDA sectors
File Size : 10.1M
Bit Rate : 336M
Sample Encoding: MPEG audio (layer I, II or III)
Comments :
Title=Go!
Artist=Lupus
Album=Caníbales
Tracknumber=1/10
Year=2020-20-20
Genre=Metal
Discnumber=1/1

[/more]

Register
(3) gwar, infiltrator, Olethros,
Sep 19 2020, 22:16:44 Лучший советчик МА - Часть 10 (Умнодэт) - Тур 2, Рейтингование
ЦИТАТА(Alexis The Best @ 17th September 2020 - 17:32:44) *
там, где на самом деле круто, у тебя нули

Внезапно соглашусь crazy.gif Добродез насовал нулей в основном там, где я раздобрился
ЦИТАТА(Deze @ Sep 17 2020, 15:50:05) *
scrollbar, когда не валяет дурака, способен давать очень годные советы.

но-но,я раздаю советы с серьезным лицом 23.gif Больше половины из них сам оцениваю на 3. НО главное:

Absorbed - Reverie  0

Alterbeast - Immortal  1 -
все старательно делают вид, что тут нет деткора, а я, между прочим, за это больше нуля поставил

Angel Of Disease - Hypercube   0

Anomalous - Ohmnivalent  1 -
а дебютник даже два. А вообще не особо формат

Blood Dress - Beyond The Flesh  0
Burning Inside - The Eve Of The Entities  0
Carbonized - Disharmonization  0
Creepmime - Chiaroscuro  0
De Profundis - The Blinding Light of Faith  0
Deviant Process - Paroxysm  0
Disaffected - Vast  0
Disembarkation - Rancorous Observision  0
Disentomb - The Decaying Light  0
Dungortheb - Intended to…  0
Essence of Datum - Event Horizon  0
Exocrine - Molten Giant  0
Gigan - Quasi-Hallucinogenic Sonic Landscapes  0

Hadal Maw - Senium  1 -
если б было поболе таких гитарных упражнений как в начале альбома, то была б двоечка

Haunter - Sacramental Death Qualia  0
Hellwitch - Syzygial Miscreancy  0

Meatus - Inner Demons (A 3 Act Noise Opera)  0 -
даже в этом туре без мазафаки не обошлось, но опять от нуля совет не спасла

Naughty Nation - Cosmic Equity  0
Neglected Fields - Mephisto Lettonica 0

Orphalis - The Approaching Darkness  1 -
тупая современная колотушка 9.gif

Phantasmagory - Anamorphosis of Dreams  0
Posthumous Blasphemer - Fracture The Worship  0
Pronostic - An Atomic Decision  0
Proteus - Personal Narrative of Cognitive Dreamscapes 0
Scent Of Death - Of Martyrs's Agony And Hate  0
Strangulation - Between Nothing And Eternity 0
Succubus - Destiny  0
Supuration - The Cube  0
Threnody - Bewildering Thoughts  0
Traumatic Voyage - Traumatic…  0
Ulsect - Ulsect  0
Vale of Miscreation - Emergence Within The Corridor Of Unholy Lacerations  0
Vielikan - A Trapped Way For Wisdom  0
Virvum - Illuminance  0

Vörnagar - The Bleeding Holocaust  1 -
драйвовенько на раз прогнать

Wicked Innocence - Omnipotence  0
Wormhole - The Weakest Among Us  0
(4) Deze, FunZombie, infiltrator, Thiarnan,
Aug 14 2020, 19:47:16 Лучший советчик МА - Часть 9 (Пауэр) - Итоги
ближайший к вершине совет (не считая моего собственного), которому я влепил больше нуля, занял аж 15 место. Вечный рекорд дет-части побит
(2) 6666666, Deze,
Aug 7 2020, 19:00:00 Лучший советчик МА - Часть 10 (Умнодэт) - Тур 1, Общий сбор
ЦИТАТА(Nemez @ 5th August 2020 - 14:00:11) *
люди (ок, часть) всё равно получат весь список, прослушают до сентября и уже будут готовы в сентябрь предъявить оценки

святая наивность. Даже без учета перерыва тур превзойдет даже неоконченный пауэр по длительности, полностью оценки выставят в ноябре или под конец октября. Скриньте
(2) infiltrator, Thiarnan,
Jul 24 2020, 20:18:59 Лучший советчик МА - Часть 10 (Умнодэт) - Тур 1, Общий сбор
Deze, но зачем-то вынес упоминание в шапку, смутив меня легкими надеждами


UPD

Quest of Aidance - Misanthropic Propaganda (2013)
(2) infiltrator, Язва,

20 Pages V   1 2 3 > » 
- Lo-Fi Version Support form
Copyrights and abuse reports form
Time is now: 3rd July 2022 - 19:30:33