Welcome Guest ( Log In | Register )

История благодарностей участнику BrutalMan ::: Спасибо сказали: 652 раз(а)
Дата поста: В теме: За сообщение: Спасибо сказали:
Sep 10 2018, 07:33:33 Mystifier - Wicca (1992)
Mediafire link is Ok!
(1) obituarydark,
Aug 16 2018, 08:09:24 Carrioned - Hymns For The Deteriorotting [best of/compilation] (2004)
Thanks dude!
(1) thenecromancer,
Dec 9 2015, 01:57:22 Sarkrista & Sad - Fury Of The Doomsday Apostles [split] (2015)
One of the best splits in the legacy of SAD!!! true_black.gif
(1) DarkHorde,
Dec 10 2012, 05:11:17 Coprocephalic - Gluttonous Chunks (2012)


*Artist: Coprocephalic
*Album: Gluttonous Chunks
*Year: 2012
*Genre: Brutal Death Metal
*Country: United States
*Format: mp3@CBR128kbps
*Size: 64MB

Tracklist:
01. Intro (The Nemesis Uprising) 00:56
02. Severe Contamination 02:14
03. Gluttonous Chunks 02:04
04. Inhuman Nerousis 03:28
05. Injected With Violent Supremacy 04:47
06. Pavement Of A Thousand Torsos 02:01
07. Pulses In Rhombus Forms (Wormed Cover) 02:56
08. Scourging The Obese 02:38
09. Concrete Exhumation 02:52
10. Embryonal Coagulated Genesis 02:43
******************************
Total playing time: 26:39

Register
(10) Analien, Elfrey, jollo, logunarm, MeathookSeed, northerking, Spermadozator, Styx, varlam4, warrior69,
Nov 22 2012, 06:08:00 Various Artists - Quijotizmo (Tributo A Brujeria) [tribute] (2012)


*Artist: Various Artists
*Album: Quijotizmo (Tributo A Brujeria) [tribute]
*Year: 2012
*Genre: Death Metal/Grindcore
*Country: Spain
*Format: mp3@VBR192kbps
*Size: 55MB

Tracklist:
01. Intro Fantasmal 01:06
02. Haemorrhage - Seis Seis Seis 01:19
03. Tu Carne - Sacrificio 01:14
04. Final Cunt - Santa Lucia 00:24
05. Mixomatosis - Grito De Los Soldados Poseidos 00:46
06. El Kaso Urkijo - Cristo De La Roca 01:25
07. Altar Of Giallo - Leyes Narcos 01:15
08. Gruesome Stuff Relish - Matando Güeros 02:58
09. Moñigo - Cruza La Frontera 01:59
10. Empanadilla De Pus - Desperado 02:42
11. Vomitando Bilis - La Verga Del Brujo 02:36
12. Serrucho - Raza Odiada 02:14
13. Difenacum - Colas De Rata 01:27
14. Undernoise - La Migra 01:41
15. Matadero - Consejos Narcos 03:56
16. Karmak - Laboratorios Cristalitos 01:19
17. N.O.T. - Division Del Norte 03:58
18. Himura - Anticastro 01:41
19. Rato Raro - El Bajon 01:59
20. Legacy Of Brutality - Brujo Cirujano 01:54
21. Mortem - Machetazos (Bonus Track) 01:30
******************************
Total playing time: 39:23

[more=Extended info]¡Viva Mexico![/more]
Register
(16) -=Lion=-, coresh, Cruor, frwd, garretje, Hell_Is_Here, jollo, legion01, marilin, Necroalex, Ominus_Nergal, qzmit4, sperminator, stone88, uk82, varlam4,
Nov 14 2012, 23:09:25 Foeticide - Dystopia [demo] (1997)


*Artist: Foeticide
*Album: Dystopia [demo]
*Year: 1997
*Genre: Death Metal
*Country: Bulgaria
*Format: mp3@CBR192kbps
*Size: 20MB

Tracklist:
01. The Deads Call Me 03:23
02. Exhume To Love 03:45
03. Obsolete Genital Cavities 03:44
04. Conseal Disorder 04:57
******************************
Total playing time: 15:49



Register
(4) Hell_Is_Here, MeathookSeed, varlam4, wreak,
Nov 12 2012, 05:29:03 Critical Point - Promo 2005 [demo] (2005)


*Artist: Critical Point
*Album: Promo 2005 [demo]
*Year: 2005
*Genre: Death Metal
*Country: Spain
*Format: mp3@CBR192kbps
*Size: 18MB

Tracklist:
01. Vomitorya 03:54
02. Fuego En El Cielo 03:10
03. Forbidden Siren 02:45
04. Autointoxicación 03:42
******************************
Total playing time: 13:31

Register
(7) Hell_Is_Here, MeathookSeed, potap03020100, satanist666, slack, varlam4, wreak,
Nov 11 2012, 03:38:36 Coagulo - Puritito Grind Chingon [ep] (2000)


*Artist: Coagulo
*Album: Puritito Grind Chingon [ep]
*Year: 2000
*Genre: Grindcore
*Country: Spain
*Format: mp3@VBR184kbps
*Size: 26MB

Tracklist:
01. El Christo Cornudo 03:20
02. Viven Entre Cadáveres 01:49
03. Cayeron Los Mochaorejas! 02:18
04. Hombre Santo 02:44
05. A 100mph Por Chihuahua 01:10
06. Asaltaron La Comisaría! 02:45
******************************
Total playing time: 14:06

[more=Extended info]high influence of Brujeria[/more]

Register
(2) infiltrator, varlam4,
Nov 11 2012, 01:45:59 Cadalso - Condenado A Vivir [ep] (2009)


*Artist: Cadalso
*Album: Condenado A Vivir [ep]
*Year: 2009
*Genre: Death Metal
*Country: Spain
*Format: mp3@CBR320kbps
*Size: 53MB

Tracklist:
Intro 02:37
Desterrado Al Infierno 06:03
Ejecucion 01:52
Cadalso 04:29
Corderos Mansos 03:46
Necropsia 04:31
******************************
Total playing time: 23:18



[more=Extended info]In Metallum the track list is from MCD, but this album is the Ep, edited in 2009. Please not confuse!


Input File: 03.- Ejecucion.mp3
Channels : 2
Sample Rate : 48000
Precision : 16-bit
Duration : 00:01:52.64 = 5406480 samples ~ 8447.62 CDDA sectors
File Size : 4.54M
Bit Rate : 322k
Sample Encoding: MPEG audio (layer I, II or III)
Comments :
Title=Ejecucion
Artist=Cadalso
Album=Condenado A Vivir
Tracknumber=3
Year=2009
Genre=Death Metal

[/more]

Register
(7) Buregon, fishish, infiltrator, satanist666, slack, varlam4, wreak,
Nov 8 2012, 17:23:04 General Surgery - Like An Ever Flying Limb [ep] (2012)


*Artist: General Surgery
*Album: Like An Ever Flying Limb [ep]
*Year: 2012
*Genre: Death Metal/Goregrind
*Country: Sweden
*Format: mp3@CBR320kbps
*Size: 27MB

Tracklist:
01. Like an Ever Flying Limb 02:29
02. Ejected Viscous Mucus 02:49
03. Seizures 00:42
04. Rhythmic Epidermal Clamor 01:25
05. Dark Cyanotic Hypostasis 03:42
******************************
Total playing time: 11:07




[more=Extended info]


Input File: 03.- Seizures.mp3
Channels : 2
Sample Rate : 48000
Precision : 16-bit
Duration : 00:00:40.83 = 1959696 samples ~ 3062.03 CDDA sectors
File Size : 2.12M
Bit Rate : 416k
Sample Encoding: MPEG audio (layer I, II or III)
Comments :
Title=Seizures
Artist=General Surgery
Album=Like An Ever Flying Limb
Tracknumber=3
Year=2012
Genre=Death Metal/Goregrind

[/more]

Register
(25) Agressor, andrey010577, Bashful, Beazth, C7X, CaptianGoreGrind, defamer666, Diflock, ENDSMOUTH, Infidel, jollo, jpvalentim, marilin, mindeater, natrogrii, necrozoofucker, Orgasmik, raattent, satanist666, sperminator, TheTrooper916, Ugly13, varlam4, Wolftribes, wreak,
Nov 7 2012, 19:32:02 Putrefaktion Society - Wellcome To Putrid World (2008)


*Artist: Putrefaktion Society
*Album: Wellcome To Putrid World
*Year: 2008
*Genre: Brutal Death Metal/Slamming Death Metal
*Country: Spain
*Format: mp3@CBR320kbps
*Size: 35MB

Tracklist:
01. Wellcome To Putrid World 01:30
02. Devastating Human Catastrophe 01:58
03. Mercenary Of Your Fucking Work 02:07
04. Animal Liberation Personalized Massacre 02:32
05. Mortgaged Life "System Of Shit" 02:00
06. Putrefaktion Society 04:18
07. Kill Your Mother / Fuck Your Dog (Dying Fetus Cover) 01:18
******************************
Total playing time: 15:43



[more=Extended info]


Input File: 07.- Kill Your Mother Fuck Your Dog (Cover Dying Fetus).mp3
Channels : 2
Sample Rate : 44100
Precision : 16-bit
Duration : 00:01:18.37 = 3456117 samples = 5877.75 CDDA sectors
File Size : 3.22M
Bit Rate : 328k
Sample Encoding: MPEG audio (layer I, II or III)
Comments :
Title=Kill Your Mother Fuck Your Dog (Cover Dying Fetus)
Artist=Putrefaktion Society
Album=Wellcome To Putrid World
Tracknumber=7
Year=2008
Genre=Slamming Death Metal

[/more]

Register
(7) Hell_Is_Here, MeathookSeed, Necroalex, satanist666, varlam4, Wolftribes, wreak,
Nov 7 2012, 18:52:15 Ironia - Promo/Demo 97' [demo] (1997)


*Artist: Ironia
*Album: Promo/Demo 97' [demo]
*Year: 1997
*Genre: Goregrind
*Country: Spain
*Format: mp3@CBR256kbps
*Size: 9MB

Tracklist:
01. Diptioclerosis 00:56
02. I Want More Victims 01:22
03. Macabre Dilema 00:59
04. My Grandmother Always Told Me Serial Killer Stories 01:15
05. The Traumatic Influenza Of The Hemophilic Fuck Monster 00:53
******************************
Total playing time: 5:25

Register
(3) artscald, satanist666, varlam4,
Nov 4 2012, 20:34:24 Legalize Murder - To Kill Or Not To Kill [demo] (2012)


*Artist: Legalize Murder
*Album: To Kill Or Not To Kill [demo]
*Year: 2012
*Genre: Thrash Metal
*Country: Spain
*Format: mp3@CBR320kbps
*Size: 52MB

Tracklist:
01. Art Of War 05:06
02. Believe In Me 03:08
03. Chainsaw Disciple 02:28
04. Red Point 03:54
05. Critical Mass (Nuclear Assault Cover) 03:24
06. Postmortem (Slayer Cover) 03:46
******************************
Total playing time: 21:46



[more=Extended info]


Input File: 03.- Chainsaw Disciple.mp3
Channels : 2
Sample Rate : 44100
Precision : 16-bit
Duration : 00:02:28.83 = 6563535 samples = 11162.5 CDDA sectors
File Size : 6.14M
Bit Rate : 330k
Sample Encoding: MPEG audio (layer I, II or III)
Comments :
Title=Chainsaw Disciple
Artist=Legalize Murder
Album=To Kill Or Not To Kill
Tracknumber=3
Year=2012
Genre=Thrash Metal

[/more]

Register
(8) avkruchinin, Diflock, marilin, metala, potap03020100, satanas189, varlam4, wreak,
Nov 3 2012, 22:04:38 Cytotoxin - Radiophobia (2012)
QUOTE
"320Kbps"
Medifire link
Password: Obn!
(3) infiltrator, neoatheist, Шанкара,
Oct 31 2012, 21:11:53 Fugax - Bury The Hatchet Wound (2012)


*Artist: Fugax
*Album: Bury The Hatchet Wound
*Year: 2012
*Genre: Death Metal
*Country: United States
*Format: mp3@CBR320kbps
*Size: 62MB

Tracklist:
01. Proctalgia Fugax 02:00
02. Chunky Bits Of Ass 02:05
03. Donkey Punch 01:43
04. Haglund's Deformity 02:08
05. Bury The Hatchet Wound 02:30
06. The Black Arts 01:39
07. Kick-Fucking Dead Creatures 02:14
08. Chode 02:05
09. The Trouble With Bees 02:12
10. Ball Pain 03:05
11. Intestinal Caulk 01:56
12. Cooley Rot 01:58
******************************
Total playing time: 25:35




[more=Extended info]


Input File: 12.- Cooley Rot.mp3
Channels : 2
Sample Rate : 44100
Precision : 16-bit
Duration : 00:01:58.71 = 5235155 samples = 8903.32 CDDA sectors
File Size : 5.06M
Bit Rate : 341k
Sample Encoding: MPEG audio (layer I, II or III)
Comments :
Title=Cooley Rot
Artist=Fugax
Album=Bury The Hatchet Wound
Tracknumber=12
Year=2012
Genre=Brutal Death Metal

[/more]

Register
(16) andreikun, andrey010577, Evgundel, Fetus_In_Fetu, Golfzilla, jollo, marilin, MeathookSeed, respect, satanist666, slack, Tino, VALERY, varlam4, warrior69, wreak,
Oct 31 2012, 20:10:59 Say Why? & Bastardäss - Say Why?/Bastardäss [split] (2012)


*Artist: Say Why? & Bastardäss
*Album: Say Why?/Bastardäss [split]
*Year: 2012
*Genre: Grindcore | Grindcore
*Country: Czech Republic | United States
*Format: mp3@VBR128kbps
*Size: 9MB

Tracklist:
Say Why?:
01. Ve Jmenu Pokroku 01:00
02. Starec 01:04
03. Nase Vec 00:47
04. Spinava Hra 00:55
05. Chranit A Pomahat 01:05
Bastardäss:
06. Twin towers 00:55
07. Stripped Away 00:56
08. Trapped In Torment 00:13
09. Caught Slipping 01:05
10. Lock Down (Stapled Shut Cover) 01:02
******************************
Total playing time: 9:02




Register
(3) Lanceatum, satanist666, varlam4,
Oct 31 2012, 19:41:51 Vaginal Morbidity - Anatomical Disgorgement [demo] (2012)


*Artist: Vaginal Morbidity
*Album: Anatomical Disgorgement [demo]
*Year: 2012
*Genre: Slamming Brutal Death Metal
*Country: United States
*Format: mp3@CBR320kbps
*Size: 20MB

Tracklist:
01. BangCock 01:46
02. Crack Iz Whack 01:04
03. Bleach Bitch 02:01
04. Shitty Sushi 02:01
05. For Your Health 02:10
******************************
Total playing time: 9:02



[more=Extended info]


Input File: 02.- Crack Iz Whack.mp3
Channels : 2
Sample Rate : 44100
Precision : 16-bit
Duration : 00:01:04.11 = 2827383 samples = 4808.47 CDDA sectors
File Size : 2.60M
Bit Rate : 325k
Sample Encoding: MPEG audio (layer I, II or III)
Comments :
Title=Crack Iz Whack
Artist=Vaginal Morbidity
Album=Anatomical Disgorgement (Demo)
Tracknumber=2
Year=2012
Genre=Brutal Slamming Death Metal

[/more]

Register
(4) logunarm, northerking, satanist666, varlam4,
Oct 30 2012, 22:51:28 Xulub Mitnal - Reconquista [demo] (2012)


*Artist: Xulub Mitnal
*Album: Reconquista [demo]
*Year: 2012
*Genre: Black Metal
*Country: Mexico
*Format: mp3@CBR320kbps
*Size: 63MB

Tracklist:
01. Reconquista 05:31
02. Och Bi' 05:18
03. Suut Junk 'Ul Ah Puch 07:16
04. Sac Ibteloob Cab (Xibalba Cover) 06:04
05. Gava Fran Trulen (Arckanum Cover) 03:34
******************************
Total playing time: 27:43



[more=Extended info]


Input File: 05.- Gava Fran Trulen (Arckanum Cover).mp3
Channels : 2
Sample Rate : 48000
Precision : 16-bit
Duration : 00:03:34.42 = 10292112 samples ~ 16081.4 CDDA sectors
File Size : 8.86M
Bit Rate : 331k
Sample Encoding: MPEG audio (layer I, II or III)
Comments :
Title=Gava Fran Trulen (Arckanum Cover)
Artist=Xulub Mitnal
Album=Reconquista
Tracknumber=5
Year=2012
Genre=Black Metal

[/more]

Register
(17) Darkthronefoad, Fryz, Ildjarn, Lucius Eternal, princeshr, raaf, satanist666, Sathana, sethurius, SilentNidhogg, stormhatt, Styx, Thunderbird, tont, varlam4, vasiljev_sergej, xiuhcoatl075,
Oct 27 2012, 22:45:04 Aural Butchery - Todos Libres [demo] (2012)


*Artist: Aural Butchery
*Album: Todos Libres [demo]
*Year: 2012
*Genre: Grindcore
*Country: Spain
*Format: mp3@CBR320kbps
*Size: 22MB

Tracklist:
01. La Hipocresía Como Forma De Vida 01:38
02. AK-63 01:46
03. Agorafobia 01:24
04. Incursión De Tropas 02:09
05. Tierra De Hierro 02:18
******************************
Total playing time: 9:15



[more=Extended info]


Input File: 03.- Agorafobia.mp3
Channels : 2
Sample Rate : 44100
Precision : 16-bit
Duration : 00:01:24.70 = 3735094 samples = 6352.2 CDDA sectors
File Size : 3.65M
Bit Rate : 345k
Sample Encoding: MPEG audio (layer I, II or III)
Comments :
Title=Agorafobia
Artist=Aural Butchery
Album=Todos Libres
Tracknumber=3
Year=2012
Genre=Grindcore

[/more]

Register
(5) Asle, RotAnus, satanath, satanist666, varlam4,
Oct 27 2012, 01:08:00 Nibiru - Nibiru [demo] (2012)


*Artist: Nibiru
*Album: Nibiru [demo]
*Year: 2012
*Genre: Death Metal/Grindcore
*Country: Spain
*Format: mp3@CBR320kbps
*Size: 44MB

Tracklist:
01. Pagano 04:30
02. Templo Putrefacto 04:44
03. Cura Pederasta 01:50
04. Matando Osos 00:50
05. Brutalgenocideannihilationextremedevastation 00:03
06. Brote Psicótico 02:52
07. Baphomet 04:41
******************************
Total playing time: 19:30




[more=Extended info]


Input File: 04.- Matando Osos.mp3
Channels : 2
Sample Rate : 44100
Precision : 16-bit
Duration : 00:00:50.92 = 2245572 samples = 3819 CDDA sectors
File Size : 2.04M
Bit Rate : 320k
Sample Encoding: MPEG audio (layer I, II or III)
Comments :
Title=Matando Osos
Artist=Nibiru
Album=Nibiru
Tracknumber=4
Year=2012
Genre=Death Metal/Grindcore

[/more]

Register
(4) Hell_Is_Here, satanist666, varlam4, wreak,
Oct 26 2012, 23:46:21 Migraña - Demo 1 [demo] (2012)


*Artist: Migraña
*Album: Demo 1 [demo]
*Year: 2012
*Genre: Brutal Death Metal
*Country: Spain
*Format: mp3@VBR192kbps
*Size: 24MB

Tracklist:
01. Intro 02:11
02. Olor A Sangre Seca 03:40
03. Torturada, Decapitada Y Penetrada 05:27
04. Pira De Cadaveres 03:25
05. Solo La Putrefacción Te Espera Tras La Muerte 03:15
******************************
Total playing time: 17:58




Register
(4) Hell_Is_Here, satanist666, varlam4, wreak,
Oct 25 2012, 21:13:22 Fuck I'm Dead - Another Gory Mess (2012)
I Know!
(3) DarkHorde, necroscum, satanath,
Oct 9 2012, 04:26:34 Fossor - Emerging From The Abyss [demo] (1994)


*Artist: Fossor
*Album: Emerging From The Abyss [demo]
*Year: 1994
*Genre: Death Metal
*Country: Spain
*Format: mp3@CBR128kbps
*Size: 36MB

Tracklist:
01. The Bastard Son Of God 06:47
02. Holocaust 07:29
03. Terminal Phase 06:17
04. Suffer The Torment 06:18
05. Immortal Soul 05:42
06. Deformed 07:19
******************************
Total playing time: 39:52

Register
(8) boba, gardenofdemise, hoyihuan, Leshiy666, MeathookSeed, Redesecretor, satanist666, sperminator,
Oct 6 2012, 05:22:57 Geisha
External Link
Register


 ! 

hide your links
 
(1) BRUTAL06,
Sep 27 2012, 03:44:32 Auschwitz - Lost Soul [demo] (1999)


*Artist: Auschwitz
*Album: Lost Soul [demo]
*Year: 1999
*Genre: Brutal Death Metal
*Country: Brazil
*Format: mp3@CBR128kbps
*Size: 16MB

Tracklist:
01. Lost Soul 06:23
02. Damned Dream 06:10
03. Trooper Of Death 05:02
******************************
Total playing time: 17:35



Register
(5) hoyihuan, infiltrator, Proteus_666, satanist666, varlam4,

4 Pages V   1 2 3 > » 
- Lo-Fi Version Support form
Copyrights and abuse reports form
Time is now: 23rd June 2021 - 22:55:06