Welcome Guest ( Log In | Register )

Объявления

* gmail.com упорно продолжает считать почту с нас "unsolicited" и отбивает в том числе и письма активации, поэтому просьба использовать альтернативные почтовые ящики.
------------
* gmail.com continues reject all mail from us as "unsolicited" (activation mails too) therefore please use alternate mail servers.
История благодарностей участнику sacrut ::: Спасибо сказали: 11666 раз(а)
Дата поста: В теме: За сообщение: Спасибо сказали:
Jun 16 2024, 07:57:37 Blood Rite - Blood Rite [demo] (2024)


*Artist: Blood Rite
*Album: Blood Rite [demo]
*Year: 2024
*Genre: Black Metal/Punk
*Country: United States
*Format: mp3@CBR320kbps
*Size: 38MB

Tracklist:
1. Blood Soaked Battleground 03:32
2. Cold Vein 01:47
3. Prisons of Flesh 01:42
4. Never Ending Nightmare 01:37
5. The Blazing South 02:10
6. Our Lords Dominion 01:53
7. Forsaken 01:21
8. Bleed the Heavens 02:12
******************************
Total playing time: 16:14



[more=Technical info]
Input File: Blood Rite - Blood Rite - 02 Cold Vein.mp3
Channels : 2
Sample Rate : 44100
Precision : 16-bit
Duration : 00:01:47.11 = 4723595 samples = 8033.32 CDDA sectors
File Size : 4.48M
Bit Rate : 334k
Sample Encoding: MPEG audio (layer I, II or III)
Comments :
Title=Cold Vein
Artist=Blood Rite
Album=Blood Rite
Tracknumber=02/08
Year=2024
Genre=138

[/more]

Register
(8) artscald, dermarsoran, Evrom, kefka, nemx, SilentNidhogg, sludge666, smysl,
Jun 15 2024, 17:23:08 In Nomine Belialis - La Messe Noir (2017)
Register
(1) Sergey,
Jun 15 2024, 17:03:58 Today Needed (1) thenecromancer,
Jun 15 2024, 17:02:27 Goatoimpurity - Impious Rehearsal [demo] (2008)
Register
(1) Wail,
Jun 15 2024, 16:57:38 Deiphago & Ritual Combat - Accept The Mark [split] (2012)
Register
(2) kim666, Wail,
Jun 9 2024, 07:54:17 Napalm Death - From Enslavement To Obliteration (1988)
QUOTE
Tracklist:
1. Evolved as One 03:13
2. It's a M.A.N.S. World! 00:54
3. Lucid Fairytale 01:02
4. Private Death 00:35
5. Impressions 00:35
6. Unchallenged Hate 02:07
7. Uncertainty Blurs the Vision 00:40
8. Cock-Rock Alienation 01:20
9. Retreat to Nowhere 00:30
10. Think for a Minute 01:42
11. Display to Me... 02:43
12. From Enslavement to Obliteration 01:35
13. Blind to the Truth 00:21
14. Social Sterility 01:03
15. Emotional Suffocation 01:05
16. Practice What You Preach 01:23
17. Inconceivable? 01:06
18. Worlds Apart 01:24
19. Obstinate Direction 01:01
20. Mentally Murdered 02:13
21. Sometimes 01:06
22. Make Way! 01:36
23. Musclehead 00:50
24. Your Achievement 00:06
25. Dead 00:04
26. Morbid Deceiver 00:45
27. The Curse 03:15
28. Scum 02:20
29. Life? 00:37
30. Retreat to Nowhere 00:28
31. Internal Animosity 05:30
******************************
Total playing time: 43:09


Register
(1) Deada,
Jun 7 2024, 06:47:29 Sinoath - Portraits Of Personal Darkness (2020)


*Artist: Sinoath
*Album: Portraits Of Personal Darkness
*Year: 2020
*Genre: Progressive Dark/Doom Metal
*Country: Italy
*Format: mp3@VBR231kbps
*Size: 77MB

Tracklist:
1. Drawings on the Dust 01:52
2. Psychic Wars 03:25
3. Startershock (Phantasmagoria) 03:50
4. Cogito Ergo Doom 04:20
5. Let It Be Something 03:26
6. From the Clash of the Planets 04:47
7. On the Edge of Perceptions (Part I & II) 04:30
8. Darkest than Midnight 03:55
9. The Recurring Ghost 04:04
10. Sleepless (Apocryphal Blues) 03:20
11. U.F.D.E.M. (Jacula cover) 04:20
12. Vertigo 03:53
******************************
Total playing time: 45:42




[more=Extended info]re-release 2023
The Ritual Productions

Metal is not a style that lends itself to freeform improvisation. Whilst
it certainly creates space for elaborate soloing and lengthy
instrumental segments that might look like improv, as soon as these
elements are committed to record and subjected to the scholarly study of
its dedicated fanbase, a rigidity of form is often maintained for an
individual piece. It is with some curiosity then, that we approach this
semi-improvised collection of ambient, jazz, progressive rock, and heavy
metal, put together by erstwhile Italian death/doomsters Sinoath.
Originally released in 2020, СPortraits of Personal DarknessТ will see a
physical release on Hessian Firm this February. All albums are in some
sense a frozen moment in time, a snapshot of where the artistТs mind was
at for a brief period. But metal albums in particular attempt to
transcend this inconvenient truth, and make their albums look like
statements that will shine down through the ages as monuments committed
to eternity. And this is often how we as listeners approach these
albums, as rare jewels to be placed in museum cabinets and studied for
generations to come.
The fact that СPortraits of Personal DarknessТ was predominantly
recorded live and retains the aesthetic of a jamming band in a rehearsal
studio means that Sinoath are able to stare down this illusion, and
explicitly present us with a work that at least attempts to confront
with artТs inevtiable temporality. The loose threads of 70s psychedelia,
old school doom metal, understated NOWBHM riffing, and jazz grant these
seasoned death metal musicians space to explore new characters and
structures that the formalities of fully formed metal would not usually
allow. The result begins to look like a sounding board of ideas. ItТs as
if we the listener are being granted special access to the creative
process itself, an album of behind the scenes footage replete with
offcuts, fascinating tangents, and avant-garde juxtapositions.
That being said, it should be noted that СPortraits of Personal
DarknessТ retains a solid and pronounced character throughout its forty
five minute runtime. Sinoath have clearly agreed a loose structure and
shape to these pieces ahead of time, whilst still granting plenty of
space to allow them to grow organically. This is no random collection of
dead end fragments and half-baked riffs that never came off. Despite the
demo quality of the drums, the subdued guitar tone, the uncertainty
surrounding crescendo and finale, there is a ghostly, ethereal quality
that seeps through the cracks of the music, and grants this album the
look of a finished work. One can almost see the musicians making eye
contact with each other in order to link together for the next build in
dynamics, one can also hear the moments when it didnТt quite come off,
or miniscule errors in rhythmic judgement.
But all this only heightens the distorted realism of the presentation.
It gives the segments of stoner doom commonality with the dark ambient,
or the triumphant heroism of heavy metal a link to the sobriety of the
ambient segments. The result is an album that works from many different
angles. As a kind of genre hopping freeform improvisation that can be
played as background noise, or else as a study in the art of riff
creation and composition, or simply in appreciation at the site of
musicians pushing themselves in all manner of musical directions in
order to see where it takes them.
СPortraits of Personal DarknessТ offers a uniquely temporary artistic
vision with many rewarding pockets once one lets go of a metalheadТs
expectation of formality and rigid composition and treats this more like
a (real) prog or jazz album.[/more]

[more=Technical info]
Input File: 04. Sinoath - Cogito Ergo Doom.mp3
Channels : 2
Sample Rate : 44100
Precision : 16-bit
Duration : 00:04:22.44 = 11573604 samples = 19683 CDDA sectors
File Size : 7.15M
Bit Rate : 218k
Sample Encoding: MPEG audio (layer I, II or III)
Comments :
Title=Cogito Ergo Doom
Artist=Sinoath
Album=Portraits of Personal Darkness
Tracknumber=04/12
Year=2023-06-22
Genre=138

[/more]

Register
(15) artscald, BlackTroll, Grev, kefka, metala, MMMMM, Nolan2025, Old Vyaine, quarantine, skidnik, stumpheavyrock, VALERY, Weikai, wreak, Zenial,
Jun 7 2024, 06:25:15 Acid UFO Death Cult - חשֶׁךְ [ep] (2022)


*Artist: Acid UFO Death Cult
*Album: חשֶׁךְ [ep]
*Year: 2022
*Genre: Black Metal
*Country: Italy
*Format: mp3@CBR320kbps
*Size: 37MB

Tracklist:
1. Full Moon (Intro) 01:19
2. Depressive Summer 03:10
3. Sun Outside, Chills Inside Me 04:16
4. Aesthetic of Decadence 05:14
5. Ruins 02:32
******************************
Total playing time: 16:31



[more=Technical info]
Input File: 02. Acid UFO Death Cult - Depressive Summer.mp3
Channels : 2
Sample Rate : 44100
Precision : 16-bit
Duration : 00:03:10.13 = 8384821 samples = 14259.9 CDDA sectors
File Size : 7.61M
Bit Rate : 320k
Sample Encoding: MPEG audio (layer I, II or III)
Comments :
Title=Depressive Summer
Artist=Acid UFO Death Cult
Album=חשֶׁךְ
Tracknumber=02/05
Year=2022-08-12
Genre=138

[/more]

Register
(12) artscald, Evrom, Grev, kefka, kim666, SilentNidhogg, smysl, supremo, VALERY, vasiljev_sergej, Weikai, wreak,
Jun 7 2024, 06:08:19 Black Cilice - Atavistic Possessions [ep] (2024)


*Artist: Black Cilice
*Album: Atavistic Possessions [ep]
*Year: 2024
*Genre: Raw Black Metal
*Country: Portugal
*Format: mp3@CBR320kbps
*Size: 75MB

Tracklist:
1. A Thousand Years of Darkness 08:22
2. In the Catacombs of the Mind 07:17
3. Becoming the Curse 05:51
4. A Fate Entwined with the Spirits 06:24
5. Dissolving Dimensions 05:55
******************************
Total playing time: 33:49



[more=Extended info]https://ironbonehead.de/2024/05/black-cilice-atavistic-possessions-lp-cd-out-now/[/more]

[more=Technical info]
Input File: 02. Black Cilice - In The Catacombs Of The Mind.mp3
Channels : 2
Sample Rate : 44100
Precision : 16-bit
Duration : 00:07:17.41 = 19289781 samples = 32805.8 CDDA sectors
File Size : 17.5M
Bit Rate : 320k
Sample Encoding: MPEG audio (layer I, II or III)
Comments :
Title=In The Catacombs Of The Mind
Artist=Black Cilice
Album=Atavistic Possessions
Tracknumber=02/05
Year=2024
Genre=Raw Black Metal

[/more]

Register
(37) acerbus, Ainar, AlexSmith, Altkiller, artscald, Boozer, ChaosArcana, darkside, Evrom, Fallen Soul, gena, ghoulvis, Grev, igore2911, kefka, kim666, madera, murian, nemx, Occultas, Qliphoth, Reverend, rimfrost, SaintVitus, SilentNidhogg, smysl, stub888, supremo, the_cleanser, VALERY, vasiljev_sergej, vlad74, Wail, Wotanwatch, wreak, zuiozuio, Авел,
Jun 7 2024, 05:38:43 Sanguine Relic & Black Cilice - Esoteric Stygianism [split] (2024)


*Artist: Sanguine Relic & Black Cilice
*Album: Esoteric Stygianism [split]
*Year: 2024
*Genre: Raw Black Metal | Raw Black Metal
*Country: United States | Portugal
*Format: mp3@CBR320kbps
*Size: 68MB

Tracklist:
Sanguine Relic:
1. The Anointed Few 04:17
2. Obscured Reign 05:47
3. Passing of Energies 05:40
Black Cilice:
4. Devouring Fire 05:19
5. A Key for All Doors 09:48
******************************
Total playing time: 30:51

[more=Extended info]https://ironbonehead.de/2024/05/black-cilic...t-tape-out-now/[/more]

[more=Technical info]
Input File: 02. Sanguine Relic - Obscured Reign.mp3
Channels : 2
Sample Rate : 44100
Precision : 16-bit
Duration : 00:05:47.98 = 15346094 samples = 26098.8 CDDA sectors
File Size : 13.9M
Bit Rate : 320k
Sample Encoding: MPEG audio (layer I, II or III)
Comments :
Title=Obscured Reign
Artist=Sanguine Relic
Album=Esoteric Stygianism
Tracknumber=02/05
Year=2024
Genre=Raw Black Metal

[/more]

Register
(27) acerbus, Ainar, Alexis The Best, Altkiller, artscald, Boozer, ChaosArcana, Fallen Soul, Grev, igore2911, kefka, kim666, Lanceatum, Natepruitt1988, nemx, Occultas, SilentNidhogg, smysl, supremo, the_cleanser, Tyrone, vasiljev_sergej, Wail, wreak, zuiozuio, Абигор, Авел,
Jun 7 2024, 04:40:52 Morbid Sorcery - Black Rites Of Doom [demo] (2024)


*Artist: Morbid Sorcery
*Album: Black Rites Of Doom [demo]
*Year: 2024
*Genre: Black Metal
*Country: Bosnia and Herzegovina
*Format: mp3@CBR320kbps
*Size: 44MB

Tracklist:
1. Intro 01:31
2. Nekrometal of Death 03:56
3. Slaves of Satan 04:48
4. The Gate of Nanna (Beherit cover) 04:41
5. Black Rites of Doom 04:27
******************************
Total playing time: 19:23



[more=Extended info]https://nithstangproductions.com/

“Eerie keyboard-driven mid-paced Bosnian black metal with doom ladened riffs and guttural, otherworldly vocals Morbid Sorcery has crafted some of the most spellbinding, blood-curdling, mid-paced, doom-infected black metal in recent memory. The tone is skillfully set with a bizarre keyboard intro that sets the melodic tone for the entire demo. From there, the rest of the instrumentation is hefted upon the listener like a hefty overcoat of stifling aural oobleck. This style of black metal, in the wrong hands, can easily tip over the edge into unlistenable. However, this new Bosnian entity handles the treacherous territory with a brilliant understanding of the promises and pitfalls inherent in this sub-genre. While the instrumentation and composition of this demo is insanely strong, the unearthly haunting vocals are potentially its biggest strength, as they leave an indelible, haunting mark on the listener. Superb new music from this entity that has been dormant since 2018.“[/more]

[more=Technical info]
Input File: 02. Morbid Sorcery - Nekrometal Of Death.mp3
Channels : 2
Sample Rate : 48000
Precision : 16-bit
Duration : 00:03:56.72 = 11362608 samples ~ 17754.1 CDDA sectors
File Size : 9.47M
Bit Rate : 320k
Sample Encoding: MPEG audio (layer I, II or III)
Comments :
Title=Nekrometal Of Death
Artist=Morbid Sorcery
Album=Black Rites Of Doom
Tracknumber=02/05
Year=2024
Genre=138

[/more]

Register
(13) artscald, Bzth, Evrom, Grev, kim666, nemx, SilentNidhogg, thenecromancer, VALERY, vasiljev_sergej, Weikai, wreak, zuiozuio,
May 9 2024, 08:03:53 Lux - Ecstacholia (2023)


*Artist: Lux
*Album: Ecstacholia
*Year: 2023
*Genre: Post-Black Metal
*Country: United Kingdom
*Format: mp3@CBR320kbps
*Size: 153MB

Tracklist:
1. Ecstacholic 12:59
2. Colour 7:55
3. Still Think of You 12:54
4. III 1:49
5. Violet Pink Diamond 7:25
6. Birthday 13:05
7. Infinity 10:37
******************************
Total playing time: 1:06:44



[more=Technical info]
Input File: 02. Lux - Colour.mp3
Channels : 2
Sample Rate : 44100
Precision : 16-bit
Duration : 00:07:55.30 = 20960774 samples = 35647.6 CDDA sectors
File Size : 19.0M
Bit Rate : 320k
Sample Encoding: MPEG audio (layer I, II or III)
Comments :
Title=Colour
Artist=Lux
Album=Ecstacholia
Tracknumber=02/07
Year=2023-08-29
Genre=138

[/more]

Register
(8) AlexSmith, artscald, Condehate, kim666, kimkayoung, SilentNidhogg, VALERY, wreak,
May 8 2024, 22:27:26 Verzauber - The Citadel Awakens To The Gaze Of An Incensed God [ep] (2024)


*Artist: Verzauber
*Album: The Citadel Awakens To The Gaze Of An Incensed God [ep]
*Year: 2024
*Genre: Black Metal
*Country: Ireland
*Format: mp3@CBR320kbps
*Size: 39MB

Tracklist:
01. The Citadel Awakens to the Gaze of an Incensed God 17:07
******************************
Total playing time: 17:07




[more=Extended info]FLAC Rip[/more]

[more=Technical info]
Input File: 01. Verzauber - The Citadel Awakens to the Gaze of an Incensed God.mp3
Channels : 2
Sample Rate : 44100
Precision : 16-bit
Duration : 00:17:07.10 = 45295242 samples = 77032.7 CDDA sectors
File Size : 41.1M
Bit Rate : 320k
Sample Encoding: MPEG audio (layer I, II or III)
Comments :
Title=The Citadel Awakens to the Gaze of an Incensed God
Artist=Verzauber
Album=The Citadel Awakens To The Gaze Of An Incensed God
Tracknumber=01/01
Year=2024
Genre=138

[/more]

Register
(14) Altkiller, artscald, dermarsoran, Grev, kefka, kim666, nemx, Razorbladeswaltz, smysl, stub888, supremo, VALERY, vasiljev_sergej, wreak,
May 5 2024, 03:11:56 Brakel - Wranger Wanen (2024)


*Artist: Brakel
*Album: Wranger Wanen
*Year: 2024
*Genre: Raw Black Metal
*Country: Belgium
*Format: mp3@CBR320kbps
*Size: 61MB

Tracklist:
01. Overdal 1:57
02. Kwadeplas 3:22
03. Grauwkraal 3:43
04. Tegen Geweten 3:19
05. Dwaalrag 2:53
06. Oude Maart 3:03
07. Blaan 3:21
08. Zonderling en Drang 3:04
09. Nevel Neer 2:08
******************************
Total playing time: 26:50




[more=Extended info]FLAC-Rip

Signal Rex announces May 1st as the international release date for Brakel's highly anticipated debut album, Wranger Wanen, on CD, vinyl LP, and cassette tape formats.

The first full-length recording of Belgium's Brakel, Wranger Wanen comprises nine songs across a time-evaporating / stretching 27 minutes. Signposts among raw black metal's elite exist here - be it Black Cilice, Candelabrum, Múspellzheimr, or those orbiting the Signal Rex-endorsed Clandestine Circle of Aldebaran - but beneath the alternately shocking / shimmering soundfield bubble torched debris of power electronics. Hateful and ghoulish in equal measure but utterly alien in effect, the ghostly surge of in-the-red decibels across Wranger Wanen get wrangled into obscene shapes; with all those indeterminate pulses underneath, sometimes Brakel's sound approaches the mechanistic...if the Industrial Revolution was visualized in The Cabinet of Dr. Caligari, such is the expressionist horror on display.

No identities, no fun, no past, no future: Brakel assault the unsuspecting with Wranger Wanen.
credits
released May 1, 2024[/more]

[more=Technical info]
Input File: 01. Brakel - Overdal.mp3
Channels : 2
Sample Rate : 44100
Precision : 16-bit
Duration : 00:01:57.61 = 5186513 samples = 8820.6 CDDA sectors
File Size : 4.71M
Bit Rate : 320k
Sample Encoding: MPEG audio (layer I, II or III)
Comments :
Title=Overdal
Artist=Brakel
Album=Wranger Wanen
Tracknumber=01/09
Year=2024
Genre=Raw Black Metal

[/more]

Register
(16) AlexSmith, artscald, BHLHC, Carcharoth, dcatagua, judaz, kefka, kim666, metala, nemx, SilentNidhogg, stormhatt, supremo, vasiljev_sergej, Wail, wreak,
May 2 2024, 01:53:27 Desolate Heaven & Defunctus Astrum - The Ashes Of Cosmic Uncreation [split] (2020)


*Artist: Desolate Heaven & Defunctus Astrum
*Album: The Ashes Of Cosmic Uncreation [split]
*Year: 2020
*Genre: Atmosphetic Black Metal | Atmosphetic Black Metal
*Country: Belarus | Belarus
*Format: mp3@VBR256kbps
*Size: 138MB

Tracklist:
Desolate Heaven:
1. The Candles Go Out 8:57
2. Omega 8:43
3. Ashes 8:00
4. Under the Wings of the Plague 6:41
5. The Outcome 3:55

Defunctus Astrum :
6. We Are in the Rings of Saturn 5:33
7. Death of Antares 3:31
8. Altars of the Unspeakable 4:05
9. Galaxies Eaters 3:40
10. Collapsar 4:59
11. Funeral Radiance of Quasars 6:00
12. The Stars - Burn... 11:29
******************************
Total playing time: 1:15:33




[more=Technical info]
Input File: 07. Defunctus Astrum - Death of Antares.mp3
Channels : 2
Sample Rate : 44100
Precision : 16-bit
Duration : 00:03:31.84 = 9342144 samples = 15888 CDDA sectors
File Size : 6.96M
Bit Rate : 263k
Sample Encoding: MPEG audio (layer I, II or III)
Comments :
Title=Death of Antares
Artist=Defunctus Astrum
Album=The Ashes of Cosmic Uncreation
Tracknumber=07/12
Year=2020-00-00
Genre=138

[/more]

Register
(11) artscald, Grev, kim666, SilentNidhogg, smysl, stormhatt, supremo, VALERY, vasiljev_sergej, Weikai, wreak,
May 2 2024, 01:14:26 Fantôme Oublié & Werewolf Bloodorder - Ritos De Misticismo Primitivo [split] (2024)


*Artist: Fantôme Oublié & Werewolf Bloodorder
*Album: Ritos De Misticismo Primitivo [split]
*Year: 2024
*Genre: Black Metal | Black Metal
*Country: Brazil | Brazil
*Format: mp3@CBR320kbps
*Size: 115MB

Tracklist:
Fantôme Oublié :
01. Intro 1:02
02. Saint Patron des Rats et d'os Pourris 5:13
03. La Mort Dansante 6:00
04. Mourning Soul 2:20
05. Funerailles Oublies 5:14
06. Ivresse et Iconoclasme 4:39

Werewolf Bloodorder :
07. Intro 3:16
08. Imperial Blood Order 5:14
09. Spell of Hatred 6:46
10. A Journey Through the Firmaments of Death 5:30
11. Return by Fire 5:18
******************************
Total playing time: 50:32





[more=Extended info]Recorded Live at Necropole Hall - 25/Nov/2023[/more]

[more=Technical info]
Input File: 08. Werewolf Bloodorder - Imperial Blood Order.mp3
Channels : 2
Sample Rate : 44100
Precision : 16-bit
Duration : 00:05:14.05 = 13849693 samples = 23553.9 CDDA sectors
File Size : 12.6M
Bit Rate : 320k
Sample Encoding: MPEG audio (layer I, II or III)
Comments :
Title=Imperial Blood Order
Artist=Werewolf Bloodorder
Album=Ritos de Misticismo Primitivo
Tracknumber=08/11
Year=2024
Genre=138

[/more]

Register
(14) artscald, Condehate, dcatagua, Grev, Ildjarn, kefka, kim666, lardmonger, SilentNidhogg, stormhatt, supremo, VALERY, vasiljev_sergej, wreak,
Apr 18 2024, 01:34:01 Today Needed (1) Occultas,
Apr 7 2024, 05:06:37 Alles Wird In Flammen Stehen - I [ep] (2020)


*Artist: Alles Wird In Flammen Stehen
*Album: I [ep]
*Year: 2020
*Genre: Atmospheric/Post-Black Metal
*Country: Russian Federation
*Format: mp3@CBR320kbps
*Size: 33MB

Tracklist:
1. I 6:41
2. II 1:37
3. III 5:47
******************************
Total playing time: 14:05



[more=Technical info]
Input File: 01. Alles Wird In Flammen Stehen - I.mp3
Channels : 2
Sample Rate : 44100
Precision : 16-bit
Duration : 00:06:41.95 = 17725775 samples = 30145.9 CDDA sectors
File Size : 16.3M
Bit Rate : 325k
Sample Encoding: MPEG audio (layer I, II or III)
Comments :
Title=I
Artist=Alles Wird In Flammen Stehen
Album=I
Tracknumber=01/03
Year=2020-10-15
Genre=138

[/more]

Register
(11) aleon, artscald, Carcharoth, Dante_D, ErickLeoni, HMHamster, kim666, supremo, VALERY, vasiljev_sergej, wreak,
Apr 7 2024, 04:37:51 Daccar-tchuvz' Cave - Untitled [ep] (2023)


*Artist: Daccar-tchuvz' Cave
*Album: Untitled [ep]
*Year: 2023
*Genre: Atmospheric Black Metal
*Country: Canada
*Format: mp3@CBR320kbps
*Size: 48MB

Tracklist:
1. Spirits of Nach-Tchurr 4:15
2. Caves, Eternity 3:34
3. Insullator (The Hearth Within) 2:18
4. Alone and Cold, in After 4:02
5. Artchh-Angelic Quilts of Time 5:51
******************************
Total playing time: 20:00



[more=Technical info]
Input File: 03. Daccar-tchuvz\' Cave - Insullator (The Hearth Within).mp3
Channels : 2
Sample Rate : 44100
Precision : 16-bit
Duration : 00:02:18.20 = 6094488 samples = 10364.8 CDDA sectors
File Size : 5.54M
Bit Rate : 320k
Sample Encoding: MPEG audio (layer I, II or III)
Comments :
Title=Insullator (The Hearth Within)
Artist=Daccar-tchuvz' Cave
Album=Untitled
Tracknumber=03/05
Year=2023-02-20
Genre=138

[/more]

Register
(14) aleon, Altkiller, artscald, Carcharoth, ErickLeoni, kefka, kim666, SilentNidhogg, stormhatt, supremo, VALERY, vasiljev_sergej, Weikai, wreak,
Apr 7 2024, 03:55:45 Condemned - Nemesis (2007)


*Artist: Condemned
*Album: Nemesis
*Year: 2007
*Genre: Thrash Metal
*Country: Canada
*Format: mp3@CBR320kbps
*Size: 125MB

Tracklist:
1. Prayers For The Damned 5:22
2. Contradiction 4:45
3. S.C.I. 5:18
4. Second Coming 5:30
5. System-Addict 5:42
6. The Power 7:22
7. Parallel Life 5:25
8. In The End We See 5:23
9. Skin 2:20
10. Buried Alive 6:08
******************************
Total playing time: 53:15

Preview 1
Preview 2

[more=Extended info]Canadian thrash metal. Changed name to Desolate Rage in 2013[/more]

[more=Technical info]
Input File: 01. Condemned - Prayers For The Damned.mp3
Channels : 2
Sample Rate : 44100
Precision : 16-bit
Duration : 00:05:22.87 = 14238479 samples = 24215.1 CDDA sectors
File Size : 13.5M
Bit Rate : 336k
Sample Encoding: MPEG audio (layer I, II or III)
Comments :
Title=Prayers For The Damned
Artist=Condemned
Album=Nemesis
Tracknumber=01/10
Year=2007-10-10
Genre=144

[/more]

Register
(21) after21allD, akym, amiroo, artscald, boby9052, cast_iron, Dalboy, Diflock, Marek, metala, METALHUNTER, MMMMM, Mogozoz, postal67, Proteus_666, sergsazan, stumpheavyrock, supremo, Wail, wreak, Xtohar,
Apr 7 2024, 01:32:39 Pagan Throne - Live Thorhammerfest [live] (2018)


*Artist: Pagan Throne
*Album: Live Thorhammerfest [live]
*Year: 2018
*Genre: Pagan Black Metal
*Country: Brazil
*Format: mp3@CBR320kbps
*Size: 62MB

Tracklist:
1. Invasion 1:11
2. Swords of Blood 4:24
3. Rites of War 4:33
4. Fallen Heroes 5:11
5. Beast of the Sea 4:14
6. Path of Shadows 7:19
******************************
Total playing time: 26:52

Preview 1


[more=Extended info]Recorded live audio at "Thorhammerfest 2017" by Studio Prisco (Sгo Paulo - Brazil).[/more]

[more=Technical info]
Input File: 02. Pagan Throne - Swords of Blood.mp3
Channels : 2
Sample Rate : 44100
Precision : 16-bit
Duration : 00:04:24.82 = 11678606 samples = 19861.6 CDDA sectors
File Size : 11.0M
Bit Rate : 334k
Sample Encoding: MPEG audio (layer I, II or III)
Comments :
Title=Swords of Blood
Artist=Pagan Throne
Album=Live Thorhammerfest
Tracknumber=02/06
Year=2018-10-10
Genre=138

[/more]

Register
(10) artscald, Carcharoth, ErickLeoni, Grev, Reverend, SilentNidhogg, smysl, supremo, vasiljev_sergej, wreak,
Apr 7 2024, 01:15:13 Dark Inquisition & Pagan Throne - Blood Of My Enemies [split] (2017)


*Artist: Dark Inquisition & Pagan Throne
*Album: Blood Of My Enemies [split]
*Year: 2017
*Genre: Pagan Black Metal | Pagan Black Metal
*Country: Brazil | Brazil
*Format: mp3@CBR320kbps
*Size: 76MB

Tracklist:
Dark Inquisition:
1. Dance of the Deep Pain 04:36
2. A Prelude to a True Inquisition 04:54
3. Glorification of the Evil 04:36

Pagan Throne:
4. Path of Shadows 07:34
5. Rites of War 04:45
6. Fallen Heroes 05:07
******************************
Total playing time: 31:32

Preview 1


[more=Technical info]
Input File: 05. Pagan Throne - Rites of War.mp3
Channels : 2
Sample Rate : 44100
Precision : 16-bit
Duration : 00:04:45.51 = 12591035 samples = 21413.3 CDDA sectors
File Size : 12.2M
Bit Rate : 341k
Sample Encoding: MPEG audio (layer I, II or III)
Comments :
Title=Rites of War
Artist=Pagan Throne
Album=Blood of My Enemies
Tracknumber=05/06
Year=2017-10-07
Genre=Pagan Black Metal

[/more]

Register
(13) Altkiller, artscald, Carcharoth, ErickLeoni, Grev, Ildjarn, kim666, SilentNidhogg, smysl, supremo, vasiljev_sergej, wreak, yarrsuaa,
Apr 6 2024, 20:29:20 Cult Of Sobek - Petsuchos [ep] (2023)


*Artist: Cult Of Sobek
*Album: Petsuchos [ep]
*Year: 2023
*Genre: Sludge/Doom Metal
*Country: United Kingdom
*Format: mp3@CBR320kbps
*Size: 49MB

Tracklist:
1. Petsuchos 08:11
2. Lord of the Crocodile 05:39
3. Maneater 07:25
******************************
Total playing time: 21:15


Preview 2

[more=Extended info]Crocodilian Doom[/more]

[more=Technical info]
Input File: 01. Cult of Sobek - Petsuchos.mp3
Channels : 2
Sample Rate : 44100
Precision : 16-bit
Duration : 00:08:11.76 = 21686572 samples = 36881.9 CDDA sectors
File Size : 20.1M
Bit Rate : 326k
Sample Encoding: MPEG audio (layer I, II or III)
Comments :
Title=Petsuchos
Artist=Cult of Sobek
Album=Petsuchos
Tracknumber=01/03
Year=2023
Genre=Sludge/Doom Metal

[/more]

Register
(4) gena, LiarOfAngmar, stub888, vlad74,
Apr 6 2024, 18:07:50 Daemonic - Demon's Genocide [ep] (2020)


*Artist: Daemonic
*Album: Demon's Genocide [ep]
*Year: 2020
*Genre: Black Metal
*Country: Spain
*Format: mp3@CBR320kbps
*Size: 40MB

Tracklist:
1. Demon's Genocide 3:08
2. Sadistic Screams From Hell 4:35
3. Vanished In Flames 4:34
4. Antichrist 4:04
******************************
Total playing time: 16:21



[more=Technical info]
Input File: 04. Daemonic - Antichrist.mp3
Channels : 2
Sample Rate : 44100
Precision : 16-bit
Duration : 00:04:04.08 = 10763840 samples = 18305.9 CDDA sectors
File Size : 9.91M
Bit Rate : 325k
Sample Encoding: MPEG audio (layer I, II or III)
Comments :
Title=Antichrist
Artist=Daemonic
Album=Demon's Genocide
Tracknumber=04/04
Year=2020
Genre=138

[/more]

Register
(10) artscald, kim666, SilentNidhogg, stub888, supremo, thenecromancer, VALERY, vasiljev_sergej, Wail, wreak,
Apr 1 2024, 05:59:34 Kreuzigung - Gottes Licht Brennt Auf Meiner Haut... [demo] (2024)


*Artist: Kreuzigung
*Album: Gottes Licht Brennt Auf Meiner Haut... [demo]
*Year: 2024
*Genre: Raw Black Metal
*Country: Unknown
*Format: mp3@CBR320kbps
*Size: 49MB

Tracklist:
1. Intro 01:04
2. Gottes Licht 04:53
3. Die Kreuzigung 05:48
4. Gottes Furcht 05:36
5. Outro 03:31
******************************
Total playing time: 20:52



[more=Technical info]
Input File: Kreuzigung - Gottes Licht brennt auf meiner Haut... - 01 Intro.mp3
Channels : 2
Sample Rate : 44100
Precision : 16-bit
Duration : 00:01:04.58 = 2848022 samples = 4843.57 CDDA sectors
File Size : 2.71M
Bit Rate : 336k
Sample Encoding: MPEG audio (layer I, II or III)
Comments :
Title=Intro
Artist=Kreuzigung
Album=Gottes Licht brennt auf meiner Haut...
Tracknumber=01/05
Year=2024
Genre=Raw Black Metal

[/more]

Register
(13) artscald, Carcharoth, carla667, Ildjarn, khestanow3001, kim666, raaf, SilentNidhogg, smysl, stormhatt, vasiljev_sergej, Velmi, wreak,

46 Pages V   1 2 3 > » 
- Lo-Fi Version Support form
Copyrights and abuse reports form
Time is now: 23rd June 2024 - 01:52:54