Welcome Guest ( Log In | Register )

История благодарностей участнику sacrut ::: Спасибо сказали: 3964 раз(а)
Дата поста: В теме: За сообщение: Спасибо сказали:
Yesterday, 20:46:15 Baneblade - Oblivion Death March (2019)
Файла не существует или он был удалён с сервера

Please re-upload
(1) wanderer73,
Apr 21 2021, 17:57:46 Spectral Wound - A Diabolic Thirst (2021)
nothing really interesting[2]
I had more impressions from the previous release, can't listen to the new one no more
(1) babanguida,
Mar 5 2021, 18:53:33 Black Abyss - Rite In The Blood Soaked Wormhole [demo] (2021)
just based on the cover art you can tell the work belongs to TSALAL members
(1) smysl,
Feb 19 2021, 18:30:23 Black Metal в лицах
Register
(5) Black Cat, Dis, infiltrator, Occultas, thenecromancer,
Feb 19 2021, 18:11:54 Black Metal в лицах
Register
(3) Black Cat, infiltrator, Occultas,
Feb 4 2021, 22:46:04 Misotheist - For The Glory Of Your Redeemer (2021)
found nothing special here
(1) judaz,
Jan 18 2021, 22:53:27 Capel Beulah - Capel Beulah (2020)
Register
(1) rimfrost,
Jan 12 2021, 18:38:30 Black Spirit - In A Vortex To The Infinite Night/Behind The Light That Fades [compilation] (2019)
good stuff
(1) Storky,
Jan 12 2021, 09:28:28 Ghriéving - 2017/2019 Discography [compilation] (2019)
шикарно
(2) metaljosue, Storky,
Dec 30 2020, 10:42:01 Black Metal в лицах
Register
(4) Chasm, Dis, infiltrator, Occultas,
Dec 24 2020, 07:29:51 Voreus - The Proclamation [ep] (2020)
a promising work
(1) Occultas,
Dec 23 2020, 02:22:07 Diocletian - Doom Cult (2009)
Register
(1) Deadhammer,
Nov 29 2020, 06:18:57 Wolvennest - Vortex [ep] (2019) (1) Darkwood,
Nov 27 2020, 19:46:59 Wolvennest - Vortex [ep] (2019)


*Artist: Wolvennest
*Album: Vortex [ep]
*Year: 2019
*Genre: Experimental Psychedelic Black Metal/Ambient
*Country: Belgium
*Format: mp3@CBR320kbps
*Size: 49MB

Tracklist:
1. Spirit of the Black Wolven Dogs and the Wild White Horses 06:04
2. Vortex 07:15
3. The Storm 08:16
******************************
Total playing time: 21:35



[more=Technical info]
Input File: 01 - Spirit Of The Black Wolven Dogs And The Wild White Horses.mp3
Channels : 2
Sample Rate : 44100
Precision : 16-bit
Duration : 00:06:04.14 = 16058574 samples = 27310.5 CDDA sectors
File Size : 14.6M
Bit Rate : 322k
Sample Encoding: MPEG audio (layer I, II or III)
Comments :
Title=Spirit of the Black Wolven Dogs and the Wild White Horses
Artist=Wolvennest
Album=Vortex
Tracknumber=01/03
Year=2019
Genre=Post-Black Metal

[/more]

Register
(22) Black Cat, Evilded, HMHamster, infiltrator, jelly_kt, Kodel, metala, Moonshtook, Olethros, randumbum, robertho777, rocesid, Rosen, Sanctus, stub888, varlam4, vasiljev_sergej, Vitald, Wail, wreak, xska, yuratroll,
Nov 5 2020, 18:02:11 Isenscur - Āsyndraþ (2020)
Register
(4) El_Chibo, Mich, nsk2008, vasiljev_sergej,
Nov 2 2020, 21:59:05 Of Feather And Bone - Sulfuric Disintegration (2020)
yeah baby, good stuff
(1) Occultas,
Oct 29 2020, 00:17:53 Wolvennest - WLVNNST (2016)
from web
Register


FLAC from WEB :

Register
(3) varlam4, wtk.412, xska,
Oct 28 2020, 22:54:35 Abysmal Lord - Cathedral [ep] (2020)
in absence of Proclamation, we need this as air 20.gif 20.gif 20.gif
(3) infiltrator, ingram, JantoHadez,
Sep 11 2020, 07:53:17 Panzerfaust & Totalus Necrum - Panzerfaust/Totalus Necrum [split] (2007)
totally different music to the ones, you can hear on the last two LPs and EP

Register
(3) Lanceatum, ripper33, vasiljev_sergej,
Aug 28 2020, 06:13:25 Panzerfaust - The Suns Of Perdition - Chapter II: Render Unto Eden (2020)
here we go again...
this is something you shouldn't miss

Register
(8) Chasm, infiltrator, murayne, Ostinato, randumbum, robertho777, Rudolfo_Metal, smes,
Aug 7 2020, 08:17:22 Temple Nightside - Pillars Of Damnation (2020)
Register
(13) andreikun, babanguida, Bitchkiller, CelticSPB, chickenfucker, Hell_Is_Here, infiltrator, kauyumari, Lecter7, marilin, metaljosue, THROWER666, wtk.412,
May 11 2020, 10:03:33 Brahmastrika - Excarnastrial Commencination [demo] (2019)
finally, it is here, thanks

Now the next is NIRRITI
(4) Antichrist, babanguida, LazarShadow, Occultas,
Apr 17 2020, 20:44:51 Witches Hammer - Damnation Is My Salvation (2020)
they are quite awesome on stage: Marco is full of energy like a napalm erupting volcano, Ray is hilariously positive and artistic! Amazing band, love them


just a small fragment of their show

Register
(4) Antichrist, babanguida, biroutios, infiltrator,
Apr 8 2020, 23:25:25 Black Curse - Endless Wound (2020)
good work, keep it up!
(2) Antichrist, Leshiy666,
Nov 14 2019, 02:24:25 Witchrist - Beheaded Ouroboros (2010)
Register
(7) Antichrist, eternald, FullofHate, gongshow, ITNOR, korovakaska, Nordicpride91,

19 Pages V   1 2 3 > » 
- Lo-Fi Version Support form
Copyrights and abuse reports form
Time is now: 23rd October 2021 - 20:59:05