Welcome Guest ( Log In | Register )

История благодарностей участнику sacrut ::: Спасибо сказали: 6747 раз(а)
Дата поста: В теме: За сообщение: Спасибо сказали:
Jul 4 2022, 08:24:48 Harhaoppisten Ylipapitar - Ruhjeille Rakastanut [demo] (2021)


*Artist: Harhaoppisten Ylipapitar
*Album: Ruhjeille Rakastanut [demo]
*Year: 2021
*Genre: Raw Black Metal
*Country: Finland
*Format: mp3@CBR320kbps
*Size: 73MB

Tracklist:
1. Sortuva avaruus 02:00
2. Sodan roihuavasta tulesta 02:50
3. Ruhjeille rakastanut 03:01
4. Mestarini tähtien takana 02:31
5. Kadonnut viisaus on kätketty vereesi 02:21
6. Harhojen ja houreiden keskellä 02:27
7. Noituuden viettelemä 02:56
8. Kuoleman jatkumossa 03:37
9. Tajunta hajoaa 03:21
10. Namaskar Saatana 03:12
11. Armotta piesty saastainen huora 02:35
12. Kuolevan silmin 02:23
******************************
Total playing time: 33:14



[more=Technical info]
Input File: 02. Harhaoppisten Ylipapitar - Sodan roihuavasta tulesta.mp3
Channels : 2
Sample Rate : 44100
Precision : 16-bit
Duration : 00:02:51.00 = 7541232 samples = 12825.2 CDDA sectors
File Size : 6.84M
Bit Rate : 320k
Sample Encoding: MPEG audio (layer I, II or III)
Comments :
Title=Sodan roihuavasta tulesta
Artist=Harhaoppisten Ylipapitar
Album=Ruhjeille rakastanut
Tracknumber=02/12
Year=2021
Genre=Raw Black Metal

[/more]

Register
(4) artscald, kim666, stormhatt, vasiljev_sergej,
Jul 4 2022, 08:09:25 Harhaoppisten Ylipapitar - Hurmoksessa Kohti Olematonta [demo] (2021)


*Artist: Harhaoppisten Ylipapitar
*Album: Hurmoksessa Kohti Olematonta [demo]
*Year: 2021
*Genre: Raw Black Metal
*Country: Finland
*Format: mp3@CBR320kbps
*Size: 47MB

Tracklist:
1. Puukoniskuja suviyössä 04:29
2. Vaeltaja muista kuolemasi 02:25
3. Olet teuras 03:08
4. Uusi luku on alkanut 02:16
5. Hurmoksessa kohti olematonta 03:03
6. Suohon surmattu 03:44
7. Kuulun Helvettiin 02:55
******************************
Total playing time: 22:00



[more=Technical info]
Input File: 02. Harhaoppisten Ylipapitar - Vaeltaja Muista Kuolemasi.mp3
Channels : 2
Sample Rate : 44100
Precision : 16-bit
Duration : 00:02:25.19 = 6403055 samples = 10889.5 CDDA sectors
File Size : 5.81M
Bit Rate : 320k
Sample Encoding: MPEG audio (layer I, II or III)
Comments :
Title=Vaeltaja Muista Kuolemasi
Artist=Harhaoppisten Ylipapitar
Album=Hurmoksessa Kohti Olematonta
Tracknumber=02/07
Year=2021
Genre=Raw Black Metal

[/more]

Register
(5) artscald, kim666, SileniusLegard, stormhatt, vasiljev_sergej,
Jul 4 2022, 07:52:03 Harhaoppisten Ylipapitar - Kosmos, Saatana Ja Alkemia [demo] (2021)


*Artist: Harhaoppisten Ylipapitar
*Album: Kosmos, Saatana Ja Alkemia [demo]
*Year: 2021
*Genre: Raw Black Metal
*Country: Finland
*Format: mp3@CBR320kbps
*Size: 49MB

Tracklist:
1. Roihuavan kaaoksen nimeen 01:38
2. Noiduttu vihameditaatio 02:26
3. Kappelin tuhkaa 02:59
4. Perkeleen vallassa 03:44
5. Moraaliton maailma 03:35
6. Kosmos, Saatana ja alkemia 04:42
7. Sitoutunut kosmiseen totuuteen 04:42
******************************
Total playing time: 23:46



[more=Technical info]
Input File: 02. Harhaoppisten Ylipapitar - Noiduttu Vihameditaatio.mp3
Channels : 2
Sample Rate : 44100
Precision : 16-bit
Duration : 00:02:26.29 = 6451433 samples = 10971.8 CDDA sectors
File Size : 5.86M
Bit Rate : 320k
Sample Encoding: MPEG audio (layer I, II or III)
Comments :
Title=Noiduttu Vihameditaatio
Artist=Harhaoppisten Ylipapitar
Album=Kosmos, Saatana Ja Alkemia
Tracknumber=02/07
Year=2021
Genre=138

[/more]

Register
(5) artscald, kim666, SileniusLegard, stormhatt, vasiljev_sergej,
Jul 4 2022, 07:01:58 Rotten Moon - In The Vale Of Astral Graves [demo] (2021)


*Artist: Rotten Moon
*Album: In The Vale Of Astral Graves [demo]
*Year: 2021
*Genre: Raw Black Metal
*Country: Finland
*Format: mp3@CBR320kbps
*Size: 61MB

Tracklist:
1. Gates Clothed In Mould 01:31
2. Veils of Life, Depart 06:34
3. Worms In Celestial Bodies 09:54
4. Shrouded Wisdom 06:20
5. Sleeping In Oblivion 02:37
******************************
Total playing time: 26:56



[more=Technical info]
Input File: 02. Rotten Moon - Veils Of Life, Depart.mp3
Channels : 2
Sample Rate : 48000
Precision : 16-bit
Duration : 00:06:34.04 = 18913680 samples ~ 29552.6 CDDA sectors
File Size : 15.8M
Bit Rate : 320k
Sample Encoding: MPEG audio (layer I, II or III)
Comments :
Title=Veils Of Life, Depart
Artist=Rotten Moon
Album=In the Vale of Astral Graves
Tracknumber=02/05
Year=2021
Genre=Raw Black Metal

[/more]

Register
(4) artscald, INDARKNESS, kim666, stormhatt,
Jul 4 2022, 04:41:46 Prehistoric War Cult & Θoʊθ - Prehistoric War Cult/Θoʊθ [split] (2021)


*Artist: Prehistoric War Cult & Θoʊθ
*Album: Prehistoric War Cult/Θoʊθ [split]
*Year: 2021
*Genre: Black/Death Metal | Death Metal
*Country: Germany | Unknown
*Format: mp3@CBR320kbps
*Size: 90MB

Tracklist:
Prehistoric War Cult :
01. Marks of Death in Abandoned Cave 00:53
02. Blood Sacrifice 02:57
03. Procession into the Poison Jungle 02:42
04. Towards the Blazing Monument (of Creation) 01:44
05. Raiding the Enemy Village (as Foretold by the Sacred Bones) 03:12
06. Cold Wind Howls Over the Burial Site 03:56
07. Blood Monk (Goatlord) 05:49

θoʊθ :
08. Disentombed Sarcophagus Ѭ Rise of the Canaanite 04:57
09. Put Them to Sleep Ѭ Where Rivers Flow into the Sea 03:04
10. Trumpets of None Ѭ Kingdom of All 06:14
11. The Resin of the Conifers Ѭ The Tears of Osiris 03:44
******************************
Total playing time: 39:12




[more=Technical info]
Input File: 02. Prehistoric War Cult - Blood Sacrifice.mp3
Channels : 2
Sample Rate : 44100
Precision : 16-bit
Duration : 00:02:57.53 = 7829249 samples = 13315 CDDA sectors
File Size : 7.11M
Bit Rate : 320k
Sample Encoding: MPEG audio (layer I, II or III)
Comments :
Title=Blood Sacrifice
Artist=Prehistoric War Cult
Album=Prehistoric War Cult / θoʊθ
Tracknumber=02/11
Year=2021
Genre=22

[/more]

Register
(3) artscald, Ignativs, VALERY,
Jul 4 2022, 03:25:58 Prehistoric War Cult - Live In Radebeul [live] (2022)


*Artist: Prehistoric War Cult
*Album: Live In Radebeul [live]
*Year: 2022
*Genre: Black/Death Metal
*Country: Germany
*Format: mp3@VBR300kbps
*Size: 41MB

Tracklist:
1. Marks of Death in Abandoned Caves 01:15
2. Blood Sacrifice 02:53
3. Procession into the Poison Jungle 03:06
4. Towards the Blazing Monument (of Creation) 02:12
5. Under the Sign of the Red Moon 03:43
6. Effigies of Ecstasy 02:59
7. Raiding the Enemy Village (As Foretold by the Sacred Bones) 03:11
******************************
Total playing time: 19:19



[more=Extended info]Recorded live at Paranoya Fest 2021[/more]

[more=Technical info]
Input File: 02. Prehistoric War Cult - Blood Sacrifice.mp3
Channels : 2
Sample Rate : 44100
Precision : 16-bit
Duration : 00:02:53.24 = 7640060 samples = 12993.3 CDDA sectors
File Size : 6.20M
Bit Rate : 286k
Sample Encoding: MPEG audio (layer I, II or III)
Comments :
Title=Blood Sacrifice
Artist=Prehistoric War Cult
Album=Live in Radebeul
Tracknumber=02/07
Year=2022
Genre=Black/Death Metal

[/more]

Register
(2) artscald, VALERY,
Jul 2 2022, 08:57:17 Rotten Moon - No Dawn In This World Of Infernal Eclipses (2021)


*Artist: Rotten Moon
*Album: No Dawn In This World Of Infernal Eclipses
*Year: 2021
*Genre: Black Metal
*Country: Finland
*Format: mp3@CBR320kbps
*Size: 96MB

Tracklist:
01. At the Ruins of the Fortress 02:39
02. I Am the Crow on Your Grave 05:26
03. The Crystal Sea 04:13
04. A Nihilist‘s Smile 04:39
05. Eeriness 05:10
06. Ageless Will to Rise 06:57
07. Flame Inside the Flame 05:54
08. All Our Plagues 07:17
******************************
Total playing time: 42:15


Preview 2

[more=Extended info]Harsh and anguished mid-tempo Black Metal exploring the most rotten, mildewed depths of the ancient '90s Black Metal underground consumed by the cosmic void.


Recorded during the Summer of Fevers 2021.
All music, lyrics and art by Heinous Soul.

Band contact: rottenmoon@protonmail.com[/more]

[more=Technical info]
Input File: 03. Rotten Moon - The Crystal Sea.mp3
Channels : 2
Sample Rate : 48000
Precision : 16-bit
Duration : 00:04:13.11 = 12149136 samples ~ 18983 CDDA sectors
File Size : 10.1M
Bit Rate : 320k
Sample Encoding: MPEG audio (layer I, II or III)
Comments :
Title=The Crystal Sea
Artist=Rotten Moon
Album=No Dawn in This World of Infernal Eclipses
Tracknumber=03/08
Year=2021
Genre=Raw Black Metal

[/more]

Register
(19) AlexSmith, Altkiller, artscald, Bzth, INDARKNESS, kim666, maringlen, Mencae77, raaf, rominow, Sanctus, SilentNidhogg, stormhatt, supremo, VALERY, vasiljev_sergej, Vitald, wreak, Абигор,
Jul 2 2022, 03:30:14 Morte Perpetua - Maledictions Cast Through Decrepit Coffins In Dust [compilation] (2021)


*Artist: Morte Perpetua
*Album: Maledictions Cast Through Decrepit Coffins In Dust [compilation]
*Year: 2021
*Genre: Raw Black Metal
*Country: International
*Format: mp3@CBR320kbps
*Size: 110MB

Tracklist:
01. Untitled I 03:30
02. Untitled II 03:26
03. Untitled III 06:02
04. Intro I 02:49
05. Untitled IV 04:07
06. Untitled V 03:53
07. Untitled VI 02:43
08. Untitled VII 03:09
09. Untitled VIII 02:45
10. Untitled IX 02:01
11. Untitled XI 03:52
12. Untitled XII 02:25
13. Untitled XIV 03:41
14. Untitled XVI 04:26
******************************
Total playing time: 48:49

[more=Extended info]Label: JEMS – #178
[/more]

[more=Technical info]
Input File: 06. Morte Perpetua - Untitled V.mp3
Channels : 2
Sample Rate : 44100
Precision : 16-bit
Duration : 00:03:53.44 = 10294572 samples = 17507.8 CDDA sectors
File Size : 9.34M
Bit Rate : 320k
Sample Encoding: MPEG audio (layer I, II or III)
Comments :
Title=Untitled V
Artist=Morte Perpetua
Album=Maledictions Cast Through Decrepit Coffins In Dust
Tracknumber=06
Year=2021
Genre=Raw Black Metal

[/more]

Register
(10) artscald, INDARKNESS, kim666, Reverend, SilentNidhogg, smysl, stormhatt, supremo, vasiljev_sergej, wreak,
Jul 2 2022, 02:55:23 Shüräth Värnëm - Nocturnal Suffering [demo] (2021)


*Artist: Shüräth Värnëm
*Album: Nocturnal Suffering [demo]
*Year: 2021
*Genre: Raw Black Metal
*Country: Unknown
*Format: mp3@CBR320kbps
*Size: 41MB

Tracklist:
01. Intro 01:09
02. A Transfiguration Through Vampyric Cruelty 02:04
03. Translucent Horrific Entity 05:52
04. Cursed in Eternal Anguish 03:44
05. Disembodied Cries Beyond Perpetual Darkness 05:49
******************************
Total playing time: 18:38


Preview 2

[more=Extended info]Debut demo from this new mysterious project part of the international gathering ot the Necrosaint Worship Circle.

Excellent raw and lifeless Black Metal, completely inert of life or grasping hook, much in the tradition of the 90s early Norwegian scene, as well as early Striborg material.

Co-released between Esfinge de la Cavalera and Hatework Propaganda.

Esfinge de la Cavalera: <br /https://www.esfingerecords.com/

Hatework Propaganda:
hatework418@outlook.de <br /[/more]

[more=Technical info]
Input File: 02. Shüräth Värnëm - A Transfiguration Through Vampyric Cruelty.mp3
Channels : 2
Sample Rate : 44100
Precision : 16-bit
Duration : 00:02:04.56 = 5492964 samples = 9341.78 CDDA sectors
File Size : 4.99M
Bit Rate : 320k
Sample Encoding: MPEG audio (layer I, II or III)
Comments :
Title=A Transfiguration Through Vampyric Cruelty
Artist=Shüräth Värnëm
Album=Nocturnal Suffering
Tracknumber=02/05
Year=2021
Genre=Raw Black Metal

[/more]

Register
(9) artscald, heinz88, INDARKNESS, kim666, Mist13Signifier, SilentNidhogg, stormhatt, vasiljev_sergej, wreak,
Jul 2 2022, 01:28:28 Morte Perpetua & Moribund & Mors Veneror - Nekrozaint Vvorship Circle: Death Rituals Of Past Darkness [split] (2019)


*Artist: Morte Perpetua & Moribund & Mors Veneror
*Album: Nekrozaint Vvorship Circle: Death Rituals Of Past Darkness [split]
*Year: 2019
*Genre: Raw Black Metal | Raw Black Metal | Raw Black Metal
*Country: International | International | United States
*Format: mp3@CBR320kbps
*Size: 60MB

Tracklist:
Morte Perpetua :
01. Untitled I 03:30
02. Untitled III 06:02

Moribund :
03. Grave Entities of Decrepit and Foul Plagues 03:51
04. To End in Obskvr Void 05:03

Mors Veneror :
05. Untitled I 08:12
******************************
Total playing time: 26:38

Preview 1

[more=Extended info]Excellent split release with three acts from this deathly international circle.
Projects of pure, infernal Raw Black Metal, each one as bleak as the other however the delivery varies.

Morte Perpetua is the more depressive and sorrowful corner of the circle, conveying the lament of the lost souls still bound to the filth of this world and present their two absolutely cursed tracks of shivering but blasting madness, that had been previously featured on the debut demo.

Moribund, a more established entity that has been thorn in the underground for 17 years presents two tracks of more old school Raw Black Metal, in the veins of Belkétrè or Irae. Scorching and vile audial madness, previously featured on "Demo II".

Mons Veneror presents here a track from his inaugural demo, "El Abismo Perpetuo". A Decrepit trance of torment and despair, slow paced to convey a madness that is akin to portuguese legends, Decrepitude.

Released on CD via Ars Ater Records.

Ars Ater Records:
[/more]

[more=Technical info]
Input File: 03. Moribund - Grave Entities of Decrepit and Foul Plagues.mp3
Channels : 2
Sample Rate : 48000
Precision : 16-bit
Duration : 00:03:50.91 = 11083536 samples ~ 17318 CDDA sectors
File Size : 9.24M
Bit Rate : 320k
Sample Encoding: MPEG audio (layer I, II or III)
Comments :
Title=Grave Entities of Decrepit and Foul Plagues
Artist=Moribund
Album=Nekrozaint VVorship Circle: Death Rituals of Past Darkness
Tracknumber=03
Year=2019
Genre=Raw Black Metal

[/more]

Register
(9) artscald, heinz88, INDARKNESS, kim666, rominow, SilentNidhogg, stormhatt, vasiljev_sergej, wreak,
Jul 2 2022, 00:51:45 Mors Veneror - El Abismo Perpetuo [demo] (2017)


*Artist: Mors Veneror
*Album: El Abismo Perpetuo [demo]
*Year: 2017
*Genre: Raw Black Metal
*Country: United States
*Format: mp3@CBR320kbps
*Size: 34MB

Tracklist:
1. Untitled I 08:13
2. Untitled II 07:29
******************************
Total playing time: 15:42

Preview 1

[more=Extended info]A raw slow paced necrotic black metal.
Label: Svart Hat Productions / Malkuth Promotion[/more]

[more=Technical info]
Input File: 02. Mors Veneror - Untitled II.mp3
Channels : 2
Sample Rate : 44100
Precision : 16-bit
Duration : 00:07:29.45 = 19820613 samples = 33708.5 CDDA sectors
File Size : 18.0M
Bit Rate : 320k
Sample Encoding: MPEG audio (layer I, II or III)
Comments :
Title=Untitled II
Artist=Mors Veneror
Album=El Abismo Perpetuo
Tracknumber=02/02
Year=2017
Genre=Raw Black Metal

[/more]

Register
(8) artscald, heinz88, kim666, Mist13Signifier, SilentNidhogg, stormhatt, vasiljev_sergej, wreak,
Jul 1 2022, 07:26:06 Mors Veneror & Funerary Temple - Mors Vocat Nos [split] (2021)


*Artist: Mors Veneror & Funerary Temple
*Album: Mors Vocat Nos [split]
*Year: 2021
*Genre: Raw Black Metal | Raw Black Metal
*Country: United States | Australia
*Format: mp3@CBR320kbps
*Size: 40MB

Tracklist:
Mors Veneror :
01. Intro I 01:04
02. Untitled III 01:55
03. Untitled IV 03:04
04. Outro I 01:54

Funerary Temple :
05. Intro-Seized with Dread 05:30
06. Bone Dust and Black Blood 04:37
******************************
Total playing time: 18:04

Preview 1

[more=Extended info]A alliance in bone dust and coffin grime by these two Raw Black Metal torchbearers.

Mors Veneror comes from the Necrosaint Worship Circle, and plays old school, dissonant and ultra lo-fi Raw Black Metal, in the vein of the LLN and acts like Moribund, early Mons Veneris and Forbidden Citadel of Spirits, spitting plagues of pestilence through the gutter vocals and slowly marking the pace of death with the primitivist drumming. All while eschewing any form of positivism towards humanity.

Funerary Temple, the project of Australibus Tenebris house boys, Necropriest and Horvaath, after three years in silence returned last year with this split and one with Psuchagōgoi. Dusting off cobwebs, they show no sign of rustiness, or rather perfect amount of it, continuing to play a mix of haunting Dark Ambient dissonance, and primitive Raw Black Metal putridity.

Released on tape through Hatework Propaganda.[/more]

[more=Technical info]
Input File: 05. Funerary Temple - Intro - Seized With Dread.mp3
Channels : 2
Sample Rate : 44100
Precision : 16-bit
Duration : 00:05:30.20 = 14561644 samples = 24764.7 CDDA sectors
File Size : 13.2M
Bit Rate : 320k
Sample Encoding: MPEG audio (layer I, II or III)
Comments :
Title=Intro - Seized With Dread
Artist=Funerary Temple
Album=Mors Vocat Nos
Tracknumber=05/06
Year=2021
Genre=Raw Black Metal

[/more]

Register
(6) artscald, kim666, SilentNidhogg, stormhatt, vasiljev_sergej, wreak,
Jun 30 2022, 22:48:28 Tovtra - Lost Streams [demo] (2021)


*Artist: Tovtra
*Album: Lost Streams [demo]
*Year: 2021
*Genre: Raw Pagan/Black Metal
*Country: Ukraine
*Format: mp3@CBR320kbps
*Size: 59MB

Tracklist:
1. Intro 1:12
2. Чарівні обійми 6:48
3. Black Runes 4:59
4. Послухай, сину 8:09
5. Рушив ясир 4:42
******************************
Total playing time: 25:50



[more=Technical info]
Input File: 02. Чарівні обійми.mp3
Channels : 2
Sample Rate : 44100
Precision : 16-bit
Duration : 00:06:48.37 = 18009205 samples = 30627.9 CDDA sectors
File Size : 16.3M
Bit Rate : 320k
Sample Encoding: MPEG audio (layer I, II or III)
Comments :
Title=Чарівні обійми
Artist=Tovtra
Album=Lost Streams
Tracknumber=02/05
Year=2021-00-00
Genre=138

[/more]

Register
(8) Altkiller, artscald, kim666, recber, SilentNidhogg, stormhatt, Vitald, wreak,
Jun 29 2022, 19:30:17 Hellfire Deathcult - Al Nombre De La Muerte (2022)
love it true_black.gif
(1) MAPhilosopher,
Jun 28 2022, 07:59:23 Wampyric Rites & Ages Of Blood - Southern Temple Of Medieval Worship [split] (2022)


*Artist: Wampyric Rites & Ages Of Blood
*Album: Southern Temple Of Medieval Worship [split]
*Year: 2022
*Genre: Black Metal | Black Metal
*Country: Ecuador | Argentina
*Format: mp3@CBR320kbps
*Size: 89MB

Tracklist:
Wampyric Rites:
01. Entre la Neblina del Olvido 02:16
02. Antiguas Ruinas de los Templos Paganos del Sur 07:26
03. En la Montaña los Viejos Arboles Lloran en Silencio 07:06
04. Penurias de la Eternidad 02:22

Ages of Blood:
05. Gathering at the Desecrated Temple 02:44
06. The Riddle of the Thousand Prophets 07:58
07. Triumphant Reign of Diabolical Mysticism 07:12
08. Returning to the Black Mausoleum 02:41
******************************
Total playing time: 39:45




[more=Technical info]
Input File: 02. Wampyric Rites - Antiguas Ruinas de los Templos Paganos del Sur1.mp3
Channels : 2
Sample Rate : 48000
Precision : 16-bit
Duration : 00:07:26.02 = 21408912 samples ~ 33451.4 CDDA sectors
File Size : 17.8M
Bit Rate : 320k
Sample Encoding: MPEG audio (layer I, II or III)
Comments :
Title=Antiguas Ruinas de los Templos Paganos del Sur1
Artist=Wampyric Rites
Album=Southern Temple of Medieval Worship
Tracknumber=02/08
Year=2022
Genre=138

[/more]

Register
(18) 666DarkReaper666, artscald, Carcharoth, caro, dermarsoran, eisigerwind, kauyumari, kefka, kim666, nemx, rammmirez, SilentNidhogg, stormhatt, supremo, VALERY, vasiljev_sergej, Vidder242, wreak,
Jun 17 2022, 18:01:17 Pissmoon - Demo III - As I Await My Final Winter... [demo] (2020)
QUOTE(recber @ Jun 17 2022, 10:00:43) *
Links dead. reload please!

added a link to Yandex to the post
(1) recber,
Jun 16 2022, 03:07:54 Pissmoon - The Path Beyond Death (2022)
all good now
(1) Storky,
Jun 15 2022, 23:20:41 Pissmoon - The Path Beyond Death (2022)


*Artist: Pissmoon
*Album: The Path Beyond Death
*Year: 2022
*Genre: Raw Black Metal
*Country: Australia
*Format: mp3@CBR320kbps
*Size: 78MB

Tracklist:
01. The Path Beyond Death ( Intro ) 2:17
02. The Death Knell 6:39
03. For Only My Flesh Shall Perish 6:17
04. Procession Over An Unmarked Grave 5:58
05. Decaying Into Each Passing Breath 6:12
06. That Which Returned from the Darkness 7:00
******************************
Total playing time: 34:23

Preview 1

[more=Extended info]Pissmoon presents its second full-length album, entitled "The Path Beyond Death". After working together on numerous releases (but most recently on Solipsism's first full length album, "Cruelty & Necrospection" in 2021) The Seer (Vocals, Keys, Guitars) and Ainul Iblis (Drums) reunite once again.

Cover art by Andrei Dzmitruk.
Pissmoon logo by Ainul Iblis.

atrocityaltar.com[/more]

[more=Technical info]
Input File: 06. Pissmoon - That Which Returned from the Darkness.mp3
Channels : 2
Sample Rate : 48000
Precision : 16-bit
Duration : 00:07:00.24 = 20171664 samples ~ 31518.2 CDDA sectors
File Size : 16.8M
Bit Rate : 320k
Sample Encoding: MPEG audio (layer I, II or III)
Comments :
Title=That Which Returned from the Darkness
Artist=Pissmoon
Album=The Path Beyond Death
Tracknumber=06/06
Year=2022
Genre=Raw Black Metal

[/more]

Register
(24) AlexSmith, alikkon, artscald, Carcharoth, caro, judaz, kim666, Mencae77, metala, Nascutmort, Olethros, OnlyDeathisReal, recber, robertho777, rominow, satanist666, SilentNidhogg, Storky, stormhatt, stub888, supremo, VALERY, vasiljev_sergej, wreak,
Jun 15 2022, 08:27:37 Putrefactio - Sigética [ep] (2022)


*Artist: Putrefactio
*Album: Sigética [ep]
*Year: 2022
*Genre: Black Metal
*Country: Chile
*Format: mp3@CBR320kbps
*Size: 23MB

Tracklist:
1. Acausal relámpago 05:49
2. Anatemismo 05:33
******************************
Total playing time: 11:22


Preview 2

[more=Extended info][/more]

[more=Technical info]
Input File: 01. Putrefactio - Acausal Relámpago.mp3
Channels : 2
Sample Rate : 48000
Precision : 16-bit
Duration : 00:04:38.50 = 13367952 samples ~ 20887.4 CDDA sectors
File Size : 11.1M
Bit Rate : 320k
Sample Encoding: MPEG audio (layer I, II or III)
Comments :
Title=Acausal Relámpago
Artist=Putrefactio
Album=Sigética
Tracknumber=01/02
Year=2022
Genre=138

[/more]

Register
(14) artscald, caro, kim666, korovakaska, LVXXVL, nemx, Olethros, SilentNidhogg, stormhatt, VALERY, vasiljev_sergej, Vitald, WOLAND, wreak,
Jun 15 2022, 07:41:24 กาฬพราย - โพธสนธยา (Bodhisandhyā) [demo] (2021)


*Artist: กาฬพราย
*Album: โพธสนธยา (Bodhisandhyā) [demo]
*Year: 2021
*Genre: Black Metal
*Country: Thailand
*Format: mp3@CBR320kbps
*Size: 81MB

Tracklist:
1. ปัจฉิมนภาลัย (The Final Skies) 02:46
2. ชาตะสนธยา (Birth of the Nadir) 08:12
3. ดอกบัวแห่งตัณหา (Lotus of Passion) 05:44
4. ศากยมาร (Sakyamara) 10:05
5. ดั่งพรายโหยหวนสุรีย์ (Like Angels Crying for the Sun) 08:02
******************************
Total playing time: 34:49


Preview 2

[more=Technical info]
Input File: 02. กาฬพราย - ชาตะสนธยา.mp3
Channels : 2
Sample Rate : 44100
Precision : 16-bit
Duration : 00:08:12.99 = 21741035 samples = 36974.5 CDDA sectors
File Size : 19.7M
Bit Rate : 320k
Sample Encoding: MPEG audio (layer I, II or III)
Comments :
Title=ชาตะสนธยา
Artist=กาฬพราย
Album=โพธสนธยา (Bodhisandhyā)
Tracknumber=02
Year=2021
Genre=138

[/more]

Register
(21) apries, artscald, Carcharoth, caro, deadterror, fuoco, kim666, kimkayoung, LVXXVL, metaljosue, Olethros, robertho777, SilentNidhogg, squall8fr, stormhatt, thenecromancer, VALERY, vasiljev_sergej, WOLAND, wreak, Yorker,
Jun 14 2022, 06:15:56 Zeffon & Zygmythkaupt - Zeffon/Zygmythkaupt [split] (2014)
Register
(1) Alexis The Best,
Jun 14 2022, 05:20:47 Forbidden Tomb - Flame Of The Iniquitous Deity (2022)


*Artist: Forbidden Tomb
*Album: Flame Of The Iniquitous Deity
*Year: 2022
*Genre: Raw Black Metal
*Country: Indonesia
*Format: mp3@CBR320kbps
*Size: 75MB

Tracklist:
1. Underneath the Decaying Aeon 01:35
2. The Enshrouded Moonlight 04:28
3. Visage of a Mournful Death 04:54
4. Flame of the Iniquitous Deity 05:05
5. Shrine of Depravity 04:58
6. Kaltemtal, the Lord of Shadows 05:07
7. Crucifixion of Burning Carrion 04:19
8. Ignis Aeterni 02:37
******************************
Total playing time: 33:03


Preview 2

[more=Technical info]
Input File: 02. Forbidden Tomb - The Enshrouded Moonlight.mp3
Channels : 2
Sample Rate : 44100
Precision : 16-bit
Duration : 00:04:28.70 = 11849802 samples = 20152.7 CDDA sectors
File Size : 10.8M
Bit Rate : 320k
Sample Encoding: MPEG audio (layer I, II or III)
Comments :
Title=The Enshrouded Moonlight
Artist=Forbidden Tomb
Album=Flame Of The Iniquitous Deity
Tracknumber=02/08
Year=2022
Genre=Raw Black Metal

[/more]

Register
(17) AlexSmith, artscald, Carcharoth, caro, dermarsoran, Ignativs, Ildjarn, kim666, Olethros, Reverend, SilentNidhogg, smysl, stormhatt, supremo, VALERY, vasiljev_sergej, wreak,
Jun 13 2022, 21:11:46 Luring - Victory Fires Ablaze Under The Banner Of Lucifer (2022)


*Artist: Luring
*Album: Victory Fires Ablaze Under The Banner Of Lucifer
*Year: 2022
*Genre: Black Metal
*Country: United States
*Format: mp3@CBR320kbps
*Size: 62MB

Tracklist:
1. Diabolus 02:32
2. Ascension of Luciferian Warriors 02:37
3. Blood Ritual 03:32
4. Howl at the Black Moon 02:44
5. Building a Pyre of Christian Bones 07:09
6. Strip Away the Flesh 03:27
7. Winter's Moon 04:17
8. Spectacle of Fear 00:47
******************************
Total playing time: 27:05


Preview 2

[more=Technical info]
Input File: 02. Luring - Ascension Of Luciferian Warriors.mp3
Channels : 2
Sample Rate : 48000
Precision : 16-bit
Duration : 00:02:37.54 = 7561872 samples ~ 11815.4 CDDA sectors
File Size : 6.31M
Bit Rate : 320k
Sample Encoding: MPEG audio (layer I, II or III)
Comments :
Title=Ascension Of Luciferian Warriors
Artist=Luring
Album=Victory Fires Ablaze Under The Banner Of Lucifer
Tracknumber=02/08
Year=2022
Genre=138

[/more]

Register
(15) AlexSmith, artscald, Carcharoth, caro, dermarsoran, kim666, Mencae77, nemx, Olethros, SilentNidhogg, stormhatt, supremo, VALERY, vasiljev_sergej, wreak,
Jun 13 2022, 07:06:07 Artifact Of Skulls - At The Gates Of Infernal Desecration [compilation] (2019)


*Artist: Artifact Of Skulls
*Album: At The Gates Of Infernal Desecration [compilation]
*Year: 2019
*Genre: Black/Death Metal
*Country: United States
*Format: mp3@CBR320kbps
*Size: 95MB

Tracklist:
01. Victory of the Baphomet's Conquest 05:18
02. Ecstasy of Diabolic Might 03:22
03. Wall of Corpses: Majestic Evil 03:56
04. The Heretic's Bone 03:48
05. Demonic Anger and Satanic Lust 04:24
06. Hymn of the Antichrist 04:33
07. Angel Desecration 02:44
08. Christian Sickness 03:50
09. Satanic Rites atop Golgotha 05:08
10. Battle Axe of Nocturnal Hatred 05:09
******************************
Total playing time: 42:12

Preview 1

[more=Extended info]Raw and blasphemous death worshipping Black/Death Metal, in the vein of Cosmic Void Ritual.

Compilation LP containing the full length albums III: Luciferian Blasphemy and IV: Brutalization of the Christ.

https://deathhymns.bigcartel.com/product/artifact-of-skulls-at-the-gates-of-infernal-desecration[/more]

[more=Technical info]
Input File: 01. Artifact Of Skulls - Victory of the Baphomet\'s Conquest.mp3
Channels : 2
Sample Rate : 44100
Precision : 16-bit
Duration : 00:05:18.89 = 14062829 samples = 23916.4 CDDA sectors
File Size : 12.8M
Bit Rate : 320k
Sample Encoding: MPEG audio (layer I, II or III)
Comments :
Title=Victory of the Baphomet's Conquest
Artist=Artifact Of Skulls
Album=At The Gates Of Infernal Desecration
Tracknumber=01/10
Year=2019
Genre=Black/Death Metal

[/more]

Register
(11) artscald, caro, dermarsoran, Olethros, Reverend, Storky, stormhatt, supremo, VALERY, vasiljev_sergej, wreak,
Jun 13 2022, 06:15:15 Mors Veneror - Las Sombras Negras De La Maldad (2022)


*Artist: Mors Veneror
*Album: Las Sombras Negras De La Maldad
*Year: 2022
*Genre: Raw Black Metal
*Country: United States
*Format: mp3@CBR320kbps
*Size: 67MB

Tracklist:
01. Intro II 02:28
02. Untitled V 05:28
03. Untitled VI 06:52
04. Interlude I 01:06
05. Untitled VII 09:12
06. Untitled VIII 04:49
07. Outro II 00:47
******************************
Total playing time: 30:42

Preview 1

[more=Extended info]Belongs to the Necrosaint Worship Circle along with Moribund, Morte Perpetua and Shüräth Värnëm.[/more]

[more=Technical info]
Input File: 05. Mors Veneror - Untitled VII (Transición Al Inframundo Como Sombras En El Vacío).mp3
Channels : 2
Sample Rate : 44100
Precision : 16-bit
Duration : 00:09:12.06 = 24345758 samples = 41404.4 CDDA sectors
File Size : 22.1M
Bit Rate : 320k
Sample Encoding: MPEG audio (layer I, II or III)
Comments :
Title=Untitled VII (Transición Al Inframundo Como Sombras En El Vacío)
Artist=Mors Veneror
Album=Las Sombras Negras De La Maldad
Tracknumber=05/07
Year=2021
Genre=Raw Black Metal

[/more]

Register
(12) AlexSmith, artscald, caro, judaz, kim666, Olethros, stormhatt, supremo, VALERY, vasiljev_sergej, wreak, Xathrites,

29 Pages V   1 2 3 > » 
- Lo-Fi Version Support form
Copyrights and abuse reports form
Time is now: 7th July 2022 - 14:09:13