Welcome Guest ( Log In | Register )

История благодарностей участнику slack ::: Спасибо сказали: 25167 раз(а)
Дата поста: В теме: За сообщение: Спасибо сказали:
Yesterday, 08:52:15 Mortalha - Reborn (2006)


*Artist: Mortalha
*Album: Reborn
*Year: 2006
*Genre: Thrash Metal
*Country: Brazil
*Format: mp3@CBR320kbps
*Size: 119MB

Tracklist:
01. Hunger 05:31
02. Guernica 04:55
03. Dejá Vù 06:32
04. Breath! 03:48
05. Octagon 04:10
06. The Enemy Within 05:06
07. Greed 03:40
08. Just Waiting to Die 03:55
09. All the Things Are Impermanent 06:05
10. Silent Rage 04:03
11. Shroud 5:02
******************************
Total playing time: 52:47

Preview 1

[more=Extended info]320 здесь нет

Первый и единственный альбом группы, играющей с 1984 года

[youtube]GxsGLkwikhY[/youtube][/more]

[more=Technical info]
Input File: 01 Hunger.mp3
Channels : 2
Sample Rate : 44100
Precision : 16-bit
Duration : 00:05:31.38 = 14614034 samples = 24853.8 CDDA sectors
File Size : 13.3M
Bit Rate : 322k
Sample Encoding: MPEG audio (layer I, II or III)
Comments :
Title=Hunger
Artist=Mortalha
Album=2006 Reborn
Tracknumber=01/11
Year=2010
Genre=Thrash Metal

[/more]

Register
(6) boby9052, Carcharoth, sergsazan, stumpheavyrock, Wail, xariton,
Jan 28 2023, 08:34:56 Mortal Pain - Mortal Pain [ep] (1992)


*Artist: Mortal Pain
*Album: Mortal Pain [ep]
*Year: 1992
*Genre: Death/Thrash Metal
*Country: Greece
*Format: mp3@CBR320kbps
*Size: 24MB

Tracklist:
01. Intro / Isolated 05:27
02. Under the Curse 05:01
******************************
Total playing time: 10:28

Preview 1


[more=Technical info]
Input File: 02 Under the Curse.mp3
Channels : 2
Sample Rate : 44100
Precision : 16-bit
Duration : 00:05:00.56 = 13254608 samples = 22541.9 CDDA sectors
File Size : 12.1M
Bit Rate : 323k
Sample Encoding: MPEG audio (layer I, II or III)
Comments :
Title=02 Under the Curse
Artist=Mortal Pain
Album=1992 Mortal Pain
Tracknumber=02/02
Year=1992
Genre=Thrash Metal

[/more]

Register
(8) artscald, boby9052, Carcharoth, metala, Reverend, stumpheavyrock, Wail, wanderer73,
Jan 26 2023, 09:32:45 Mucky Pup - Live At Mexicali [live] (2009)


*Artist: Mucky Pup
*Album: Live At Mexicali [live]
*Year: 2009
*Genre: Crossover/Thrash Metal/Hardcore
*Country: United States
*Format: mp3@CBR320kbps
*Size: 107MB

Tracklist:
01. Caddy Killer
02. Woody
03. Bushpigs
04. Batman
05. U R Nothing
06. Mr. President
07. Reagan Knew
08. Death by Cholesterol
09. Landscrapers
10. Baby
11. Three Dead Gophers
12. I Know Nobody
13. The Skinheads Broke My Walkman
14. Please Don't Burn the Johnson
15. P.T.L
16. Little Pigs
17. Hippies Hate Water
18. U-Stink-but-I-Love-U
******************************
Total playing time: 46:11


Preview 2

[more=Technical info]
Input File: 02 Woody.mp3
Channels : 2
Sample Rate : 44100
Precision : 16-bit
Duration : 00:01:48.73 = 4794993 samples = 8154.75 CDDA sectors
File Size : 4.46M
Bit Rate : 328k
Sample Encoding: MPEG audio (layer I, II or III)
Comments :
Title=Woody
Artist=Mucky Pup
Album=2009 Mucky Pup Live at Mexicali
Tracknumber=02/18
Year=2009
Genre=Hardcore

[/more]

Register
(2) artscald, Grev,
Jan 25 2023, 10:39:30 Morgue - La Crypte De L'horreur [ep] (2021)


*Artist: Morgue
*Album: La Crypte De L'horreur [ep]
*Year: 2021
*Genre: Death Metal
*Country: France
*Format: mp3@CBR320kbps
*Size: 31MB

Tracklist:
01. La Crypte De L'horreur 03:32
02. Les Yeux De Satan 03:59
03. Relentless Robore Tenebris 02:38
04. Derrière La Porte Des Ténèbres 03:14
******************************
Total playing time: 13:23

Preview 1

[more=Extended info]320 здесь нет

Собравшись в 1988 году и записав две демки, группа распалась в 1990ом
Возродившись в 2019 выпустила свой первый релиз

[youtube]A0zUZPTMsWg[/youtube][/more]

[more=Technical info]
Input File: 01 La Crypte De L'horreur.mp3
Channels : 2
Sample Rate : 44100
Precision : 16-bit
Duration : 00:03:32.94 = 9390610 samples = 15970.4 CDDA sectors
File Size : 8.60M
Bit Rate : 323k
Sample Encoding: MPEG audio (layer I, II or III)
Comments :
Title=La Crypte De L'horreur
Artist=Morgue
Album=2021 La Crypte de l'Horreur
Tracknumber=01/04
Year=2021
Genre=Death Metal

[/more]

Register
(4) artscald, stumpheavyrock, Wail, wanderer73,
Jan 22 2023, 09:01:59 Morbid Reality - Death Live [live] (2011)


*Artist: Morbid Reality
*Album: Death Live [live]
*Year: 2011
*Genre: Grindcore/Death Metal
*Country: Argentina
*Format: mp3@CBR320kbps
*Size: 70MB

Tracklist:
01. Chernovil Is Death 01:31
02. Sick Human Sufocation 01:13
03. Suicide 03:38
04. Lust from the Grave 03:49
05. Coagulated Blood 01:16
06. Infernal Cremation 02:53
07. Sore Throat (Covers) 01:27
08. Cadaveric Profanation 02:31
09. Into the Threshold of Death 05:06
10. Into the Threshold of Death 01:34
11. Burial Premature 02:51
12. Morbid Terror 02:11
******************************
Total playing time: 30:00

Preview 1

[more=Extended info]Единственный релиз, не считая бесчисленных демо, группы,
играющей с 1989 года
Альбом записан в "The Castle of Cound" in San Antonio de Padua,
Buenos Aires, Argentina in 1994

[youtube]VnygbW13KgQ[/youtube][/more]

[more=Technical info]
Input File: 02 Sick Human Sufocation.mp3
Channels : 2
Sample Rate : 44100
Precision : 16-bit
Duration : 00:01:13.49 = 3240865 samples = 5511.68 CDDA sectors
File Size : 3.03M
Bit Rate : 330k
Sample Encoding: MPEG audio (layer I, II or III)
Comments :
Title=Sick Human Sufocation
Artist=Morbid Reality
Album=2011 Death Live
Tracknumber=02/12
Year=2011
Genre=Death Metal

[/more]

Register
(5) artscald, Grev, Hell_Is_Here, supremo, wreak,
Jan 20 2023, 11:09:09 Metallica - Screaming Suicide [single] (2023)
Обложка креативная...
Остальное - лютое дерьмище
Впрочем, как уже много десятков лет
(4) DTGB, Pinhead666, Xutun, Сварог Барг,
Jan 20 2023, 11:04:19 Misanthrope - Lumières Et Obscurité EP [ep] (2012)


*Artist: Misanthrope
*Album: Lumières Et Obscurité EP [ep]
*Year: 2012
*Genre: Progressive/Melodic Death Metal
*Country: France
*Format: mp3@CBR320kbps
*Size: 77MB

Tracklist:
01. Ænigma Mystica 07:23
02. Lycaon (Omophagie communiante) 04:22
03. Les retourneurs de pierres 05:21
04. Névrose 03:51
05. Théologie du misanthrope 07:29
06. Le Haras d'Amazones 05:07
******************************
Total playing time: 33:33

Preview 1

[more=Technical info]
Input File: 01 Aenigma Mystica.mp3
Channels : 2
Sample Rate : 44100
Precision : 16-bit
Duration : 00:07:23.59 = 19562143 samples = 33269 CDDA sectors
File Size : 17.8M
Bit Rate : 322k
Sample Encoding: MPEG audio (layer I, II or III)
Comments :
Title=Aenigma Mystica
Artist=Misanthrope
Album=2012 Lumières et obscurite
Tracknumber=01/06
Year=2012
Genre=Progressive/Melodic Death Metal

[/more]

Register
(23) artscald, BERZERK, bOOLty, cancer1974, chipsgott, Emhyr var Emreis, Hell_Is_Here, infozahist, kluval, Marek, mirotvorets, Mist13Signifier, MMMMM, recber, Reverend, stumpheavyrock, supremo, thenecromancer, VALERY, Winterdark, wreak, yuratroll, Zhelezjaka,
Jan 18 2023, 10:13:45 Mucky Pup - Short Attention Span [ep] (1996)


*Artist: Mucky Pup
*Album: Short Attention Span [ep]
*Year: 1996
*Genre: Crossover/Thrash Metal/Hardcore
*Country: United States
*Format: mp3@CBR320kbps
*Size: 14MB

Tracklist:
01. Short Attention Span 2:57
02. Straightman 3:08
******************************
Total playing time: 6:05

Preview 1

[more=Technical info]
Input File: 01 Short Attention Span.mp3
Channels : 2
Sample Rate : 44100
Precision : 16-bit
Duration : 00:02:57.07 = 7808787 samples = 13280.2 CDDA sectors
File Size : 7.15M
Bit Rate : 323k
Sample Encoding: MPEG audio (layer I, II or III)
Comments :
Title=Short Attention Span
Artist=Mucky Pup
Album=1996 Short Attention Span
Tracknumber=01/02
Year=1996
Genre=Hardcore

[/more]

Register
(10) artscald, canadaspaceman, chipsgott, Grev, gwar, Mannard, METALHUNTER, metaljosue, stumpheavyrock, thenecromancer,
Jan 15 2023, 08:00:53 Metal Priest - Live 1986 Winzerhalle Köndringen [live] (2018)


*Artist: Metal Priest
*Album: Live 1986 Winzerhalle Köndringen [live]
*Year: 2018
*Genre: Heavy/Speed Metal
*Country: Germany
*Format: mp3@CBR320kbps
*Size: 105MB

Tracklist:
01. Hellglow 02:15
02. MP (Metal Priest) 03:36
03. No Heaven Tonight 05:09
04. Hawk of May 03:47
05. Out for Love 04:50
06. Rocktober Blood 05:04
07. On the Loose Again 05:34
08. Claws from the Might 04:55
09. Fight for Your Life 07:03
10. Bursting Out 03:33
******************************
Total playing time: 45:46

Preview 1


[more=Technical info]
Input File: 03 No Heaven Tonight.mp3
Channels : 2
Sample Rate : 44100
Precision : 16-bit
Duration : 00:05:10.00 = 13671000 samples = 23250 CDDA sectors
File Size : 12.6M
Bit Rate : 324k
Sample Encoding: MPEG audio (layer I, II or III)
Comments :
Title=No Heaven Tonight
Artist=MP
Album=2018 Live 1986-Winzerhalle Kondringen
Tracknumber=03/10
Year=2018
Genre=Speed Metal

[/more]

Register
(13) Alexis The Best, artscald, Bzth, Carcharoth, dimmannius, Grev, kluval, Reverend, stumpheavyrock, varlam4, Wail, witchfinder, wreak,
Jan 13 2023, 21:26:39 Новости Thrash Metal направления
Мне вот тоже не жаль...
Handle with Care
Больше слушать нечего 22.gif
(1) Samaritianin,
Jan 13 2023, 20:57:58 Malignancy - Sickness Of Society (1996)
Ну, как и обещал.
Хороший альбом.
Благодарность за сей релиз Jens Welkу басисту Malignancy за безвозмездно предоставленный альбом
(3) Albert66613, Occultas, Thrashold,
Jan 13 2023, 08:29:09 Malignancy - Sickness Of Society (1996)


*Artist: Malignancy
*Album: Sickness Of Society
*Year: 1996
*Genre: Death Metal
*Country: Germany
*Format: mp3@CBR320kbps
*Size: 106MB

Tracklist:
01. Hideous Truth
02. Keep the Purity
03. Ambiguity in Productivity
04. Born to Lose '96 / Sickness of Society
05. Inferiority Complex
06. Make Up Your Mind to It
07. Unparadonable Negligence
08. Born to Lose
09. Ballad of Death
10. Kick the Bucket
11. Hopeless World
12. Evil View
******************************
Total playing time: 47:12

Preview 1


[more=Technical info]
Input File: 01 Hideous Truth.mp3
Channels : 2
Sample Rate : 44100
Precision : 16-bit
Duration : 00:02:53.31 = 7642927 samples = 12998.2 CDDA sectors
File Size : 7.01M
Bit Rate : 323k
Sample Encoding: MPEG audio (layer I, II or III)
Comments :
Title=Hideous Truth
Artist=Malignancy
Album=1996 Sickness of Society
Tracknumber=01/12
Year=1996
Genre=Death Metal

[/more]

Register
(22) AHBAnep, andreikun, artscald, as71, boby9052, Carcharoth, Dirt_ORFEY, Hell_Is_Here, Marek, maxmagmas, METALHUNTER, Occultas, Proteus_666, stumpheavyrock, supremo, thenecromancer, Thrashold, Wail, wanderer73, wreak, WX419, Xtohar,
Jan 12 2023, 16:04:41 Malignancy - Sickness Of Society (1996)
Лютый раритет! Давно искал. Даже писал им. Жаль, что лоу...


Вот же бывают совпадения 15.gif
Не дописал это сообщение, как на почту пришло письмо от их басиста Енса с этим диском на 320!!! (до этого пол года молчал)
Завтра выложу )))

Proteus_666 не пропусти!
(3) Dmitry1977, Proteus_666, rominow,
Jan 4 2023, 10:39:56 Massacre - Headless Halloween [ep] (2022)


*Artist: Massacre
*Album: Headless Halloween [ep]
*Year: 2022
*Genre: Death Metal
*Country: United States
*Format: mp3@CBR320kbps
*Size: 17MB

Tracklist:
01. Halloween 03:26
02. Helga (Lost Her Head) (Repulsion cover) 03:40
******************************
Total playing time: 7:06

Preview 1

[more=Technical info]
Input File: 01 Halloween.mp3
Channels : 2
Sample Rate : 44100
Precision : 16-bit
Duration : 00:03:23.12 = 8957416 samples = 15233.7 CDDA sectors
File Size : 8.27M
Bit Rate : 326k
Sample Encoding: MPEG audio (layer I, II or III)
Comments :
Title=Halloween
Artist=Massacre
Album=2022 Headless Halloween
Tracknumber=01/02
Year=2022
Genre=Death Metal

[/more]

Register
(26) andreikun, artscald, canadaspaceman, Carcharoth, chipsgott, desekrator, Grev, gwar, Hell_Is_Here, Ice Gnoll, igore2911, kryptor, Lux, Marek, METALHUNTER, metaljosue, noel666, Occultas, recber, stumpheavyrock, VALERY, varlam4, vyacheslav, Wail, wanderer73, wreak,
Jan 3 2023, 08:10:23 Massacre - Casket Mutilations [ep] (2022)


*Artist: Massacre
*Album: Casket Mutilations [ep]
*Year: 2022
*Genre: Death Metal
*Country: United States
*Format: mp3@CBR320kbps
*Size: 22MB

Tracklist:
01. Springwood Slasher (Prelude) 00:41
02. Mutilated (2022) 04:46
03. Beyond the Boiler Room (Interlude) 00:59
04. Nailed into the Casket 02:57
******************************
Total playing time: 9:23

Preview 1

[more=Technical info]
Input File: 04 Nailed Into The Casket.mp3
Channels : 2
Sample Rate : 44100
Precision : 16-bit
Duration : 00:02:58.09 = 7853725 samples = 13356.7 CDDA sectors
File Size : 7.27M
Bit Rate : 326k
Sample Encoding: MPEG audio (layer I, II or III)
Comments :
Title=Nailed Into The Casket
Artist=Massacre
Album=2022 Casket Mutilations
Tracknumber=04/04
Year=2022
Genre=Death Metal

[/more]

Register
(22) artscald, Bzth, Carcharoth, desekrator, gwar, hell_armageddon, infozahist, kolar666, Marek, Max696, Mist13Signifier, NathanSS, Occultas, older68, recber, rickzammuto, stumpheavyrock, thenecromancer, varlam4, Wail, wanderer73, Xtohar,
Jan 2 2023, 08:56:20 Masacre - Live In Chile 2019 “Aniversario 30 Años” [live] (2020)


*Artist: Masacre
*Album: Live In Chile 2019 “Aniversario 30 Años” [live]
*Year: 2020
*Genre: Death Metal
*Country: Colombia
*Format: mp3@CBR320kbps
*Size: 159MB

Tracklist:
01. Cortejo Funebre
02. Slaves Of Death
03. Brutales Masacres
04. La Guerra
05. Tiempos De Guerra
06. Oh My God!!!
07. Ola De Violencia
08. Donde Habita El Mal
09. Sepulcros En Ruinas
10. Satanic Peace Agreement
11. Death Metal Forever
12. Exodo
******************************
Total playing time: 1:09:17


Preview 2

[more=Technical info]
Input File: 01 Cortejo Funebre.mp3
Channels : 2
Sample Rate : 44100
Precision : 16-bit
Duration : 00:07:14.37 = 19155497 samples = 32577.4 CDDA sectors
File Size : 17.5M
Bit Rate : 322k
Sample Encoding: MPEG audio (layer I, II or III)
Comments :
Title=Cortejo Fúnebre (En Vivo)
Artist=Masacre
Album=2020 Live in Chile 2019
Tracknumber=01/12
Year=2020
Genre=Death Metal

[/more]

Register
(12) artscald, Grev, Hell_Is_Here, noel666, Reverend, stumpheavyrock, supremo, thenecromancer, VALERY, Wail, wreak, wtk.412,
Jan 2 2023, 08:26:52 Masacre - Sangre En Mi Tierra - Muerte Total [live] (2017)


*Artist: Masacre
*Album: Sangre En Mi Tierra - Muerte Total [live]
*Year: 2017
*Genre: Death Metal
*Country: Colombia
*Format: mp3@CBR320kbps
*Size: 142MB

Tracklist:
01. Cortejo fúnebre 06:28
02. Prepárate a morir 03:18
03. Orgasmos oscuros 03:01
04. Brutales masacres 05:53
05. Oh My God!!! 04:00
06. Ola de violencia 04:40
07. Más allá del dolor 06:27
08. Battlefields 04:13
09. Sangrienta muerte 06:19
10. Sangre en mis manos 03:34
11. Víctima 03:13
12. Sepulcros en ruinas 04:14
13. Death Metal Forever 06:25
******************************
Total playing time: 1:01:45


Preview 2

[more=Extended info]Recorded live on November 10th, 2004 at Sociedad Obrera, San Salvador de Jujuy, Argentina.[/more]

[more=Technical info]
Input File: 13 Death Metal Forever.mp3
Channels : 2
Sample Rate : 44100
Precision : 16-bit
Duration : 00:06:25.00 = 16978500 samples = 28875 CDDA sectors
File Size : 15.6M
Bit Rate : 323k
Sample Encoding: MPEG audio (layer I, II or III)
Comments :
Title=Death Metal Forever (En Vivo)
Artist=Masacre
Album=2017 Sangre en Mi Tierra-Muerte Total
Tracknumber=13/13
Year=2017
Genre=Death Metal

[/more]

Register
(5) artscald, Grev, stumpheavyrock, Wail, Xtohar,
Jan 2 2023, 08:15:24 Masacre - Evil Death Live! [live] (2016)


*Artist: Masacre
*Album: Evil Death Live! [live]
*Year: 2016
*Genre: Death Metal
*Country: Colombia
*Format: mp3@CBR320kbps
*Size: 112MB

Tracklist:
01. Tiempos de guerra 04:55
02. Justicia ramera 03:14
03. Blasfemias 06:15
04. Sepulcros en ruinas 04:35
05. Cáncer de nuestros días 04:54
06. Brutales masacres 04:39
07. Ola de violencia 03:51
08. Mórbida implosión 03:49
09. Escoria 04:24
10. Cortejo fúnebre 08:06
******************************
Total playing time: 48:42


Preview 2

[more=Extended info]Recorded live at "Brutal Death Metal Manizales", Manizales - Colombia, October 19th, 1991[/more]

[more=Technical info]
Input File: 10 Cortejo Funebre.mp3
Channels : 2
Sample Rate : 44100
Precision : 16-bit
Duration : 00:08:06.00 = 21432600 samples = 36450 CDDA sectors
File Size : 19.6M
Bit Rate : 322k
Sample Encoding: MPEG audio (layer I, II or III)
Comments :
Title=Cortejo Fúnebre (En Vivo)
Artist=Masacre
Album=2016 Evil Death Live!
Tracknumber=10/10
Year=2016
Genre=Death Metal

[/more]

Register
(5) artscald, Grev, stumpheavyrock, Wail, Xtohar,
Jan 2 2023, 08:00:01 Masacre - Ola De Violencia [ep] (1991)


*Artist: Masacre
*Album: Ola De Violencia [ep]
*Year: 1991
*Genre: Death Metal
*Country: Colombia
*Format: mp3@CBR320kbps
*Size: 29MB

Tracklist:
01. Sangrienta muerte 07:04
02. Mórbida implosión 04:05
03. Decadencia 01:37
******************************
Total playing time: 12:46


Preview 2

[more=Technical info]
Input File: 01 Sangrienta Muerte.mp3
Channels : 2
Sample Rate : 44100
Precision : 16-bit
Duration : 00:06:58.93 = 18474593 samples = 31419.4 CDDA sectors
File Size : 16.9M
Bit Rate : 323k
Sample Encoding: MPEG audio (layer I, II or III)
Comments :
Title=Sangrienta Muerte
Artist=Masacre
Album=1991 Ola de Violencia
Tracknumber=01/03
Year=1991
Genre=Death Metal

[/more]

Register
(9) artscald, cancer1974, Grev, Hell_Is_Here, Reverend, thenecromancer, vyacheslav, wreak, wtk.412,
Dec 30 2022, 08:25:16 Martyr - Live In Japan [live] (2019)


*Artist: Martyr
*Album: Live In Japan [live]
*Year: 2019
*Genre: Heavy/Power/Speed Metal
*Country: Netherlands
*Format: mp3@CBR320kbps
*Size: 117MB

Tracklist:
01. 開演 02:26
02. Into the Darkest of All Realms 04:59
03. Infinity 03:59
04. Snow and Fire 05:05
05. Afterlife 06:02
06. Inch by Inch 05:08
07. Unborn Evil 05:12
08. Art of Deception 04:58
09. Speed of Samurai 07:04
10. Monster and Outtro 09:24
******************************
Total playing time: 54:17

Preview 1


[more=Technical info]
Input File: 01 Intro.mp3
Channels : 2
Sample Rate : 44100
Precision : 16-bit
Duration : 00:02:25.70 = 6425194 samples = 10927.2 CDDA sectors
File Size : 5.96M
Bit Rate : 327k
Sample Encoding: MPEG audio (layer I, II or III)
Comments :
Title=Intro (Live)
Artist=Martyr
Album=2019 Live in Japan
Tracknumber=01/10
Year=2019
Genre=Speed Metal

[/more]

Register
(7) artscald, Marek, Mogozoz, Reverend, stumpheavyrock, wreak, Xtohar,
Dec 30 2022, 07:37:40 Manos - True Life (2018)
ЦИТАТА(dead73 @ Dec 30 2022, 08:52:51) *
Исправьте ссылку

Поправил
(1) dead73,
Dec 29 2022, 12:38:05 Mucky Pup - Alive & Well [live] (1994)


*Artist: Mucky Pup
*Album: Alive & Well [live]
*Year: 1994
*Genre: Crossover/Thrash Metal/Hardcore
*Country: United States
*Format: mp3@CBR320kbps
*Size: 129MB

Tracklist:
01. Intro
02. Hippies Hate Water
03. 3 Sides
04. Band Intro
05. Deja Vu
06. Summertime
07. Baby
08. Such a Surge
09. Junkie Eyes
10. Green Jelly Sux
11. 3 Little Pigs
12. Skinheads
13. P.T.L. Intro
14. P.T.L.
15. E.V.S. Says Hi
16. E.V.S. Is God
17. Batman
18. Bass Solo
19. U Stink but I Love You
20. Soupy Goes Off
21. Outro
22. Skinheads (demo)
23. Darling Nikki (Prince cover)
24. Nothing Can Come Between Us (Sade cover)
******************************
Total playing time: 55:28

Preview 1

[more=Technical info]
Input File: 01 Intro.mp3
Channels : 2
Sample Rate : 44100
Precision : 16-bit
Duration : 00:00:20.30 = 895274 samples = 1522.57 CDDA sectors
File Size : 927k
Bit Rate : 365k
Sample Encoding: MPEG audio (layer I, II or III)
Comments :
Title=Intro
Artist=Mucky Pup
Album=1994Alive & Well
Tracknumber=01/24
Year=1994
Genre=Hardcore

[/more]

Register
(6) artscald, Grev, METALHUNTER, stumpheavyrock, wreak, Xtohar,
Dec 29 2022, 11:35:36 Manos - True Life (2018)


*Artist: Manos
*Album: True Life
*Year: 2018
*Genre: Death Metal/Grindcore
*Country: Germany
*Format: mp3@CBR320kbps
*Size: 87MB

Tracklist:
01. The Laughing Death (Intro) 01:12
02. Internal Decay 02:42
03. Annihilation 03:33
04. Big Family (Coffee Party) 02:36
05. Tetramorph 03:37
06. Erasure 03:17
07. Crusade 03:09
08. Deficits 03:17
09. True Life 04:05
10. Possession 02:50
11. Space Booze 04:36
12. Mad Noise 02:39
******************************
Total playing time: 37:33



[more=Technical info]
Input File: 02 Internal Decay.mp3
Channels : 2
Sample Rate : 44100
Precision : 16-bit
Duration : 00:02:42.00 = 7144200 samples = 12150 CDDA sectors
File Size : 6.64M
Bit Rate : 328k
Sample Encoding: MPEG audio (layer I, II or III)
Comments :
Title=Internal Decay
Artist=Manos
Album=2018 True Life
Tracknumber=02/12
Year=2018
Genre=Death Metal/Grindcore

[/more]

Register
(12) andreikun, artscald, Carcharoth, Hell_Is_Here, jollo, oldvarg, Reverend, stabilizator, supremo, vyacheslav, wreak, Xtohar,
Dec 29 2022, 11:32:05 Manos - Manos [ep] (1991)


*Artist: Manos
*Album: Manos [ep]
*Year: 1991
*Genre: Death Metal/Grindcore
*Country: Germany
*Format: mp3@CBR320kbps
*Size: 28MB

Tracklist:
01. At Mania of Death 02:18
02. Hell Phantom 01:25
03. Uprising of the Dead 01:48
04. Trade in the Blood 04:20
05. Evasion 01:46
******************************
Total playing time: 11:37

Preview 1


[more=Technical info]
Input File: 04 Trade in the Blood.mp3
Channels : 2
Sample Rate : 44100
Precision : 16-bit
Duration : 00:04:26.41 = 11748857 samples = 19981 CDDA sectors
File Size : 10.8M
Bit Rate : 325k
Sample Encoding: MPEG audio (layer I, II or III)
Comments :
Title=Trade in the Blood
Artist=Manos
Album=1991 Manos
Tracknumber=04/05
Year=1991
Genre=Death Metal/Grindcore

[/more]

Register
(9) artscald, Carcharoth, hell_armageddon, Hell_Is_Here, oldvarg, Reverend, vyacheslav, wreak, Xtohar,
Dec 29 2022, 08:56:12 Masticator - Merciless Decapitation [ep] (1991)


*Artist: Masticator
*Album: Merciless Decapitation [ep]
*Year: 1991
*Genre: Death Metal
*Country: Netherlands
*Format: mp3@CBR320kbps
*Size: 24MB

Tracklist:
01. Flames of Darkness
02. Incessant Torment
******************************
Total playing time: 10:25

Preview 1

[more=Extended info]Это 320. Rip с кассеты. Альбом выходил только на ней.

[youtube]aG_qRqcYBcI[/youtube]

[youtube]mmCGIJJkfZM[/youtube][/more]

[more=Technical info]
Input File: 01 Flames of Darkness.mp3
Channels : 2
Sample Rate : 44100
Precision : 16-bit
Duration : 00:04:45.09 = 12572601 samples = 21382 CDDA sectors
File Size : 11.5M
Bit Rate : 323k
Sample Encoding: MPEG audio (layer I, II or III)
Comments :
Title=Flames of Darkness
Artist=Masticator
Album=1991 Merciless Decapitation
Tracknumber=01/02
Year=1991
Genre=Death Metal

[/more]

Register
(7) artscald, Carcharoth, hell_armageddon, Marek, stumpheavyrock, wreak, Xtohar,

185 Pages V   1 2 3 > » 
- Lo-Fi Version Support form
Copyrights and abuse reports form
Time is now: 31st January 2023 - 17:35:27