Welcome Guest ( Log In | Register )

История благодарностей участнику slack ::: Спасибо сказали: 22537 раз(а)
Дата поста: В теме: За сообщение: Спасибо сказали:
Nov 17 2021, 09:57:40 Paradise Lost - Live At Rockpalast 1995 [live] (2019)


*Artist: Paradise Lost
*Album: Live At Rockpalast 1995 [live]
*Year: 2019
*Genre: Gothic/Doom Metal
*Country: United Kingdom
*Format: mp3@CBR320kbps
*Size: 143MB

Tracklist:
01. Enchantment 07:47
02. Widow 03:10
03. Dying Freedom 03:45
04. Forever Failure 04:25
05. Shadowkings 04:44
06. Remembrance 03:25
07. Pity the Sadness 05:10
08. Sweetness 04:25
09. Once Solemn 03:02
10. Hallowed Land 05:14
11. The Last Time 03:34
12. Embers Fire 04:57
13. As I Die 04:00
14. True Belief 04:49
******************************
Total playing time: 1:02:27

Preview 1

[more=Technical info]
Input File: 02 Widow.mp3
Channels : 2
Sample Rate : 44100
Precision : 16-bit
Duration : 00:03:10.00 = 8379000 samples = 14250 CDDA sectors
File Size : 7.65M
Bit Rate : 322k
Sample Encoding: MPEG audio (layer I, II or III)
Comments :
Title=Widow
Artist=Paradise Lost
Album=2019 Live at Rockpalast 1995
Tracknumber=02/14
Year=2019
Genre=Metal

[/more]

Register
(17) Aresson, artscald, caro, Cartman223, Hell_Is_Here, infozahist, kimkayoung, kluval, Occultas, Olethros, Reverend, stumpheavyrock, supremo, thenecromancer, VALERY, varlam4, wreak,
Nov 17 2021, 09:54:44 Paradise Lost - 3 Tracks For Free [ep] (2017)


*Artist: Paradise Lost
*Album: 3 Tracks For Free [ep]
*Year: 2017
*Genre: Gothic/Doom Metal
*Country: United Kingdom
*Format: mp3@CBR320kbps
*Size: 29MB

Tracklist:
01. The Longest Winter 04:33
02. Sell It to the World 03:25
03. Symbolic Virtue 04:37
******************************
Total playing time: 12:35

Preview 1

[more=Technical info]
Input File: 01 The Longest Winter.mp3
Channels : 2
Sample Rate : 44100
Precision : 16-bit
Duration : 00:04:31.67 = 11980427 samples = 20374.9 CDDA sectors
File Size : 11.0M
Bit Rate : 324k
Sample Encoding: MPEG audio (layer I, II or III)
Comments :
Title=The Longest Winter
Artist=Paradise Lost
Album=2017 3 Tracks For Free
Tracknumber=01/03
Year=2017
Genre=Metal

[/more]

Register
(15) artscald, boby9052, caro, Cartman223, gwar, gwynnbleid, Hell_Is_Here, infozahist, kimkayoung, kluval, Olethros, Reverend, VALERY, varlam4, wreak,
Nov 6 2021, 11:33:38 Intricate - Backwards [ep] (1991)


*Artist: Intricate
*Album: Backwards [ep]
*Year: 1991
*Genre: Thrash Metal/Crossover
*Country: Germany
*Format: mp3@CBR320kbps
*Size: 25MB

Tracklist:
01. Empty 04:10
02. Don't Laugh 03:05
03. Promises 03:13
04. Beware 02:34
******************************
Total playing time: 13:02

[more=Technical info]
Input File: 04 Beware.mp3
Channels : 2
Sample Rate : 44100
Precision : 16-bit
Duration : 00:02:34.45 = 6811377 samples = 11584 CDDA sectors
File Size : 6.26M
Bit Rate : 324k
Sample Encoding: MPEG audio (layer I, II or III)
Comments :
Title=Beware
Artist=Intricate
Album=1991 Backwards
Tracknumber=04/04
Year=1991
Genre=Thrash Metal

[/more]

Register
(14) boby9052, caro, chipsgott, gwar, HMHamster, julianotidre, Marek, metala, METALHUNTER, Olethros, Svafrlami, Winner, wreak, Z28517,
Nov 2 2021, 08:29:31 Interment - Life Here After [ep] (1991)


*Artist: Interment
*Album: Life Here After [ep]
*Year: 1991
*Genre: Death Metal
*Country: Finland
*Format: mp3@CBR320kbps
*Size: 22MB

Tracklist:
01. Developmental Defect 03:42
02. Life Here After 03:56
03. Negative Rapture 03:16
******************************
Total playing time: 10:54


Preview 2

[more=Technical info]
Input File: 03 Negative Rapture.mp3
Channels : 2
Sample Rate : 44100
Precision : 16-bit
Duration : 00:03:44.13 = 9884265 samples = 16810 CDDA sectors
File Size : 9.11M
Bit Rate : 325k
Sample Encoding: MPEG audio (layer I, II or III)
Comments :
Title=Negative Rapture
Artist=Interment
Album=1991 Life Here After
Tracknumber=03/03
Year=1991
Genre=Death Metal

[/more]

Register
(8) artscald, caro, julianotidre, Marek, Olethros, Svafrlami, vyacheslav, wreak,
Oct 27 2021, 11:20:31 Insania.11 - L'orrore (2019)


*Artist: Insania.11
*Album: L'orrore
*Year: 2019
*Genre: Thrash/Death Metal
*Country: Italy
*Format: mp3@CBR320kbps
*Size: 90MB

Tracklist:
01. Il divoratore di mondi 06:35
02. Madre dolorosa 05:45
03. Nella fossa 06:35
04. Inverno 07:49
05. Il bosco 04:12
06. La legge di Dahmer (La marcia del golem) 08:11
******************************
Total playing time: 39:07

[more=Extended info]Группа играет с 1989 года и это их первый полноформат

[youtube]OMP-asvhlK0[/youtube][/more]

[more=Technical info]
Input File: 02 Madre Dolorosa.mp3
Channels : 2
Sample Rate : 44100
Precision : 16-bit
Duration : 00:05:46.00 = 15258600 samples = 25950 CDDA sectors
File Size : 14.0M
Bit Rate : 324k
Sample Encoding: MPEG audio (layer I, II or III)
Comments :
Title=Madre Dolorosa
Artist=Insania.11
Album=2019 L'Orrore
Tracknumber=02/06
Year=2020
Genre=Thrash Metal

[/more]

Register
(13) artscald, boby9052, caro, chipsgott, julianotidre, marilin, METALHUNTER, Olethros, sergsazan, stumpheavyrock, supremo, Svafrlami, wreak,
Oct 26 2021, 07:40:51 Inquisition - Timetraveller (1998)


*Artist: Inquisition
*Album: Timetraveller
*Year: 1998
*Genre: Doom/Death Metal
*Country: Austria
*Format: mp3@CBR320kbps
*Size: 117MB

Tracklist:
01. Desire 04:06
02. Sundown 01:25
03. No. 4 05:22
04. Mindflash 05:23
05. 15. Februar 1995 07:12
06. Midnight 02:38
07. Be Your Own Saviour 05:27
08. Take the Flight 04:53
09. Der König 05:45
10. Wahn und Wirklichkeit 06:08
11. Sunrise 02:21
******************************
Total playing time: 50:40

[more=Technical info]
Input File: 07 Be Your Own Saviour.mp3
Channels : 2
Sample Rate : 44100
Precision : 16-bit
Duration : 00:05:28.22 = 14474634 samples = 24616.7 CDDA sectors
File Size : 13.3M
Bit Rate : 324k
Sample Encoding: MPEG audio (layer I, II or III)
Comments :
Title=Be Your Own Saviour
Artist=Inquisition
Album=1998 Timetraveller
Tracknumber=07/10
Year=1998
Genre=Death Metal

[/more]

Register
(23) andreikun, artscald, Buregon, caro, GorAtheist, Ildjarn, julianotidre, lacrimoza, nord6666, nsk2008, Olethros, Proteus_666, scorn33, sergsazan, Shadechaser, stumpheavyrock, supremo, Svafrlami, Taakeferd, Tino, VALERY, vyacheslav, wreak,
Oct 16 2021, 12:15:37 Sacred Thrash - Mueranse [ep] (2017)


*Artist: Sacred Thrash
*Album: Mueranse [ep]
*Year: 2017
*Genre: Thrash Metal
*Country: Argentina
*Format: mp3@CBR320kbps
*Size: 21MB

Tracklist:
01. Atrapados
02. Enemigo
03. A desalambrar (Daniel Viglietti cover)
******************************
Total playing time: 34:35

Preview 1

[more=Extended info]Группа играет без перерывов с 1988 года.

[youtube]Bt_-YnYI0oM[/youtube][/more]

[more=Technical info]
Input File: 02 Enemigo.mp3
Channels : 2
Sample Rate : 32000
Precision : 16-bit
Duration : 00:03:39.42 = 7021536 samples ~ 16456.7 CDDA sectors
File Size : 8.94M
Bit Rate : 326k
Sample Encoding: MPEG audio (layer I, II or III)
Comments :
Title=Enemigo
Artist=Sacred Thrash
Album=2017 Mueranse
Tracknumber=02/03
Year=2017
Genre=Thrash Metal

[/more]

Register
(7) artscald, boby9052, dermarsoran, Olethros, sergsazan, stumpheavyrock, Svafrlami,
Oct 16 2021, 12:09:54 Sacred Thrash - Legalizando Poder... Incrementando (1998)


*Artist: Sacred Thrash
*Album: Legalizando Poder... Incrementando
*Year: 1998
*Genre: Thrash Metal
*Country: Argentina
*Format: mp3@CBR320kbps
*Size: 77MB

Tracklist:
01. Intro
02. NN
03. 23 de julio
04. María Juana
05. Revolución armada II
06. El Eskabio
07. Revolución armada I
08. La raya
09. La diosa
10. Invasión
11. Sueño Zapatista
12. Himno del Congreso Nacional Africano
******************************
Total playing time: 34:35

Preview 1

[more=Extended info]Группа играет без перерывов с 1988 года.
Это их первый и единственный полноформат.

[youtube]IPnLdF3YPeA[/youtube][/more]

[more=Technical info]
Input File: 04 Maria Juana.mp3
Channels : 2
Sample Rate : 48000
Precision : 16-bit
Duration : 00:04:11.62 = 12077712 samples ~ 18871.4 CDDA sectors
File Size : 10.2M
Bit Rate : 325k
Sample Encoding: MPEG audio (layer I, II or III)
Comments :
Title=Maria Juana
Artist=Sacred Thrash
Album=1998 Legalizando Poder...Incrementando Miseria
Tracknumber=04/12
Year=1998
Genre=Thrash Metal

[/more]

Register
(13) artscald, boby9052, caro, dermarsoran, metala, METALHUNTER, Olethros, Proteus_666, sergsazan, stumpheavyrock, supremo, Svafrlami, wreak,
Oct 10 2021, 08:27:22 Inquisidor - Antología 1.3 (2014)


*Artist: Inquisidor
*Album: Antología 1.3
*Year: 2014
*Genre: Thrash/Speed Metal
*Country: Mexico
*Format: mp3@CBR320kbps
*Size: 141MB

Tracklist:
01. Atrapados al poder 04:39
02. Fila de muerte 03:10
03. Descansa en paz 05:30
04. El silencio llegará 04:59
05. Es mi vida 03:47
06. Fhürer 04:30
07. Cerdos enfermos de poder 03:48
08. Inquisidor 04:57
09. Jack 05:33
10. Mutilación 05:28
11. Palacio negro 04:38
12. Sobre tu cadáver 05:05
13. Transplante de cerebro 06:01
******************************
Total playing time: 1:02:05

Preview 1


[more=Technical info]
Input File: 03 Descansa en Paz.mp3
Channels : 2
Sample Rate : 44100
Precision : 16-bit
Duration : 00:05:30.00 = 14553000 samples = 24750 CDDA sectors
File Size : 13.3M
Bit Rate : 322k
Sample Encoding: MPEG audio (layer I, II or III)
Comments :
Title=Descansa en Paz
Artist=Inquisidor
Album=2014 Antologia 1.3
Tracknumber=03/13
Year=2014
Genre=Thrash Metal

[/more]

Register
(5) boby9052, Olethros, stumpheavyrock, Svafrlami, Xtohar,
Oct 8 2021, 07:53:53 Stratuz - Dawn [single] (2021)


*Artist: Stratuz
*Album: Dawn [single]
*Year: 2021
*Genre: Death Metal
*Country: Venezuela
*Format: mp3@CBR320kbps
*Size: 12MB

Tracklist:
01. Dawn 05:06
******************************
Total playing time: 5:06

Preview 1

[more=Extended info]Первый релиз с 2000 года

[youtube]BRSmFtUgghg[/youtube][/more]

[more=Technical info]
Input File: 01 Dawn.mp3
Channels : 2
Sample Rate : 44100
Precision : 16-bit
Duration : 00:05:06.00 = 13494600 samples = 22950 CDDA sectors
File Size : 12.5M
Bit Rate : 326k
Sample Encoding: MPEG audio (layer I, II or III)
Comments :
Title=Dawn
Artist=Stratuz
Album=Dawn
Tracknumber=01/01
Year=2021
Genre=Death Metal

[/more]

Register
(6) caro, chipsgott, julianotidre, Olethros, wanderer73, wreak,
Oct 8 2021, 07:49:30 Stratuz - In Nomine... (1994)


*Artist: Stratuz
*Album: In Nomine...
*Year: 1994
*Genre: Death Metal
*Country: Venezuela
*Format: mp3@CBR320kbps
*Size: 83MB

Tracklist:
01. Falling 04:20
02. Social Explosion 03:51
03. Painfull Sleep 04:39
04. Apocrypha 05:06
05. Obitus 04:37
06. Stratuz 05:18
07. Summit Of Hatred 03:15
08. Nigthmare 04:30
******************************
Total playing time: 35:36

Preview 1


[more=Technical info]
Input File: 02 Social Explotion.mp3
Channels : 2
Sample Rate : 44100
Precision : 16-bit
Duration : 00:03:51.00 = 10187100 samples = 17325 CDDA sectors
File Size : 9.37M
Bit Rate : 325k
Sample Encoding: MPEG audio (layer I, II or III)
Comments :
Title=Social Explotion
Artist=Stratuz
Album=1994 In Nomine...
Tracknumber=02/08
Year=1994
Genre=Death Metal

[/more]

Register
(17) andreikun, caro, chipsgott, jollo, metala, Mist13Signifier, Olethros, Proteus_666, smysl, stumpheavyrock, supremo, Svafrlami, VALERY, vyacheslav, wanderer73, wreak, wtk.412,
Oct 2 2021, 13:27:18 Inferia - Dickstroyer [ep] (2018)


*Artist: Inferia
*Album: Dickstroyer [ep]
*Year: 2018
*Genre: Death Metal/Grindcore
*Country: Finland
*Format: mp3@CBR320kbps
*Size: 29MB

Tracklist:
01. Dead Foreskin Mask 02:56
02. Banging 00:56
03. Sexxxes 01:19
04. Porn to Be Wild 01:03
05. Orgy 01:41
06. Enemy of the Pubic Pussyness 00:47
07. Pet Sementary 00:57
08. Wulvarine 01:04
09. The Dildomat 00:51
10. To Idiot 00:56
******************************
Total playing time: 12:30

[more=Technical info]
Input File: 03 Sexxxes.mp3
Channels : 2
Sample Rate : 48000
Precision : 16-bit
Duration : 00:01:19.03 = 3793680 samples ~ 5927.62 CDDA sectors
File Size : 3.27M
Bit Rate : 331k
Sample Encoding: MPEG audio (layer I, II or III)
Comments :
Title=Sexxxes
Artist=Inferia
Album=2018 Dickstroyer
Tracknumber=03/10
Year=2018
Genre=Death Metal

[/more]

Register
(5) caro, Olethros, Proteus_666, Taakeferd, wreak,
Oct 2 2021, 13:22:01 Inferia - Explosive Copulation [ep] (2004)


*Artist: Inferia
*Album: Explosive Copulation [ep]
*Year: 2004
*Genre: Death Metal/Grindcore
*Country: Finland
*Format: mp3@CBR320kbps
*Size: 23MB

Tracklist:
01. Distort to Pieces 01:28
02. Discharging Porn 02:19
03. Orgasm Through the Dead 03:00
04. Naked, Tasted, Crushed 03:26
05. Explosive Copulation 02:12
******************************
Total playing time: 12:25

[more=Technical info]
Input File: 02 Discharging Porn.mp3
Channels : 2
Sample Rate : 44100
Precision : 16-bit
Duration : 00:02:18.33 = 6100309 samples = 10374.7 CDDA sectors
File Size : 5.65M
Bit Rate : 327k
Sample Encoding: MPEG audio (layer I, II or III)
Comments :
Title=Discharging Porn
Artist=Inferia
Album=2004 Explosive Copulation
Tracknumber=02/05
Year=2004
Genre=Death Metal

[/more]

Register
(9) caro, Hell_Is_Here, Olethros, Proteus_666, Reverend, scrollbar, Svafrlami, Taakeferd, wreak,
Oct 2 2021, 13:18:41 Inferia - Masterpiece (1996)


*Artist: Inferia
*Album: Masterpiece
*Year: 1996
*Genre: Death Metal/Grindcore
*Country: Finland
*Format: mp3@CBR320kbps
*Size: 68MB

Tracklist:
01. Assortment Memorial 02:24
02. Covered in Semen 01:44
03. Onslet 02:05
04. Mallet Rape 02:22
05. An Image of Masturbate So Brutally 02:14
06. Unbridled Messy Perversity Revealed 02:34
07. Contusions Around the Vagina 02:08
08. Cystous Gullet 02:17
09. The Roiling of Excrement Baths 02:23
10. Illicit Intercourse 02:11
11. Mortify One's Flesh 02:17
12. Tears More than Cuts 02:40
13. Place Was Full of Bodies 01:47
******************************
Total playing time: 29:06



[more=Technical info]
Input File: 02 Covered in Semen.mp3
Channels : 2
Sample Rate : 44100
Precision : 16-bit
Duration : 00:01:44.13 = 4592265 samples = 7809.97 CDDA sectors
File Size : 4.32M
Bit Rate : 332k
Sample Encoding: MPEG audio (layer I, II or III)
Comments :
Title=Covered in Semen
Artist=Inferia
Album=1996 Masterpiece
Tracknumber=02/13
Year=1996
Genre=Death Metal

[/more]

Register
(11) andreikun, caro, Hell_Is_Here, Olethros, Proteus_666, Reverend, stumpheavyrock, supremo, Svafrlami, Taakeferd, wreak,
Oct 2 2021, 13:13:15 Inferia - Spawned At The Dawn [ep] (1993)


*Artist: Inferia
*Album: Spawned At The Dawn [ep]
*Year: 1993
*Genre: Death Metal/Grindcore
*Country: Finland
*Format: mp3@CBR320kbps
*Size: 24MB

Tracklist:
01. Under the Skin of the Split Body 02:20
02. The Art of Self-Mutilation 02:02
03. Lunatics Anal Fanatics 01:27
04. Spawned at the Dawn 02:09
05. They Bleed and Bleed 02:23
******************************
Total playing time: 10:21



[more=Technical info]
Input File: 02 The Art of Self-Mutilation.mp3
Channels : 2
Sample Rate : 44100
Precision : 16-bit
Duration : 00:02:02.00 = 5380200 samples = 9150 CDDA sectors
File Size : 5.02M
Bit Rate : 329k
Sample Encoding: MPEG audio (layer I, II or III)
Comments :
Title=The Art of Self-Mutilation
Artist=Inferia
Album=1993 Spawned at the Dawn
Tracknumber=02/05
Year=1993
Genre=Death Metal

[/more]

Register
(12) caro, hell_armageddon, Hell_Is_Here, Olethros, Reverend, rominow, Storky, stumpheavyrock, Svafrlami, Taakeferd, thenecromancer, wreak,
Sep 29 2021, 08:57:12 Transmetal - Supervivencia En El Mexico Barbaro-En Vivo [live] (2019)


*Artist: Transmetal
*Album: Supervivencia En El Mexico Barbaro-En Vivo [live]
*Year: 2019
*Genre: Thrash/Death Metal
*Country: Mexico
*Format: mp3@CBR320kbps
*Size: 125MB

Tracklist:
01. México Bárbaro
02. Dios Nos Agarre Confesados
03. Arboleda de los Ahorcados
04. El Llanto del Paraíso
05. Poder y Pudrición
06. Ángel Enfermo
07. Fariseos
08. El Mito de la Sangre
09. Miserable
10. Ceveline
11. Río Rojo
12. Elegíaco
13. Maldito Rock and Roll
******************************
Total playing time: 54:24

[more=Technical info]
Input File: 03 Arboleda de Ahorcados.mp3
Channels : 2
Sample Rate : 44100
Precision : 16-bit
Duration : 00:04:37.00 = 12215700 samples = 20775 CDDA sectors
File Size : 11.2M
Bit Rate : 324k
Sample Encoding: MPEG audio (layer I, II or III)
Comments :
Title=Arboleda de Ahorcados (En Vivo)
Artist=Transmetal
Album=2019 Supervivencia en el Mexico Barbaro (En Vivo)
Tracknumber=03/13
Year=2019
Genre=Thrash Metal

[/more]

Register
(5) kimkayoung, Olethros, Reverend, sergsazan, Xtohar,
Sep 29 2021, 08:53:15 Transmetal - Maldito Rock And Roll (2019)


*Artist: Transmetal
*Album: Maldito Rock And Roll
*Year: 2019
*Genre: Thrash/Death Metal
*Country: Mexico
*Format: mp3@CBR320kbps
*Size: 95MB

Tracklist:
01. Maldito rock and roll 04:00
02. Monarca negro 03:27
03. Tierra 05:12
04. El clavo martillado 04:06
05. De esencia negra y cruel 03:41
06. Bajo el tejado del infierno 03:40
07. Lumen de lumine 03:02
08. En el hedor de la espesa noche 03:14
09. Vestido para ir al campo santo 03:38
10. Más duro que un roble 03:04
11. Cauteriza tu alma 04:01
******************************
Total playing time: 41:05



[more=Technical info]
Input File: 03 Tierra.mp3
Channels : 2
Sample Rate : 44100
Precision : 16-bit
Duration : 00:05:12.00 = 13759200 samples = 23400 CDDA sectors
File Size : 12.6M
Bit Rate : 324k
Sample Encoding: MPEG audio (layer I, II or III)
Comments :
Title=Tierra
Artist=Transmetal
Album=2019 Maldito Rock and Roll
Tracknumber=03/11
Year=2019
Genre=Thrash Metal

[/more]

Register
(12) andreikun, caro, hornache, julianotidre, METALHUNTER, Reverend, sergsazan, supremo, Taakeferd, varlam4, vyacheslav, Wail,
Sep 24 2021, 12:44:05 Infamous Sinphony - 2013 Sampler [ep] (2013)


*Artist: Infamous Sinphony
*Album: 2013 Sampler [ep]
*Year: 2013
*Genre: Thrash Metal/Crossover
*Country: United States
*Format: mp3@CBR320kbps
*Size: 49MB

Tracklist:
01. It Only Takes a Second 03:51
02. Therapy 02:24
03. False Agenda 02:40
04. Cold Blood 02:45
05. Hypertension 02:17
06. EMBO (re-mastered) 04:46
07. Anti-Buse (re-mastered( 02:44
******************************
Total playing time: 21:27

Preview 1

[more=Technical info]
Input File: 02 Therapy.mp3
Channels : 2
Sample Rate : 44100
Precision : 16-bit
Duration : 00:02:21.41 = 6236225 samples = 10605.8 CDDA sectors
File Size : 5.80M
Bit Rate : 328k
Sample Encoding: MPEG audio (layer I, II or III)
Comments :
Title=Therapy
Artist=Infamous Sinphony
Album=2013 2013 Sampler
Tracknumber=02/07
Year=2013
Genre=Thrash Metal

[/more]

Register
(14) boby9052, canadaspaceman, caro, chipsgott, gwar, julianotidre, Marek, METALHUNTER, Olethros, stumpheavyrock, Svafrlami, varlam4, wreak, Xtohar,
Sep 20 2021, 23:48:26 AngelKill - Lady Cadaver [ep] (1995)
Yandex 320

Register
(3) NathanSS, stumpheavyrock, Xtohar,
Sep 20 2021, 10:34:18 In The Colonnades - In The Colonnades [ep] (1986)


*Artist: In The Colonnades
*Album: In The Colonnades [ep]
*Year: 1986
*Genre: Gothic/Doom/Heavy Metal
*Country: Sweden
*Format: mp3@CBR320kbps
*Size: 60MB

Tracklist:
01. Talk for an Hour 04:21
02. Black Soul 05:50
03. Beating 04:36
04. Kill the Sun 03:45
05. Fox Hill 04:53
06. Total Destruction 04:24
******************************
Total playing time: 27:49

Preview 1


[more=Technical info]
Input File: 02 Black Soul.mp3
Channels : 2
Sample Rate : 44100
Precision : 16-bit
Duration : 00:05:52.67 = 15552923 samples = 26450.5 CDDA sectors
File Size : 14.3M
Bit Rate : 324k
Sample Encoding: MPEG audio (layer I, II or III)
Comments :
Title=Black Soul
Artist=In The Colonnades
Album=1986 In The Colonnades
Tracknumber=02/06
Year=1986
Genre=Heavy Metal

[/more]

Register
(14) caro, chipsgott, julianotidre, kluval, metala, Olethros, sergsazan, Svafrlami, VALERY, varlam4, Wail, Winterdark, wreak, Xutun,
Sep 17 2021, 07:59:15 Rage - Live In Poland-February 16Th 2016 Warsaw [live] (2020)


*Artist: Rage
*Album: Live In Poland-February 16Th 2016 Warsaw [live]
*Year: 2020
*Genre: Heavy/Speed/Power Metal
*Country: Germany
*Format: mp3@CBR320kbps
*Size: 124MB

Tracklist:
01. Black in Mind 04:59
02. Sent by the Devil 06:11
03. End of All Days 05:04
04. Back in Time 05:29
05. Down 05:48
06. My Way 05:18
07. Until I Die 05:44
08. Don't Fear the Winter 04:55
09. Higher Than the Sky 10:35
******************************
Total playing time: 54:03

Preview 1

[more=Technical info]
Input File: 03 End of All Days.mp3
Channels : 2
Sample Rate : 44100
Precision : 16-bit
Duration : 00:05:03.41 = 13380205 samples = 22755.5 CDDA sectors
File Size : 12.3M
Bit Rate : 324k
Sample Encoding: MPEG audio (layer I, II or III)
Comments :
Title=End of All Days
Artist=Rage
Album=2020 Live in Poland (Live, Warsaw, February 16th 2016)
Tracknumber=03/09
Year=2020
Genre=Heavy/Speed/Power Metal

[/more]

Register
(12) Aresson, caro, dulak, infozahist, kluval, Marek, Olethros, Reverend, Rover, VALERY, Wail, wreak,
Sep 13 2021, 08:40:47 Ilti Milta - Sectors (2013)


*Artist: Ilti Milta
*Album: Sectors
*Year: 2013
*Genre: Progressive/Thrash Metal
*Country: Norway
*Format: mp3@CBR320kbps
*Size: 92MB

Tracklist:
01. Sectors Red 01:31
02. Masquerade 04:43
03. My Last Mistress 02:33
04. Maze 04:04
05. Like the Sun 04:06
06. The Ravensburger Nightmare '13 03:55
07. Vibes 04:45
08. B.O.B. 01:50
09. Love of My Life 04:20
10. Tides 07:22
11. Sector Green 01:26
******************************
Total playing time: 40:35



[more=Technical info]
Input File: 02 Masquerade.mp3
Channels : 2
Sample Rate : 44100
Precision : 16-bit
Duration : 00:04:43.00 = 12480300 samples = 21225 CDDA sectors
File Size : 11.4M
Bit Rate : 322k
Sample Encoding: MPEG audio (layer I, II or III)
Comments :
Title=Masquerade
Artist=Ilti Milta
Album=2013 Sectors
Tracknumber=02/11
Year=2013
Genre=Thrash Metal

[/more]

Register
(26) after21allD, boby9052, cancer1974, caro, grimmstone, gwar, HMHamster, kimkayoung, Marek, metala, METALHUNTER, MMMMM, Mogozoz, Olethros, Progressist, SaintVitus, Storky, stumpheavyrock, supremo, Svafrlami, thenecromancer, varlam4, Wail, wreak, Yarri, yuratroll,
Sep 13 2021, 08:35:30 Ilti Milta - Wolves (1990)


*Artist: Ilti Milta
*Album: Wolves
*Year: 1990
*Genre: Progressive/Thrash Metal
*Country: Norway
*Format: mp3@CBR320kbps
*Size: 114MB

Tracklist:
01. A Cultural Speech 03:39
02. Assimulating Disease 05:27
03. War to the Knife 06:05
04. Wolves 03:31
05. Invaders of Society 06:10
06. Survival of the Fittest 04:26
07. Notify the Situation 05:15
08. Glory, Greed & Guaranty 07:00
09. The Ravensburger Nightmare 02:44
10. The Final Step 05:22
******************************
Total playing time: 49:39



[more=Technical info]
Input File: 01 A Cultural Speech.mp3
Channels : 2
Sample Rate : 44100
Precision : 16-bit
Duration : 00:03:39.00 = 9657900 samples = 16425 CDDA sectors
File Size : 8.87M
Bit Rate : 324k
Sample Encoding: MPEG audio (layer I, II or III)
Comments :
Title=A Cultural Speech
Artist=Ilti Milta
Album=1990 Wolves
Tracknumber=01/10
Year=1990
Genre=Thrash Metal

[/more]

Register
(9) grimmstone, gwar, metala, Olethros, stumpheavyrock, Svafrlami, thenecromancer, Wail, Z28517,
Sep 10 2021, 18:41:37 Executioner - Break The Silence (1987)
Yandex 320

Register
(3) stumpheavyrock, wreak, Xtohar,
Sep 6 2021, 09:46:27 Iced Earth - 5 Songs [ep] (2011)


*Artist: Iced Earth
*Album: 5 Songs [ep]
*Year: 2011
*Genre: Power/Thrash Metal
*Country: United States
*Format: mp3@CBR320kbps
*Size: 44MB

Tracklist:
01. Anthem 04:02
02. Days of Rage 02:16
03. Declaration Day (live) 04:33
04. The Hunter (live) 03:55
05. Stormrider (live) 04:12
******************************
Total playing time: 18:58

Preview 1

[more=Technical info]
Input File: 01 Anthem.mp3
Channels : 2
Sample Rate : 32000
Precision : 16-bit
Duration : 00:04:02.32 = 7754208 samples ~ 18173.9 CDDA sectors
File Size : 9.82M
Bit Rate : 324k
Sample Encoding: MPEG audio (layer I, II or III)
Comments :
Title=Anthem
Artist=Iced Earth
Album=2011 5 Songs
Tracknumber=01/05
Year=2011
Genre=Power/Thrash Metal

[/more]

Register
(20) caro, dulak, gwar, gwynnbleid, jahbless, Kaamos, kluval, korovakaska, METALHUNTER, Olethros, Reverend, Samaritianin, Shadechaser, Svafrlami, Taakeferd, thenecromancer, VALERY, varlam4, Wail, wreak,

176 Pages V   1 2 3 > » 
- Lo-Fi Version Support form
Copyrights and abuse reports form
Time is now: 29th November 2021 - 21:46:17