Welcome Guest ( Log In | Register )

История благодарностей участнику slack ::: Спасибо сказали: 21640 раз(а)
Дата поста: В теме: За сообщение: Спасибо сказали:
May 6 2021, 10:35:46 Pentagram - Akustik (2017)


*Artist: Pentagram
*Album: Akustik
*Year: 2017
*Genre: Heavy Metal
*Country: Turkey
*Format: mp3@CBR320kbps
*Size: 131MB

Tracklist:
01. Apokalips 05:40
02. Geçmişin Yükü 05:09
03. Uzakta 04:49
04. No One Wins the Fight 04:30
05. Fly Forever 05:18
06. Gündüz Gece 04:34
07. Anatolia 04:36
08. In Esîr Like an Eagle 05:44
09. For the One Unchanging 05:31
10. Give Me Something to Kill the Pain 05:05
11. Sonsuz 05:44
******************************
Total playing time: 56:40



[more=Technical info]
Input File: 02 Gecmisin Yuku.mp3
Channels : 2
Sample Rate : 44100
Precision : 16-bit
Duration : 00:05:08.89 = 13622137 samples = 23166.9 CDDA sectors
File Size : 12.5M
Bit Rate : 324k
Sample Encoding: MPEG audio (layer I, II or III)
Comments :
Title=Gecmisin Yuku
Artist=Pentagram
Album=2017 Akustik
Tracknumber=02/11
Year=2017
Genre=Metal

[/more]

Register
(12) BladeOvDarkness, boby9052, BugEyes, chipsgott, gorven, HMHamster, infiltrator, Lukittaz, Olethros, Reverend, Rover, stumpheavyrock,
May 6 2021, 10:30:53 Pentagram - Live Mmxiv [live] (2014)


*Artist: Pentagram
*Album: Live Mmxiv [live]
*Year: 2014
*Genre: Heavy Metal
*Country: Turkey
*Format: mp3@CBR320kbps
*Size: 120MB

Tracklist:
01. Sand 06:00
02. Nevermore 06:10
03. Geçmişin Yükü 05:05
04. Beyond Insanity 04:18
05. Doğmadan Önce 05:05
06. Wasteland 05:49
07. Dawn Again 04:33
08. Disturbing the Peace 04:07
09. Uzakta 04:46
10. Apokalips 06:47
******************************
Total playing time: 52:40



[more=Technical info]
Input File: 01 Sand.mp3
Channels : 2
Sample Rate : 44100
Precision : 16-bit
Duration : 00:06:01.04 = 15921644 samples = 27077.6 CDDA sectors
File Size : 14.6M
Bit Rate : 323k
Sample Encoding: MPEG audio (layer I, II or III)
Comments :
Title=Sand (Jolly Joker, 21 Eylul 2013 Ankara)
Artist=Pentagram
Album=2014 Live MMXIV
Tracknumber=01/10
Year=2014
Genre=Heavy Metal

[/more]

Register
(3) HMHamster, infiltrator, Reverend,
May 6 2021, 10:23:44 Pentagram - Popcular Disari [live] (1997)


*Artist: Pentagram
*Album: Popcular Disari [live]
*Year: 1997
*Genre: Heavy Metal
*Country: Turkey
*Format: mp3@CBR320kbps
*Size: 120MB

Tracklist:
01. Intro 02:43
02. Before the Veil 01:40
03. Behind the Veil 04:35
04. Welcome the End 03:59
05. No one Wins the Fight 04:24
06. Give Me Something to Kill the Pain 04:23
07. Vita es Morte 07:16
08. Gündüz Gece 03:12
09. Black Magic (Slayer cover) 04:16
10. Rotten Dogs 03:46
11. 999 01:42
12. 1000 in the Eastland 06:02
13. Anatolia (Turkish) 05:08
******************************
Total playing time: 53:06



[more=Technical info]
Input File: 02 Before the veil.mp3
Channels : 2
Sample Rate : 44100
Precision : 16-bit
Duration : 00:01:40.66 = 4439018 samples = 7549.35 CDDA sectors
File Size : 4.14M
Bit Rate : 329k
Sample Encoding: MPEG audio (layer I, II or III)
Comments :
Title=Before the veil
Artist=Pentagram
Album=1997 Popcular Disari
Tracknumber=02/13
Year=1997
Genre=Metal

[/more]

Register
(4) HMHamster, infiltrator, Olethros, Reverend,
May 6 2021, 10:17:07 Pentagram - Trail Blazer (1992)


*Artist: Pentagram
*Album: Trail Blazer
*Year: 1992
*Genre: Thrash Metal
*Country: Turkey
*Format: mp3@CBR320kbps
*Size: 150MB

Tracklist:
01. Secret Missile 06:50
02. Livin' on Lies 04:24
03. Trail Blazer 04:14
04. Vita es Morte 07:14
05. Fly Forever 06:24
06. Time Bomb 06:21
07. Over the Line 04:02
08. The Planet 03:48
09. Brain on the Wall 03:12
10. No One Wins the Fight 06:21
11. Vita es Morte (Live) 09:37
12. Powerstage (Live) 04:10
******************************
Total playing time: 1:06:37



[more=Technical info]
Input File: 02 Livin' On Lies.mp3
Channels : 2
Sample Rate : 44100
Precision : 16-bit
Duration : 00:04:24.30 = 11655542 samples = 19822.4 CDDA sectors
File Size : 10.7M
Bit Rate : 325k
Sample Encoding: MPEG audio (layer I, II or III)
Comments :
Title=Livin' On Lies
Artist=Pentagram
Album=1992 Trail Blazer
Tracknumber=02/12
Year=1992
Genre=Thrash Metal

[/more]

Register
(7) andreikun, gwar, hell_armageddon, infiltrator, Olethros, Reverend, wtk.412,
May 6 2021, 10:10:33 Pentagram - Pentagram (1990)


*Artist: Pentagram
*Album: Pentagram
*Year: 1990
*Genre: Thrash Metal
*Country: Turkey
*Format: mp3@CBR320kbps
*Size: 89MB

Tracklist:
01. Intro (Wreck) 01:26
02. Rotten Dogs 03:19
03. Mephistopheles 03:06
04. Metal Not Dead 02:20
05. Astharoth 04:21
06. Bloody Guillotine 03:55
07. Powerstage 05:01
08. Dimensions of Death 05:03
09. Pentagram 04:27
10. Deceptive Bells 03:37
11. Los Magandos 02:55
******************************
Total playing time: 39:30



[more=Technical info]
Input File: 02 Mephistopheles.mp3
Channels : 2
Sample Rate : 44100
Precision : 16-bit
Duration : 00:03:06.11 = 8207407 samples = 13958.2 CDDA sectors
File Size : 7.55M
Bit Rate : 325k
Sample Encoding: MPEG audio (layer I, II or III)
Comments :
Title=Mephistopheles
Artist=Pentagram
Album=1990 Pentagram
Tracknumber=02/10
Year=1990
Genre=Thrash Metal

[/more]

Register
(8) andreikun, gwar, hell_armageddon, infiltrator, lunaraurora, Olethros, Reverend, wtk.412,
Apr 21 2021, 12:27:12 Kazjurol - Multi Dead World (2019)


*Artist: Kazjurol
*Album: Multi Dead World
*Year: 2019
*Genre: Speed/Thrash Metal
*Country: Sweden
*Format: mp3@CBR320kbps
*Size: 77MB

Tracklist:
01. A System Monolithic 03:57
02. Altered States (Of Mind) 03:13
03. Bloodstorm 03:07
04. Suicide Solution 03:03
05. Burn Beyond 02:45
06. Multi Dead World 03:22
07. Merciless Insanity 05:29
08. Human Force 02:35
09. Who Needs You 03:09
10. Stagedive to Hell 02:45
******************************
Total playing time: 33:25

[more=Extended info]Первый альбом группы за 28 лет

[youtube]Vp6eLOTM15w[/youtube][/more]

[more=Technical info]
Input File: 02 Altered State (Of Mind).mp3
Channels : 2
Sample Rate : 44100
Precision : 16-bit
Duration : 00:03:14.00 = 8555400 samples = 14550 CDDA sectors
File Size : 7.91M
Bit Rate : 326k
Sample Encoding: MPEG audio (layer I, II or III)
Comments :
Title=Altered State (Of Mind)
Artist=Kazjurol
Album=2019 Multi Dead World
Tracknumber=02/12
Year=2019
Genre=Thrash Metal

[/more]

Register
(12) aviacademy, boby9052, gwar, hell_armageddon, HMHamster, infiltrator, Marek, Mogozoz, Olethros, varlam4, Vladimir, Xtohar,
Apr 12 2021, 07:01:25 Ghusa - Letter To My Son'(S) (2006)


*Artist: Ghusa
*Album: Letter To My Son'(S)
*Year: 2006
*Genre: Death Metal
*Country: France
*Format: mp3@CBR320kbps
*Size: 93MB

Tracklist:
01. The Nail
02. I'm Not the Only One
03. Letter to My Son'(s)
04. Violation Domain (Benediction cover)
05. Nechama (The Jon's Song)
06. Choix Ponctuel
07. The Color
08. The Wind
09. Silence
******************************
Total playing time: 40:53

[more=Technical info]
Input File: 02 I\'m Not the Only One.mp3
Channels : 2
Sample Rate : 44100
Precision : 16-bit
Duration : 00:04:24.26 = 11653954 samples = 19819.6 CDDA sectors
File Size : 10.7M
Bit Rate : 324k
Sample Encoding: MPEG audio (layer I, II or III)
Comments :
Title=I'm Not the Only One
Artist=ghUSa
Album=2006 Letter to My Son'(s)
Tracknumber=02/09
Year=2006
Genre=Death Metal

[/more]

Register
(8) andreikun, canco994, infiltrator, Olethros, stumpheavyrock, varlam4, vyacheslav, wanderer73,
Apr 11 2021, 08:25:08 Post Mortem Depression - Addictions (1990)


*Artist: Post Mortem Depression
*Album: Addictions
*Year: 1990
*Genre: Thrash Metal/Crossover
*Country: New Zealand
*Format: mp3@CBR320kbps
*Size: 70MB

Tracklist:
01. Mushroom War 02:48
02. Rise and Still Rising 03:44
03. Revenge 06:05
04. Worship 03:30
05. Gravesite 04:09
06. Naked Doom 04:25
07. Death Warmed Up 03:39
08. Head 03:39
******************************
Total playing time: 31:59

Preview 1

[more=Technical info]
Input File: 02 Rise and Still Rising.mp3
Channels : 2
Sample Rate : 32000
Precision : 16-bit
Duration : 00:03:45.36 = 7211616 samples ~ 16902.2 CDDA sectors
File Size : 9.17M
Bit Rate : 326k
Sample Encoding: MPEG audio (layer I, II or III)
Comments :
Title=Rise and Still Rising
Artist=Post Mortem Depression
Album=1990 Addictions
Tracknumber=02/08
Year=1990
Genre=Thrash Metal

[/more]

Register
(14) atavist, boby9052, gwar, hell_armageddon, HMHamster, infiltrator, Marek, metala, Olethros, stumpheavyrock, Thrashold, varlam4, WX419, Xtohar,
Apr 9 2021, 10:07:06 Ghoul - 1984 - 1989 [compilation] (2004)


*Artist: Ghoul
*Album: 1984 - 1989 [compilation]
*Year: 2004
*Genre: Thrash/Speed Metal/Crossover, Hardcore Punk
*Country: Japan
*Format: mp3@CBR320kbps
*Size: 115MB

Tracklist:
01. Goddamned 02:21
02. Dance & Fight 02:32
03. Street Gangs 02:14
04. Carry Out Fucking 02:29
05. Question 02:26
06. Jerusalem 04:50
07. Intro 01:30
08. Gate of Black Child 02:24
09. Be Alive or Dead 03:14
10. Oi! Oi! Oi! 03:47
11. ? (Live Version) 04:42
12. Death City 02:43
13. Flash Back 03:14
14. Take Care of Yourself 02:43
15. The Game of Death 03:38
16. No Slave on Earth 03:31
17. Goddamned 01:46
******************************
Total playing time: 50:04

Preview 1


[more=Technical info]
Input File: 02 Dance & Fight.mp3
Channels : 2
Sample Rate : 44100
Precision : 16-bit
Duration : 00:02:32.78 = 6737378 samples = 11458.1 CDDA sectors
File Size : 6.15M
Bit Rate : 322k
Sample Encoding: MPEG audio (layer I, II or III)
Comments :
Title=Dance & Fight
Artist=Ghoul
Album=1984-1989
Tracknumber=02/17
Year=2004

[/more]

Register
(17) Borya_Tvorogov, canadaspaceman, dermarsoran, fishish, fuoco, gwar, HMHamster, infiltrator, kimkayoung, marilin, Olethros, Reverend, stumpheavyrock, Thrashold, varlam4, Wail, WX419,
Apr 9 2021, 10:03:15 Ghoul - Jerusalm [ep] (1985)


*Artist: Ghoul
*Album: Jerusalm [ep]
*Year: 1985
*Genre: Thrash/Speed Metal/Crossover, Hardcore Punk
*Country: Japan
*Format: mp3@CBR320kbps
*Size: 28MB

Tracklist:
01. Jerusalm 04:49
02. Intro 01:29
03. Gate of Black Child 02:23
04. Be Alive or Dead 03:13
******************************
Total playing time: 11:54

Preview 1


[more=Technical info]
Input File: 03 Gate Of Black Child.mp3
Channels : 2
Sample Rate : 44100
Precision : 16-bit
Duration : 00:02:30.87 = 6653279 samples = 11315.1 CDDA sectors
File Size : 6.15M
Bit Rate : 326k
Sample Encoding: MPEG audio (layer I, II or III)
Comments :
Title=Gate Of Black Child
Artist=Ghoul
Album=1985 Jerusalm
Tracknumber=03/04
Year=2004
Genre=Thrash Metal

[/more]

Register
(14) boby9052, Borya_Tvorogov, canadaspaceman, dermarsoran, fishish, gwar, HMHamster, infiltrator, kimkayoung, marilin, Olethros, Reverend, varlam4, Wail,
Apr 9 2021, 10:00:09 Ghoul - Carry Out Fucking [ep] (1984)


*Artist: Ghoul
*Album: Carry Out Fucking [ep]
*Year: 1984
*Genre: Thrash/Speed Metal/Crossover, Hardcore Punk
*Country: Japan
*Format: mp3@CBR320kbps
*Size: 27MB

Tracklist:
01. Goddumnd!! 02:21
02. Dance & Fight 02:31
03. Street Gangs' 02:13
04. Carry Out Fucking 02:28
05. Question 08:18
******************************
Total playing time: 17:51

Preview 1


[more=Technical info]
Input File: 02 Dance & Fight.mp3
Channels : 2
Sample Rate : 44100
Precision : 16-bit
Duration : 00:02:32.78 = 6737378 samples = 11458.1 CDDA sectors
File Size : 6.26M
Bit Rate : 328k
Sample Encoding: MPEG audio (layer I, II or III)
Comments :
Title=Dance & Fight
Artist=Ghoul
Album=1984 Carry Out Fucking
Tracknumber=02/05
Year=1984
Genre=Thrash Metal

[/more]

Register
(15) boby9052, Borya_Tvorogov, canadaspaceman, dermarsoran, fishish, gwar, HMHamster, infiltrator, kimkayoung, marilin, Olethros, Reverend, varlam4, Wail, Zhelezjaka,
Apr 4 2021, 12:22:35 Genoa - We Got A Bomb [ep] (1990)


*Artist: Genoa
*Album: We Got A Bomb [ep]
*Year: 1990
*Genre: Thrash Metal
*Country: Japan
*Format: mp3@CBR320kbps
*Size: 34MB

Tracklist:
01. New Years Day (U2 cover) 03:11
02. Black Licorice (Grand Funk Railroad cover) 03:49
03. Light My Fire (The Doors cover) 02:15
04. Paint It Black (The Rolling Stones cover) 02:38
05. Centerfold (J. Geils Band cover) 02:38
******************************
Total playing time: 14:31

Preview 1


[more=Technical info]
Input File: 02 Black Licorice (Grand Funk Railroad cover).mp3
Channels : 2
Sample Rate : 44100
Precision : 16-bit
Duration : 00:03:50.13 = 10148645 samples = 17259.6 CDDA sectors
File Size : 9.35M
Bit Rate : 325k
Sample Encoding: MPEG audio (layer I, II or III)
Comments :
Title=Black Licorice (Grand Funk Railroad cover)
Artist=Genoa
Album=1990 We Got a Bomb
Tracknumber=02/05
Year=1990
Genre=Thrash Metal

[/more]

Register
(11) boby9052, gwar, hell_armageddon, HMHamster, infiltrator, marilin, METALHUNTER, Mogozoz, Olethros, sergsazan, varlam4,
Apr 3 2021, 11:56:41 Genital Putrefaction - Stworzony Przez Bogów (2012)


*Artist: Genital Putrefaction
*Album: Stworzony Przez Bogów
*Year: 2012
*Genre: Death Metal
*Country: Poland
*Format: mp3@CBR320kbps
*Size: 106MB

Tracklist:
01. Intro 01:24
02. Cierpienie 04:49
03. Powrócę 03:36
04. Stworzony przez bogów 04:48
05. Śmierć 04:16
06. Okaleczone umysły 01:38
07. Wyznanie 03:10
08. Rozkoszne zło 05:38
09. Cienie z ciemności 05:01
10. Sabbath 02:13
11. Nie-wiara 05:01
12. Deformacja ducha 04:29
******************************
Total playing time: 46:03

[more=Extended info]Единственный альбом поляков, играющих ещё с 80х

[youtube]uFMM0xonw5E[/youtube][/more]

[more=Technical info]
Input File: 02 Cierpienie.mp3
Channels : 2
Sample Rate : 44100
Precision : 16-bit
Duration : 00:04:48.93 = 12741945 samples = 21670 CDDA sectors
File Size : 11.7M
Bit Rate : 323k
Sample Encoding: MPEG audio (layer I, II or III)
Comments :
Title=Cierpienie
Artist=Genital Putrefaction
Album=2012 Stworzony Przez Bogow
Tracknumber=02/12
Year=2012
Genre=Death Metal

[/more]

Register
(16) AHBAnep, alikkon, andreikun, caro, infiltrator, jollo, Moonshtook, Olethros, randumbum, rominow, Storky, VALERY, varlam4, vyacheslav, wtk.412, Yngwarr,
Mar 27 2021, 14:36:11 Gargullas - Secrets Of Eternity [ep] (1993)


*Artist: Gargullas
*Album: Secrets Of Eternity [ep]
*Year: 1993
*Genre: Death Metal
*Country: Brazil
*Format: mp3@CBR320kbps
*Size: 22MB

Tracklist:
01. Intro/Sacred Faces 04:03
02. P.C.D. 00:09
03. The Secret of Eternity 03:14
04. Sign of Blood 02:09
******************************
Total playing time: 9:35

[more=Technical info]
Input File: 03 The Secret of Eternity.mp3
Channels : 2
Sample Rate : 32000
Precision : 16-bit
Duration : 00:03:14.19 = 6213984 samples ~ 14564 CDDA sectors
File Size : 7.91M
Bit Rate : 326k
Sample Encoding: MPEG audio (layer I, II or III)
Comments :
Title=The Secret of Eternity
Artist=Gargullas
Album=1993 Secrets of Eternity
Tracknumber=03/04
Year=1993
Genre=Death Metal

[/more]

Register
(15) caro, cesar, Evilded, infiltrator, nord6666, Olethros, randumbum, scorpionmk, Storky, stumpheavyrock, Taakeferd, Thrashold, varlam4, vyacheslav, Yngwarr,
Mar 27 2021, 12:22:10 Gamma Ray - Lust For Live [live] (2016)


*Artist: Gamma Ray
*Album: Lust For Live [live]
*Year: 2016
*Genre: Power/Speed Metal
*Country: Germany
*Format: mp3@CBR320kbps
*Size: 130MB

Tracklist:
01. Intro 00:26
02. Tribute to the Past 04:58
03. No Return 04:01
04. Space Eater 04:40
05. Changes 05:19
06. Insanity and Genius 04:09
07. Last Before the Storm 04:12
08. Heal Me 07:07
09. I Want Out / Future World / Ride the Sky 04:12
10. Future Madhouse 04:09
11. Heading for Tomorrow / Dream Healer 08:19
12. Gamma Ray 05:28
******************************
Total playing time: 57:00

Preview 1

[more=Technical info]
Input File: 03 No Return.mp3
Channels : 2
Sample Rate : 44100
Precision : 16-bit
Duration : 00:04:01.64 = 10656324 samples = 18123 CDDA sectors
File Size : 9.80M
Bit Rate : 324k
Sample Encoding: MPEG audio (layer I, II or III)
Comments :
Title=No Return
Artist=Gamma Ray
Album=2016 Lust For Live
Tracknumber=03/12
Year=2016
Genre=Power/Speed Metal

[/more]

Register
(11) AHBAnep, infiltrator, kimkayoung, Olethros, randumbum, Rover, Taakeferd, thenecromancer, varlam4, vir2al, wn129aa,
Mar 27 2021, 12:19:13 Gamma Ray - Power Plant [ep] (1999)


*Artist: Gamma Ray
*Album: Power Plant [ep]
*Year: 1999
*Genre: Power/Speed Metal
*Country: Germany
*Format: mp3@CBR320kbps
*Size: 43MB

Tracklist:
01. It's A Sin 04:57
02. Short As Hell 04:24
03. Send Me A Sign 04:05
04. Heavy Metal Universe 05:23
******************************
Total playing time: 18:49

Preview 1

[more=Technical info]
Input File: 02 Short As Hell.mp3
Channels : 2
Sample Rate : 44100
Precision : 16-bit
Duration : 00:03:57.26 = 10463166 samples = 17794.5 CDDA sectors
File Size : 9.64M
Bit Rate : 325k
Sample Encoding: MPEG audio (layer I, II or III)
Comments :
Title=Short As Hell
Artist=Gamma Ray
Album=1999 Powerplant EP
Tracknumber=02/04
Year=1999
Genre=Power/Speed Metal

[/more]

Register
(9) caro, gwar, infiltrator, Olethros, randumbum, robertho777, stumpheavyrock, Taakeferd, varlam4,
Mar 18 2021, 08:01:37 Funny Farm - Biting The Hand (1995)


*Artist: Funny Farm
*Album: Biting The Hand
*Year: 1995
*Genre: Groove/Thrash Metal
*Country: Norway
*Format: mp3@CBR320kbps
*Size: 103MB

Tracklist:
01. Rise 02:43
02. Comb-out 04:40
03. Eye for an Eye 04:42
04. Insult to Injury 04:35
05. Lifesupport 05:05
06. Payday 03:55
07. Battered 04:06
08. Survival of the Fattest 04:07
09. Bite the Hand That Feeds 04:08
10. Rejuvenation 03:24
11. The Rookie 03:53
******************************
Total playing time: 45:18



[more=Technical info]
Input File: 02 Comb-Out.mp3
Channels : 2
Sample Rate : 44100
Precision : 16-bit
Duration : 00:04:40.00 = 12348000 samples = 21000 CDDA sectors
File Size : 11.3M
Bit Rate : 324k
Sample Encoding: MPEG audio (layer I, II or III)
Comments :
Title=Comb-Out
Artist=Funny Farm
Album=1995 Biting the Hand
Tracknumber=02/11
Year=1995
Genre=Thrash Metal

[/more]

Register
(9) boby9052, chipsgott, gwar, HMHamster, infiltrator, Olethros, stumpheavyrock, Tino, varlam4,
Mar 18 2021, 07:58:22 Funny Farm - Potential Hazard [ep] (1994)


*Artist: Funny Farm
*Album: Potential Hazard [ep]
*Year: 1994
*Genre: Groove/Thrash Metal
*Country: Norway
*Format: mp3@CBR320kbps
*Size: 55MB

Tracklist:
01. Abused 03:39
02. Potentail Hazard 03:57
03. Staus: Low 04:01
04. Workaholic 03:22
05. Life-Cut 05:09
06. Voyage of Sorrow 04:06
******************************
Total playing time: 24:14



[more=Technical info]
Input File: 02 Potential Hazard.mp3
Channels : 2
Sample Rate : 44100
Precision : 16-bit
Duration : 00:03:57.00 = 10451700 samples = 17775 CDDA sectors
File Size : 9.60M
Bit Rate : 324k
Sample Encoding: MPEG audio (layer I, II or III)
Comments :
Title=Potential Hazard
Artist=Funny Farm
Album=1994 Potential Hazard
Tracknumber=02/06
Year=1994
Genre=Thrash Metal

[/more]

Register
(10) boby9052, chipsgott, gwar, hell_armageddon, HMHamster, infiltrator, Olethros, stumpheavyrock, Tino, varlam4,
Mar 14 2021, 23:25:32 Funeral Nation - Funeral Nation [ep] (2017)


*Artist: Funeral Nation
*Album: Funeral Nation [ep]
*Year: 2017
*Genre: Death/Thrash Metal
*Country: United States
*Format: mp3@CBR320kbps
*Size: 27MB

Tracklist:
01. Laceration 03:17
02. Before the Dawn 04:58
03. Funeral Nation 03:42
******************************
Total playing time: 11:57


Preview 2

[more=Technical info]
Input File: 01 Laceration.mp3
Channels : 2
Sample Rate : 32000
Precision : 16-bit
Duration : 00:03:15.99 = 6271584 samples ~ 14699 CDDA sectors
File Size : 7.95M
Bit Rate : 324k
Sample Encoding: MPEG audio (layer I, II or III)
Comments :
Title=Laceration
Artist=Funeral Nation
Album=2017 Funeral Nation
Tracknumber=01/03
Year=2017
Genre=Death/Thrash Metal

[/more]

Register
(16) boby9052, canadaspaceman, caro, Diflock, infiltrator, Kaotik, Olethros, Proteus_666, sergsazan, smysl, troll_swamp, Unknown, VALERY, varlam4, wanderer73, wtk.412,
Feb 23 2021, 07:06:12 Filthy Charity - Disgrace Of The Earth [ep] (1995)


*Artist: Filthy Charity
*Album: Disgrace Of The Earth [ep]
*Year: 1995
*Genre: Death Metal/Grindcore
*Country: France
*Format: mp3@CBR320kbps
*Size: 26MB

Tracklist:
01. Choose Your Way
02. Warshit
03. War Is Big Business
04. Destroy!
05. Over the Chaos
06. Un Jour De Plus
******************************
Total playing time: 10:53

Preview 1


[more=Technical info]
Input File: 02 Warshit.mp3
Channels : 2
Sample Rate : 44100
Precision : 16-bit
Duration : 00:01:27.86 = 3874494 samples = 6589.28 CDDA sectors
File Size : 3.65M
Bit Rate : 332k
Sample Encoding: MPEG audio (layer I, II or III)
Comments :
Title=Warshit
Artist=Filthy Charity
Album=1995 Disgrace of the Earth
Tracknumber=02/06
Year=1995
Genre=Death Metal/Grindcore

[/more]

Register
(8) infiltrator, Olethros, stumpheavyrock, Taakeferd, VALERY, varlam4, wreak, Zhelezjaka,
Feb 20 2021, 20:30:18 Festerday - Cadaveric Virginity [ep] (2018)


*Artist: Festerday
*Album: Cadaveric Virginity [ep]
*Year: 2018
*Genre: Death Metal
*Country: Finland
*Format: mp3@CBR320kbps
*Size: 12MB

Tracklist:
01. The Ones Who Strangle Stars and Suns 04:06
02. Let the Sun Vomit Its Beams upon Your Cold Swollen Skin 01:11
******************************
Total playing time: 5:17

Preview 1


[more=Technical info]
Input File: 01 The Ones Who Strangle Stars and Suns.mp3
Channels : 2
Sample Rate : 44100
Precision : 16-bit
Duration : 00:04:07.00 = 10892700 samples = 18525 CDDA sectors
File Size : 10.0M
Bit Rate : 325k
Sample Encoding: MPEG audio (layer I, II or III)
Comments :
Title=The Ones Who Strangle Stars and Suns
Artist=Festerday
Album=2018 Cadaveric Virginity
Tracknumber=01/02
Year=2018
Genre=Death Metal

[/more]

Register
(18) BERZERK, Boozer, caro, chipsgott, GorAtheist, Hell_Is_Here, infiltrator, nord6666, Occultas, Olethros, Purestenchkvlt, stumpheavyrock, thenecromancer, Tino, varlam4, wanderer73, wreak, Yngwarr,
Feb 20 2021, 20:27:24 Festerday - Defile, Deflesh, Devour [ep] (2018)


*Artist: Festerday
*Album: Defile, Deflesh, Devour [ep]
*Year: 2018
*Genre: Death Metal
*Country: Finland
*Format: mp3@CBR320kbps
*Size: 9MB

Tracklist:
01. A Tree of Poison 03:02
02. Faeces 00:56
******************************
Total playing time: 3:58

Preview 1


[more=Technical info]
Input File: 01 A Tree of Poison.mp3
Channels : 2
Sample Rate : 44100
Precision : 16-bit
Duration : 00:03:02.00 = 8026200 samples = 13650 CDDA sectors
File Size : 7.44M
Bit Rate : 327k
Sample Encoding: MPEG audio (layer I, II or III)
Comments :
Title=A Tree of Poison
Artist=Festerday
Album=2018 Defile, Deflesh, Devour
Tracknumber=01/02
Year=2018
Genre=Death Metal

[/more]

Register
(17) BERZERK, Boozer, caro, chipsgott, GorAtheist, Hell_Is_Here, infiltrator, nord6666, Occultas, Olethros, Purestenchkvlt, thenecromancer, Tino, varlam4, wanderer73, wreak, Yngwarr,
Feb 16 2021, 09:40:59 Goatlord - Goatlord (1992)


*Artist: Goatlord
*Album: Goatlord
*Year: 1992
*Genre: Black/Death/Doom Metal
*Country: United States
*Format: mp3@CBR320kbps
*Size: 115MB

Tracklist:
01. Voodoo Mass 07:00
02. Blood Monk 05:53
03. Distorted Birth 06:58
04. The Fog 06:55
05. Underground Church 04:34
06. Chicken Dance 03:50
07. Acid Orgy 05:42
08. Possessed Soldiers of War 05:17
09. Sacrifice 04:20
******************************
Total playing time: 50:29

Preview 1


[more=Technical info]
Input File: 02 Blood Monk.mp3
Channels : 2
Sample Rate : 44100
Precision : 16-bit
Duration : 00:05:53.00 = 15567300 samples = 26475 CDDA sectors
File Size : 14.3M
Bit Rate : 323k
Sample Encoding: MPEG audio (layer I, II or III)
Comments :
Title=Blood Monk
Artist=Goatlord
Album=1992 Goatlord
Tracknumber=02/09
Year=1992
Genre=Black/Death Metal

[/more]

Register
(28) caro, DarkHorde, dromord, fishish, FUDEDOR, fuoco, ger_man_thorn, Hell_Is_Here, infiltrator, KKK1488, kryptor, lacrimoza, marilin, metala, MMMMM, Moonshtook, multizwilling, Olethros, randumbum, sacrut, sergsazan, smes, Taakeferd, VALERY, varlam4, wendigo, wreak, wtk.412,
Feb 13 2021, 11:32:38 Fearless Iranians From Hell - Peace Through Power [ep] (2008)


*Artist: Fearless Iranians From Hell
*Album: Peace Through Power [ep]
*Year: 2008
*Genre: Crossover/Thrash Metal
*Country: United States
*Format: mp3@CBR320kbps
*Size: 43MB

Tracklist:
01. What's the News (Demo)
02. Foolish Americans (Demo)
03. Prologue (Demo)
04. Peace Through Power (Demo)
05. Holy War (Demo)
06. ltraviolence
07. Burn the Books (Demo)
08. Intro (Demo)
09. Iranians On Bikes (Demo)
******************************
Total playing time: 18:40



[more=Technical info]
Input File: 03 Prologue (demo).mp3
Channels : 2
Sample Rate : 44100
Precision : 16-bit
Duration : 00:00:46.00 = 2028600 samples = 3450 CDDA sectors
File Size : 1.98M
Bit Rate : 344k
Sample Encoding: MPEG audio (layer I, II or III)
Comments :
Title=Prologue
Artist=Fearless Iranians From Hell
Album=2008 Peace Through Power
Tracknumber=03/09
Year=2008
Genre=Crossover/Thrash Metal

[/more]

Register
(7) boby9052, gwar, infiltrator, Marek, varlam4, wreak, Xtohar,
Feb 13 2021, 11:28:40 Fearless Iranians From Hell - Foolish Americans (1990)


*Artist: Fearless Iranians From Hell
*Album: Foolish Americans
*Year: 1990
*Genre: Crossover/Thrash Metal
*Country: United States
*Format: mp3@CBR320kbps
*Size: 60MB

Tracklist:
01. Azan 04:37
02. New Gods 01:23
03. Crush 02:31
04. Big Crime '89 02:02
05. A Martyr in Every Home 03:02
06. The Trinity 03:00
07. Foolish Americans 01:09
08. We Own the World 02:49
09. Special Delivery 02:05
10. Decade 03:02
******************************
Total playing time: 25:40



[more=Technical info]
Input File: 02 New Gods.mp3
Channels : 2
Sample Rate : 44100
Precision : 16-bit
Duration : 00:01:23.73 = 3692493 samples = 6279.75 CDDA sectors
File Size : 3.48M
Bit Rate : 333k
Sample Encoding: MPEG audio (layer I, II or III)
Comments :
Title=New Gods
Artist=Fearless Iranians From Hell
Album=1990 Foolish Americans
Tracknumber=02/10
Year=1990
Genre=Crossover/Thrash Metal

[/more]

Register
(7) gwar, HMHamster, infiltrator, killingod, Olethros, Reverend, varlam4,

173 Pages V   1 2 3 > » 
- Lo-Fi Version Support form
Copyrights and abuse reports form
Time is now: 13th May 2021 - 03:47:17

Футбол рома фнк on line рома.