Welcome Guest ( Log In | Register )

История благодарностей участнику slack ::: Спасибо сказали: 24157 раз(а)
Дата поста: В теме: За сообщение: Спасибо сказали:
Aug 5 2022, 22:44:55 City Indian - Howling On Fire (1991)


*Artist: City Indian
*Album: Howling On Fire
*Year: 1991
*Genre: Hardcore/Heavy/Speed Metal
*Country: Japan
*Format: mp3@CBR320kbps
*Size: 96MB

Tracklist:
01. Howling 03:01
02. Shake Your Boots 02:38
03. Magic Lips 03:32
04. You Bringin' Out My Soul 04:05
05. Lust Monkey Road 04:55
06. Viviant Rock 03:41
07. Saturday Night Trap 03:03
08. I Don't Think 'Bout Anything 02:41
09. Terror Boogie 03:25
10. Despaired Coward 02:34
11. Drunky Boxer 03:08
12. Mad Sister (Crazy to Sex) 04:38
******************************
Total playing time: 41:21

Preview 1


[more=Technical info]
Input File: 01 Howling.mp3
Channels : 2
Sample Rate : 44100
Precision : 16-bit
Duration : 00:03:01.17 = 7989685 samples = 13587.9 CDDA sectors
File Size : 7.39M
Bit Rate : 326k
Sample Encoding: MPEG audio (layer I, II or III)
Comments :
Title=Howling
Artist=City Indian
Album=1991 Howling on Fire
Tracknumber=01/12
Year=2017
Genre=Heavy Metal

[/more]

Register
(5) Bloodline Christian, Grev, gwar, Reverend, troll_swamp,
Aug 5 2022, 22:40:32 City Indian - Terror Boogie [ep] (1986)


*Artist: City Indian
*Album: Terror Boogie [ep]
*Year: 1986
*Genre: Hardcore/Heavy/Speed Metal
*Country: Japan
*Format: mp3@CBR320kbps
*Size: 40MB

Tracklist:
01. Terror Boogie 03:41
02. Magic Lips 04:07
03. Despaired Crowd 02:36
04. Saturday Night Trap 03:19
05. Drunky Boxer 03:19
06. Prelude to Indian 01:41
******************************
Total playing time: 18:43

Preview 1


[more=Technical info]
Input File: 02 Magic Lips.mp3
Channels : 2
Sample Rate : 44100
Precision : 16-bit
Duration : 00:04:07.73 = 10924717 samples = 18579.5 CDDA sectors
File Size : 10.0M
Bit Rate : 324k
Sample Encoding: MPEG audio (layer I, II or III)
Comments :
Title=Magic Lips
Artist=City Indian
Album=1986 Terror Boogie
Tracknumber=02/06
Year=2017
Genre=Heavy Metal

[/more]

Register
(5) artscald, Bloodline Christian, caro, gwar, stumpheavyrock,
Aug 5 2022, 22:36:55 City Indian - W.P.C.I Warning [ep] (1985)


*Artist: City Indian
*Album: W.P.C.I Warning [ep]
*Year: 1985
*Genre: Hardcore/Heavy/Speed Metal
*Country: Japan
*Format: mp3@CBR320kbps
*Size: 27MB

Tracklist:
01. Viviant Rock 03:34
02. W.P.C.I Warning 03:06
03. Let's Hot 02:04
04. One Way Eager 02:39
******************************
Total playing time: 11:23

Preview 1


[more=Technical info]
Input File: 02 W.P.C.I Warning.mp3
Channels : 2
Sample Rate : 44100
Precision : 16-bit
Duration : 00:03:08.23 = 8300723 samples = 14116.9 CDDA sectors
File Size : 7.66M
Bit Rate : 326k
Sample Encoding: MPEG audio (layer I, II or III)
Comments :
Title=W.P.C.I Warning
Artist=City Indian
Album=1985 W.P.C.I Warning
Tracknumber=02/04
Year=2017
Genre=Heavy Metal

[/more]

Register
(6) artscald, Bloodline Christian, caro, Grev, gwar, stumpheavyrock,
Aug 2 2022, 07:53:20 Helloween - The Game Is On [ep] (2020)


*Artist: Helloween
*Album: The Game Is On [ep]
*Year: 2020
*Genre: Power/Speed Metal
*Country: Germany
*Format: mp3@CBR320kbps
*Size: 46MB

Tracklist:
01. Halloween 13:37
02. Pumpkins United 06:32
******************************
Total playing time: 20:09

Preview 1

[more=Extended info]01 is recorded live in Madrid, December 9th, 2017
01 is recorded live at the Wacken Open Air, August 4th, 2018[/more]

[more=Technical info]
Input File: 01 Halloween.mp3
Channels : 2
Sample Rate : 44100
Precision : 16-bit
Duration : 00:13:37.76 = 36063172 samples = 61331.9 CDDA sectors
File Size : 32.8M
Bit Rate : 321k
Sample Encoding: MPEG audio (layer I, II or III)
Comments :
Title=Halloween
Artist=Helloween
Album=2020 The Game Is On
Tracknumber=01/02
Year=2020
Genre=Power/Speed Metal

[/more]

Register
(16) artscald, boby9052, Carcharoth, caro, dulak, GorAtheist, gwar, Herrant, infozahist, kluval, Marek, postal67, Reverend, Rover, sergsazan, stumpheavyrock,
Aug 1 2022, 07:41:24 Gamma Ray - 30 Years Live Anniversary [live] (2022)


*Artist: Gamma Ray
*Album: 30 Years Live Anniversary [live]
*Year: 2022
*Genre: Power/Speed Metal
*Country: Germany
*Format: mp3@CBR320kbps
*Size: 220MB

Tracklist:
01. Induction 00:58
02. Dethrone Tyranny 04:18
03. New World Order 05:24
04. Avalon 09:35
05. Master of Confusion 04:55
06. Empathy 05:10
07. Rebellion in Dreamland 09:01
08. Land of the Free 04:37
09. Lust for Life 05:39
10. One with the World 05:06
11. The Silence 07:02
12. Armageddon 11:08
13. Heading for Tomorrow 15:19
14. Send Me a Sign 07:28
******************************
Total playing time: 1:35:40

Preview 1

[more=Technical info]
Input File: 02 Dethrone Tyranny.mp3
Channels : 2
Sample Rate : 44100
Precision : 16-bit
Duration : 00:04:18.19 = 11386179 samples = 19364.2 CDDA sectors
File Size : 10.4M
Bit Rate : 324k
Sample Encoding: MPEG audio (layer I, II or III)
Comments :
Title=Dethrone Tyranny
Artist=Gamma Ray
Album=2021 30 Years Live Anniversary
Tracknumber=02/14
Year=2021
Genre=Power Metal

[/more]

Register
(15) ace73pq, AHBAnep, artscald, Brown Herald, Bzth, caro, Forest, Grev, infozahist, kimkayoung, LEGION69, markblasi, Reverend, Rover, stumpheavyrock,
Jul 31 2022, 09:05:50 DeadClaw - Cease Fire Save Your Rounds [ep] (2007)


*Artist: DeadClaw
*Album: Cease Fire Save Your Rounds [ep]
*Year: 2007
*Genre: Speed Metal
*Country: Japan
*Format: mp3@CBR320kbps
*Size: 44MB

Tracklist:
01. Cease Fire Save Your Rounds 02:55
02. Locked Away 02:01
03. Downstairs 03:10
04. Fever 01:17
05. Don't Drop That Bomb on Me 03:33
06. Cross Fire 03:59
07. Quitting Time 02:07
******************************
Total playing time: 19:02

Preview 1


[more=Technical info]
Input File: 02 Locked Away.mp3
Channels : 2
Sample Rate : 44100
Precision : 16-bit
Duration : 00:02:01.32 = 5350300 samples = 9099.15 CDDA sectors
File Size : 5.02M
Bit Rate : 331k
Sample Encoding: MPEG audio (layer I, II or III)
Comments :
Title=Locked Away
Artist=DeadClaw
Album=2007 Cease Fire Save Your Rounds
Tracknumber=02/07
Year=2007
Genre=Speed Metal

[/more]

Register
(7) artscald, Bloodline Christian, caro, gwar, metala, Rover, sergsazan,
Jul 29 2022, 07:47:23 Blackhole - Evolution (2019)


*Artist: Blackhole
*Album: Evolution
*Year: 2019
*Genre: Heavy Metal
*Country: South Korea
*Format: mp3@CBR320kbps
*Size: 82MB

Tracklist:
01. AI
02. Log In
03. Dimension
04. Item
05. Lovbot
06. M. Follower
70. Rain
08. Ur Fire'd
09. Utopia
10. Home
******************************
Total playing time: 36:07



[more=Technical info]
Input File: 02 Log In.mp3
Channels : 2
Sample Rate : 44100
Precision : 16-bit
Duration : 00:03:38.00 = 9613800 samples = 16350 CDDA sectors
File Size : 8.86M
Bit Rate : 325k
Sample Encoding: MPEG audio (layer I, II or III)
Comments :
Title=Log In
Artist=Black Hole
Album=2019 Evolution
Tracknumber=02/10
Year=2019
Genre=Heavy Metal

[/more]

Register
(7) artscald, caro, kimkayoung, Marek, Rover, sergsazan, Veggr,
Jul 21 2022, 13:06:59 DeadClaw - Cold Defiance [ep] (2017)


*Artist: DeadClaw
*Album: Cold Defiance [ep]
*Year: 2017
*Genre: Speed Metal
*Country: Japan
*Format: mp3@CBR320kbps
*Size: 32MB

Tracklist:
01. Cold Defiance 04:56
02. Day of Doom 03:43
03. Don't Try to Save My Soul 03:43
******************************
Total playing time: 12:22


Preview 2

[more=Technical info]
Input File: 01 Cold Defiance.mp3
Channels : 2
Sample Rate : 44100
Precision : 16-bit
Duration : 00:04:57.03 = 13099067 samples = 22277.3 CDDA sectors
File Size : 13.3M
Bit Rate : 358k
Sample Encoding: MPEG audio (layer I, II or III)
Comments :
Title=Cold Defiance
Artist=Dead Claw
Album=Cold Defiance
Tracknumber=1
Year=2017
Genre=Heavy Metal, Thrash

[/more]

Register
(8) artscald, caro, chipsgott, Marek, Rover, stumpheavyrock, Wail, wreak,
Jul 20 2022, 08:04:51 Rose Rose - Your Ignorance Is Our Death (2019)


*Artist: Rose Rose
*Album: Your Ignorance Is Our Death
*Year: 2019
*Genre: Thrash/Death Metal/Grindcore
*Country: Japan
*Format: mp3@CBR320kbps
*Size: 77MB

Tracklist:
01. Survivor of Dead
02. Black Hole
03. Evils Send to Hell
04. Murdered Realism
05. Getting Lies and Screaming Cheat
06. Dominates
07. Crucified
08. Slave
09. Money game
10. All Conflict Is Heading for Risk
11. Just like Justice
12. World Wide Nightmare Service
13. Evil's Consume
******************************
Total playing time: 32:38



[more=Technical info]
Input File: 02 Black Hole.mp3
Channels : 2
Sample Rate : 44100
Precision : 16-bit
Duration : 00:02:41.00 = 7100100 samples = 12075 CDDA sectors
File Size : 6.61M
Bit Rate : 329k
Sample Encoding: MPEG audio (layer I, II or III)
Comments :
Title=Black Hole
Artist=Rose Rose
Album=2019 Your Ignorance Is Our Death
Tracknumber=02/13
Year=2019
Genre=Metal

[/more]

Register
(9) artscald, caro, chipsgott, coresh, Emhyr var Emreis, METALHUNTER, stumpheavyrock, Wail, wreak,
Jul 18 2022, 07:21:44 Eldritch Horror - At The Altar Of Death [ep] (2022)


*Artist: Eldritch Horror
*Album: At The Altar Of Death [ep]
*Year: 2022
*Genre: Death Metal
*Country: United States
*Format: mp3@CBR320kbps
*Size: 37MB

Tracklist:
01. Graven Gods 05:06
02. A Dream of Pan 05:09
03. The Offering 05:50
******************************
Total playing time: 16:05

Preview 1


[more=Technical info]
Input File: 02 A Dream of Pan.mp3
Channels : 2
Sample Rate : 44100
Precision : 16-bit
Duration : 00:05:09.96 = 13669368 samples = 23247.2 CDDA sectors
File Size : 12.5M
Bit Rate : 323k
Sample Encoding: MPEG audio (layer I, II or III)
Comments :
Title=A Dream of Pan
Artist=Eldritch Horror
Album=2022 At the Altar of Death
Tracknumber=02/03
Year=2022
Genre=Death Metal

[/more]

Register
(9) artscald, caro, Hell_Is_Here, Marek, Reverend, stumpheavyrock, VALERY, vyacheslav, wreak,
Jul 18 2022, 07:16:44 Dr. Shrinker - Live Assembly Of The Disinhumed [ep] (2018)


*Artist: Dr. Shrinker
*Album: Live Assembly Of The Disinhumed [ep]
*Year: 2018
*Genre: Death Metal
*Country: United States
*Format: mp3@CBR320kbps
*Size: 62MB

Tracklist:
01. Tighten the Tourniquet 04:39
02. Bacterial Encroachment 05:14
03. Dead by Dawn 03:56
04. Geometric Assembly of the Disinhumed 06:06
05. The Command 01:30
06. Germ Farm 04:50
******************************
Total playing time: 26:15

Preview 1


[more=Technical info]
Input File: 02 Bacterial Encroachment.mp3
Channels : 2
Sample Rate : 44100
Precision : 16-bit
Duration : 00:04:37.36 = 12231576 samples = 20802 CDDA sectors
File Size : 11.2M
Bit Rate : 323k
Sample Encoding: MPEG audio (layer I, II or III)
Comments :
Title=Bacterial Encroachment
Artist=Dr. Shrinker
Album=2018 Live Assembly of the Disinhumed
Tracknumber=02/06
Year=2018
Genre=Death Metal

[/more]

Register
(2) Boozer, stumpheavyrock,
Jul 18 2022, 07:12:29 Disharmonic Orchestra - Raw [ep] (2017)


*Artist: Disharmonic Orchestra
*Album: Raw [ep]
*Year: 2017
*Genre: Progressive Death Metal
*Country: Austria
*Format: mp3@CBR320kbps
*Size: 31MB

Tracklist:
01. The Love I Hate 04:19
02. Accelerated Evolution 02:39
03. Keep Falling Down 04:41
04. The Return of the Living Beat 01:55
******************************
Total playing time: 13:34


Preview 2

[more=Technical info]
Input File: 02 Accelerated Evolution.mp3
Channels : 2
Sample Rate : 44100
Precision : 16-bit
Duration : 00:02:40.04 = 7057676 samples = 12002.9 CDDA sectors
File Size : 6.49M
Bit Rate : 324k
Sample Encoding: MPEG audio (layer I, II or III)
Comments :
Title=Accelerated Evolultion
Artist=Disharmonic Orchestra
Album=2017 Raw
Tracknumber=02/04
Year=2017
Genre=Metal

[/more]

Register
(21) artscald, caro, cawa, chipsgott, ForzaMinardi1977, Hell_Is_Here, infozahist, kimkayoung, kryptor, Marek, martintrue, metala, quarantine, recber, Reverend, smysl, stumpheavyrock, terron, VALERY, vyacheslav, wreak,
Jul 12 2022, 10:40:55 Demolition - Seyth's Descent [ep] (2012)


*Artist: Demolition
*Album: Seyth's Descent [ep]
*Year: 2012
*Genre: Death Metal
*Country: United States
*Format: mp3@CBR320kbps
*Size: 31MB

Tracklist:
01. Post-Partum
02. Necromancy
03. Dominion
******************************
Total playing time: 13:35

Preview 1

[more=Extended info]Единственный релиз группы, играющей с 1988 года
По началу эти песни должны были войти в полноформатный альбом,
но что то пошло не так и была выпущена только эта ЕРишка тиражом 200 копий

[youtube]f_u8XSwpnzE[/youtube][/more]

[more=Technical info]
Input File: 03 Dominion.mp3
Channels : 2
Sample Rate : 44100
Precision : 16-bit
Duration : 00:03:46.21 = 9975817 samples = 16965.7 CDDA sectors
File Size : 9.17M
Bit Rate : 324k
Sample Encoding: MPEG audio (layer I, II or III)
Comments :
Title=Dominion
Artist=Demolition
Album=2012 Seyth's Descent
Tracknumber=03/03
Year=2012
Genre=Death Metal

[/more]

Register
(5) stumpheavyrock, vyacheslav, Wail, wanderer73, Xtohar,
Jul 12 2022, 08:09:34 Demisor - Nihilistic Deadfall [ep] (2021)


*Artist: Demisor
*Album: Nihilistic Deadfall [ep]
*Year: 2021
*Genre: Death Metal/Grindcore
*Country: Singapore
*Format: mp3@CBR320kbps
*Size: 11MB

Tracklist:
01. Debauched Wretchedness 02:04
02. Deleterious Animosity 01:33
03. Altar Of Lunacy 01:13
******************************
Total playing time: 4:50

Preview 1


[more=Technical info]
Input File: 02 Deleterious Animosity.mp3
Channels : 2
Sample Rate : 44100
Precision : 16-bit
Duration : 00:01:33.29 = 4114133 samples = 6996.82 CDDA sectors
File Size : 3.84M
Bit Rate : 329k
Sample Encoding: MPEG audio (layer I, II or III)
Comments :
Title=Deleterious Animosity
Artist=Demisor
Album=2021 Nihilistic Deadfall
Tracknumber=02/03
Year=2021
Genre=Death Metal/Grindcore

[/more]

Register
(5) artscald, caro, IncendiaryMight, Wail, wreak,
Jul 11 2022, 08:31:05 Dead Speak - The Horror And Moral Terror [ep] (2019)


*Artist: Dead Speak
*Album: The Horror And Moral Terror [ep]
*Year: 2019
*Genre: Death Metal
*Country: United States
*Format: mp3@CBR320kbps
*Size: 45MB

Tracklist:
01. Intro
02. Requiem
03. Hypocrisy Of The Caitiffs
04. Time And Time Again
05. Welcome To Our Pit
******************************
Total playing time: 19:26

Preview 1

[more=Extended info]Группа играет с 1987 года

[youtube]v_uCJyoPHYI[/youtube][/more]

[more=Technical info]
Input File: 03 Hypocrisy of Catiffs.mp3
Channels : 2
Sample Rate : 44100
Precision : 16-bit
Duration : 00:04:20.00 = 11466000 samples = 19500 CDDA sectors
File Size : 10.5M
Bit Rate : 324k
Sample Encoding: MPEG audio (layer I, II or III)
Comments :
Title=Hypocrisy of Catiffs
Artist=Dead Speak
Album=2019 The Horror and Moral Terror
Tracknumber=04/05
Year=2019
Genre=Death Metal

[/more]

Register
(4) Carcharoth, stumpheavyrock, vyacheslav, Wail,
Jul 9 2022, 08:37:52 Darkthrone - Peaceville Presents... Darkthrone [ep] (2013)


*Artist: Darkthrone
*Album: Peaceville Presents... Darkthrone [ep]
*Year: 2013
*Genre: Black Metal
*Country: Norway
*Format: mp3@CBR320kbps
*Size: 71MB

Tracklist:
01. In the Shadow of the Horns 06:57
02. Inn I De Dype Skogens Fabn 05:25
03. The Hordes of Nebulah 05:33
04. Striving for a Piece of Lucifer 05:30
05. Too Old Too Cold 03:01
06. Lesser Men 04:55
******************************
Total playing time: 31:21

Preview 1

[more=Technical info]
Input File: 02 Inn I De Dype Skogens Fabn.mp3
Channels : 2
Sample Rate : 44100
Precision : 16-bit
Duration : 00:05:25.00 = 14332500 samples = 24375 CDDA sectors
File Size : 13.1M
Bit Rate : 324k
Sample Encoding: MPEG audio (layer I, II or III)
Comments :
Title=Inn I De Dype Skogens Fabn
Artist=Darkthrone
Album=2013 Peaceville Presents... Darkthrone
Tracknumber=02/06
Year=2013
Genre=Black Metal

[/more]

Register
(23) alikkon, artscald, Carcharoth, caro, Cyrci, Emm Human, Hell_Is_Here, Lanceatum, Mencae77, metaljosue, noel666, Occultas, recber, Reverend, stormhatt, stumpheavyrock, supremo, Svafrlami, Terrorizer, Vidyadharov, Wail, wreak, Xtohar,
Jul 8 2022, 07:53:36 Extreme - Technological Death (2019)


*Artist: Extreme
*Album: Technological Death
*Year: 2019
*Genre: Death Metal
*Country: Czech Republic
*Format: mp3@CBR320kbps
*Size: 82MB

Tracklist:
01. Cold War II 02:44
02. Technological Death 03:56
03. Memories of the Sunset 03:10
04. Human Suicide 05:24
05. In the Name of God 04:01
06. The World in Chaos 03:33
07. Hidden Violence 03:59
08. Man of Lies 03:22
09. Behind the Gates of Hell 05:22
******************************
Total playing time: 35:31

[more=Extended info]Первый альбом группы, играющей с 1988 года

[youtube]E5_1FSy790Y[/youtube][/more]

[more=Technical info]
Input File: 02 Technological Death.mp3
Channels : 2
Sample Rate : 44100
Precision : 16-bit
Duration : 00:03:56.00 = 10407600 samples = 17700 CDDA sectors
File Size : 9.53M
Bit Rate : 323k
Sample Encoding: MPEG audio (layer I, II or III)
Comments :
Title=Technological Death
Artist=Extreme
Album=2019 Technological Death
Tracknumber=02/09
Year=2019
Genre=Death Metal

[/more]

Register
(14) andreikun, artscald, caro, chipsgott, GorAtheist, Hell_Is_Here, jollo, Marek, Proteus_666, stumpheavyrock, supremo, VALERY, vyacheslav, wreak,
Jul 5 2022, 07:39:09 Protector - Live '89 [live] (2017)


*Artist: Protector
*Album: Live '89 [live]
*Year: 2017
*Genre: Thrash/Death Metal
*Country: Germany
*Format: mp3@CBR320kbps
*Size: 89MB

Tracklist:
01. Capitascism 05:11
02. Sliced, Hacked and Grinded 04:24
03. Misanthropy 02:57
04. Golem 04:31
05. Decadence 03:38
06. Agoraphobia 04:38
07. Atrocities 04:09
08. Kain and Abel 04:19
09. Quasimodo 03:23
10. Urm the Mad 03:14
******************************
Total playing time: 40:24

Preview 1

[more=Technical info]
Input File: 02 Sliced, Hacked and Grinded.mp3
Channels : 2
Sample Rate : 48000
Precision : 16-bit
Duration : 00:04:24.74 = 12707568 samples ~ 19855.6 CDDA sectors
File Size : 10.6M
Bit Rate : 320k
Sample Encoding: MPEG audio (layer I, II or III)
Comments :
Title=Sliced, Hacked And Grinded
Artist=Protector
Album=2017 Live '89
Tracknumber=02/10
Year=2017
Genre=Thrash Metal

[/more]

Register
(15) artscald, BERZERK, canadaspaceman, caro, Forcerecon1, Hell_Is_Here, infozahist, noel666, Reverend, rpa, SKuzmin, stumpheavyrock, supremo, wreak, Xtohar,
Jul 4 2022, 08:37:08 Corpse - Underground (2014)


*Artist: Corpse
*Album: Underground
*Year: 2014
*Genre: Death Metal/Grindcore
*Country: Bulgaria
*Format: mp3@CBR320kbps
*Size: 71MB

Tracklist:
01. Terrible Choleric Spasm 02:54
02. Underground 01:58
03. Butcher 01:24
04. New Messiah 02:33
05. Still Alive 01:45
06. Onanist 03:12
07. SG Suicide Guys 01:27
08. Maggot Society (Absenta 13 cover) 03:29
09. Moldy Ass 01:10
10. Last Company in the Coffin 02:22
11. WC (Shit Fly Conspiracy) 01:41
12. Invaders 01:40
13. BG Psycho Undercover 02:16
14. Syndrome 02:34
******************************
Total playing time: 30:25



[more=Technical info]
Input File: 03 Butcher.mp3
Channels : 2
Sample Rate : 44100
Precision : 16-bit
Duration : 00:01:24.22 = 3714102 samples = 6316.5 CDDA sectors
File Size : 3.51M
Bit Rate : 334k
Sample Encoding: MPEG audio (layer I, II or III)
Comments :
Title=Butcher
Artist=Corpse
Album=2014 Underground
Tracknumber=03/14
Year=2014
Genre=Death Metal

[/more]

Register
(4) IncendiaryMight, kikebastard, Svafrlami, Wail,
Jun 29 2022, 08:34:31 Corpse Grinder - Underground Celebration Live 2003 [live] (2003)


*Artist: Corpse Grinder
*Album: Underground Celebration Live 2003 [live]
*Year: 2003
*Genre: Death Metal
*Country: Brazil
*Format: mp3@CBR320kbps
*Size: 75MB

Tracklist:
01. Under the Inquisition's Horrors 04:05
02. Against All the Religions 03:34
03. Shadow's Land 04:08
04. Trilogy of the End 03:58
05. Sarcastic Symphony of the Universe 03:29
06. Unholy Crusade 05:02
07. Acting in the Shadows 01:59
08. Celebration of Hate 03:38
09. Instinct of Survival (Napalm Death cover) 02:55
******************************
Total playing time: 32:48

Preview 1

[more=Extended info]Настаиваю, что это 320. Таков исходник[/more]

[more=Technical info]
Input File: 02 Against All The Religions.mp3
Channels : 2
Sample Rate : 44100
Precision : 16-bit
Duration : 00:03:31.95 = 9346819 samples = 15896 CDDA sectors
File Size : 8.61M
Bit Rate : 325k
Sample Encoding: MPEG audio (layer I, II or III)
Comments :
Title=Against All The Religions
Artist=Corpse Grinder
Album=2003 Underground Celebration Live 2003
Tracknumber=02/09
Year=2003
Genre=Death Metal

[/more]

Register
(11) artscald, Carcharoth, caro, Hell_Is_Here, Olethros, stumpheavyrock, supremo, Svafrlami, thenecromancer, Wail, wreak,
Jun 25 2022, 07:18:41 Bleeder - El Cuarto Mono [ep] (1998)


*Artist: Bleeder
*Album: El Cuarto Mono [ep]
*Year: 1998
*Genre: Death Metal
*Country: Spain
*Format: mp3@CBR320kbps
*Size: 58MB

Tracklist:
01. Utópica 05:28
02. El cuarto mono 05:56
03. Qué más da... 03:55
04. Alocado 03:20
05. Balada blasfema 04:32
06. Perturbación sexual 02:27
******************************
Total playing time: 25:38

Preview 1


[more=Technical info]
Input File: 02 Que Mas Da....mp3
Channels : 2
Sample Rate : 44100
Precision : 16-bit
Duration : 00:03:51.80 = 10222380 samples = 17385 CDDA sectors
File Size : 9.38M
Bit Rate : 324k
Sample Encoding: MPEG audio (layer I, II or III)
Comments :
Title=Que mas da...
Artist=Bleeder
Album=1998 El Cuarto Mono
Tracknumber=02/06
Year=1998
Genre=Death Metal

[/more]

Register
(11) andreikun, artscald, caro, Olethros, Pinhead666, Proteus_666, stumpheavyrock, Svafrlami, vyacheslav, Wail, wreak,
Jun 21 2022, 09:47:59 Kreator - Hate Über Alles (2022)
Да... смотрю не зашёл альбом народу 15.gif
Мне вот тоже не зашёл, хотя ожидания то были...
Милле вроде как анонсировал возвращение к истокам, к настоящему трэшу
Получилось продолжение двух предыдущих альбомов, причём самое не внятное из них...
Единственное, что порадовало это качество и я не про качество звука на альбоме. Я про качество игры. Качество владения инструментами.
Гитары стали ещё лучше, вокал стал лучше, новый басист вообще шикарен. Качество аранжировок на высоте, впрочем как всегда...
Вот только, к сожалению это всё не делает альбом хорошим. Нет хитов. Настоящих хитов, чтоб как гвоздь в башку.
Есть умение пользовать инструменты на элитном уровне... и всё. Для хотя бы хорошего альбома этого явно не достаточно.
Мне кажется, Милле нужно сделать одну простую и сейчас модную вещь.
Нужно переиграть один из золотых альбомов с новым звуком, может и слегка переосмыслив, не нота в ноту...
В идеале Pleasure to Kill. Это вернёт к истокам, даст новый толчок к новому развитию, как это было с Exodus с их Let There Be Blood
Хватит уже играть в модерновый МДМ. Пора возвращаться к олдскулу. Пора возвращаться к трэшу. Пора показать, кто здесь король...
(2) Alexis The Best, Occultas,
Jun 14 2022, 08:13:26 Komtur - Endless Words [ep] (1992)


*Artist: Komtur
*Album: Endless Words [ep]
*Year: 1992
*Genre: Thrash Metal
*Country: Czech Republic
*Format: mp3@CBR320kbps
*Size: 50MB

Tracklist:
01. Dark World 03:32
02. Czech Reign 02:54
03. Endless Words 07:54
04. Explosion For Corruption 04:23
05. Hunt For People 03:12
******************************
Total playing time: 21:55

Preview 1


[more=Technical info]
Input File: 02 Czech Reign.mp3
Channels : 2
Sample Rate : 44100
Precision : 16-bit
Duration : 00:02:54.38 = 7690158 samples = 13078.5 CDDA sectors
File Size : 7.08M
Bit Rate : 325k
Sample Encoding: MPEG audio (layer I, II or III)
Comments :
Title=Czech Reign
Artist=Komtur
Album=1992 Endless Words
Tracknumber=02/05
Year=1992
Genre=Thrash Metal

[/more]

Register
(13) boby9052, Carcharoth, Diflock, gwar, metala, Olethros, Proteus_666, Reverend, stumpheavyrock, Svafrlami, thenecromancer, Xtohar, Z28517,
Jun 13 2022, 10:55:30 Kobalto - Conviviendo Con El Desastre (1992)


*Artist: Kobalto
*Album: Conviviendo Con El Desastre
*Year: 1992
*Genre: Thrash Metal
*Country: Argentina
*Format: mp3@CBR320kbps
*Size: 92MB

Tracklist:
01. Intro 01:31
02. Lucha por tu libertad 04:34
03. Amos del poder 04:34
04. Apocalipsis 04:05
05. Prisionero civil 05:03
06. Héroes de nada 05:12
07. Sin fronteras 02:05
08. Odio oligofrénico 04:12
09. Paren la locura 04:28
10. Adicción inocente 04:35
******************************
Total playing time: 40:19

[more=Extended info]320 здесь нет

[youtube]2o9evoEzmKc[/youtube][/more]

[more=Technical info]
Input File: 04 Apocalipsis.mp3
Channels : 2
Sample Rate : 44100
Precision : 16-bit
Duration : 00:04:05.83 = 10841059 samples = 18437.2 CDDA sectors
File Size : 9.94M
Bit Rate : 323k
Sample Encoding: MPEG audio (layer I, II or III)
Comments :
Title=Apocalipsis
Artist=Kobalto
Album=1992 Conviviendo con el Desastre
Tracknumber=04/10
Year=1992
Genre=Thrash Metal

[/more]

Register
(10) boby9052, hell_armageddon, killingod, METALHUNTER, Olethros, Reverend, stumpheavyrock, Svafrlami, Xtohar, Z28517,
Jun 4 2022, 07:47:07 Rosenfeld - ...In The Garden [live] (1994)


*Artist: Rosenfeld
*Album: ...In The Garden [live]
*Year: 1994
*Genre: Thrash Metal
*Country: Japan
*Format: mp3@CBR320kbps
*Size: 155MB

Tracklist:
01. Reincarnation of the Evil 07:12
02. Blood Stain on the Wall 04:25
03. Princess of the Damned 04:51
04. Rush into the Fire 04:40
05. Holocaust Eve 04:14
06. Rest in Peace 08:02
07. Spellbound 03:57
08. Pigs of the Empire 04:15
09. Crows in Black 03:22
10. Field of Roses 07:10
11. Ashes to Ashes 05:32
12. The Preacher 06:35
13. Hard Luck Woman (hidden track) 03:52
******************************
Total playing time: 1:08:07

Preview 1

[more=Technical info]
Input File: 02 Blood Stain On The Wall.mp3
Channels : 2
Sample Rate : 44100
Precision : 16-bit
Duration : 00:04:26.68 = 11760368 samples = 20000.6 CDDA sectors
File Size : 10.8M
Bit Rate : 324k
Sample Encoding: MPEG audio (layer I, II or III)
Comments :
Title=Blood Stain On The Wall
Artist=Rosenfeld
Album=1994 ...In The Garden
Tracknumber=02/13
Year=1994
Genre=Thrash Metal

[/more]

Register
(14) artscald, cancer1974, caro, Diflock, METALHUNTER, Mogozoz, Olethros, Proteus_666, stumpheavyrock, supremo, Svafrlami, thenecromancer, wreak, Xtohar,

181 Pages V   1 2 3 > » 
- Lo-Fi Version Support form
Copyrights and abuse reports form
Time is now: 11th August 2022 - 09:11:20