Welcome Guest ( Log In | Register )

История благодарностей участнику slack ::: Спасибо сказали: 21970 раз(а)
Дата поста: В теме: За сообщение: Спасибо сказали:
Jul 15 2021, 11:15:58 Harsh Reality - Harsh Apocalypse Electro Resurrection Live [live] (2007)


*Artist: Harsh Reality
*Album: Harsh Apocalypse Electro Resurrection Live [live]
*Year: 2007
*Genre: Thrash/Groove Metal
*Country: United States
*Format: mp3@CBR320kbps
*Size: 122MB

Tracklist:
01. Repulsive Magent
02. Trickle Down
03. 5 OZ
04. Guilty Of Being
05. inconvenience
06. Special
07. Shut Up
08. Dead weight
09. Im Not Your God (Mercy)
10. Whore (Mercy)
11. Burning Death Star
12. Painting In Blood
******************************
Total playing time: 53:12


Preview 2

[more=Technical info]
Input File: 01 Repulsive Magnet.mp3
Channels : 2
Sample Rate : 44100
Precision : 16-bit
Duration : 00:04:17.27 = 11345651 samples = 19295.3 CDDA sectors
File Size : 10.4M
Bit Rate : 323k
Sample Encoding: MPEG audio (layer I, II or III)
Comments :
Title=Repulsive Magnet
Artist=Harsh Reality
Album=2007 Harsh Apocalypse Electro Resurrection Live
Tracknumber=01/12
Year=2007
Genre=Thrash Metal

[/more]

Register
(4) Diflock, infiltrator, Olethros, Svafrlami,
Jul 15 2021, 06:54:17 Penetrator - It's My Choice [ep] (2020)


*Artist: Penetrator
*Album: It's My Choice [ep]
*Year: 2020
*Genre: Thrash Metal
*Country: France
*Format: mp3@CBR320kbps
*Size: 27MB

Tracklist:
01. It's My Choice 02:59
02. Adrien 02:50
03. Worn 02:48
04. Surfin' Man 02:44
******************************
Total playing time: 11:21


Preview 2

[more=Technical info]
Input File: 02 Adrien.mp3
Channels : 2
Sample Rate : 32000
Precision : 16-bit
Duration : 00:02:50.46 = 5454816 samples ~ 12784.7 CDDA sectors
File Size : 6.97M
Bit Rate : 327k
Sample Encoding: MPEG audio (layer I, II or III)
Comments :
Title=Adrien
Artist=Penetrator
Album=2020 It's My Choice
Tracknumber=02/04
Year=2020
Genre=Thrash Metal

[/more]

Register
(8) boby9052, caro, chipsgott, gwar, HMHamster, infiltrator, Olethros, sergsazan,
Jul 15 2021, 06:51:03 Penetrator - Enjoy [ep] (2019)


*Artist: Penetrator
*Album: Enjoy [ep]
*Year: 2019
*Genre: Thrash Metal
*Country: France
*Format: mp3@CBR320kbps
*Size: 35MB

Tracklist:
01. Enjoy 03:31
02. The Cell 03:12
03. Kill Me 02:24
04. Matricide 05:51
******************************
Total playing time: 14:58


Preview 2

[more=Technical info]
Input File: 02 The Cell.mp3
Channels : 2
Sample Rate : 32000
Precision : 16-bit
Duration : 00:03:13.00 = 6175968 samples ~ 14474.9 CDDA sectors
File Size : 7.87M
Bit Rate : 326k
Sample Encoding: MPEG audio (layer I, II or III)
Comments :
Title=The Cell
Artist=Penetrator
Album=2019 Enjoy
Tracknumber=02/04
Year=2019
Genre=Thrash Metal

[/more]

Register
(8) boby9052, caro, chipsgott, gwar, HMHamster, infiltrator, Olethros, sergsazan,
Jul 15 2021, 06:44:54 Penetrator - Back For More [ep] (2016)


*Artist: Penetrator
*Album: Back For More [ep]
*Year: 2016
*Genre: Thrash Metal
*Country: France
*Format: mp3@CBR320kbps
*Size: 28MB

Tracklist:
01. Back for More 04:00
02. Total Hate 02:40
03. The Monster 01:50
04. Hey! Wot D'You Say? 03:29
******************************
Total playing time: 11:59


Preview 2

[more=Technical info]
Input File: 02 Total Hate.mp3
Channels : 2
Sample Rate : 32000
Precision : 16-bit
Duration : 00:03:06.99 = 5983584 samples ~ 14024 CDDA sectors
File Size : 7.59M
Bit Rate : 325k
Sample Encoding: MPEG audio (layer I, II or III)
Comments :
Title=Total Hate
Artist=Penetrator
Album=2016 Back for More
Tracknumber=02/04
Year=2016
Genre=Thrash Metal

[/more]

Register
(8) boby9052, caro, chipsgott, gwar, HMHamster, infiltrator, Olethros, sergsazan,
Jul 13 2021, 10:47:11 N.A.O.P. - Hard To Deny (2003)


*Artist: N.A.O.P.
*Album: Hard To Deny
*Year: 2003
*Genre: Thrash Metal/Crossover
*Country: Netherlands
*Format: mp3@CBR320kbps
*Size: 87MB

Tracklist:
01. Spitting Image 01:42
02. Four Walls Fall Down 01:44
03. The Long Run 02:01
04. Eyes Wide Shut 02:40
05. Undedided 02:06
06. Bound 02:15
07. Hard to Deny 02:09
08. 3D 01:51
09. The Drone 02:22
10. Nasty 02:11
11. Friends like These 01:53
12. Won't Conform 02:08
13. Insecure 01:41
14. Own Way 02:22
15. Newconomy 01:54
16. And Now, What Now 03:28
17. Silence 01:00
18. Cold Flesh
******************************
Total playing time: 35:27

Preview 1


[more=Technical info]
Input File: 02 Four Walls Fall Down.mp3
Channels : 2
Sample Rate : 44100
Precision : 16-bit
Duration : 00:01:45.00 = 4630500 samples = 7875 CDDA sectors
File Size : 4.30M
Bit Rate : 327k
Sample Encoding: MPEG audio (layer I, II or III)
Comments :
Title=Four Walls Fall Down
Artist=N.A.O.P.
Album=2003 Hard to Deny
Tracknumber=02/18
Year=2003
Genre=Thrash Metal/Crossover

[/more]

Register
(10) andreikun, boby9052, caro, gwar, HMHamster, Olethros, stumpheavyrock, Svafrlami, Wail, WX419,
Jul 13 2021, 10:43:32 N.A.O.P. - In Time [ep] (1997)


*Artist: N.A.O.P.
*Album: In Time [ep]
*Year: 1997
*Genre: Thrash Metal/Crossover
*Country: Netherlands
*Format: mp3@CBR320kbps
*Size: 30MB

Tracklist:
01. In Time 01:53
02. Noisy Goes Country 03:22
03. All Planned Ahead 03:06
04. Lost Soul 03:04
05. Cold Flesh 03:12
******************************
Total playing time: 14:37

Preview 1


[more=Technical info]
Input File: 03 All Planned Ahead.mp3
Channels : 2
Sample Rate : 44100
Precision : 16-bit
Duration : 00:03:06.89 = 8241981 samples = 14017 CDDA sectors
File Size : 7.60M
Bit Rate : 325k
Sample Encoding: MPEG audio (layer I, II or III)
Comments :
Title=All Planned Ahead
Artist=N.A.O.P.
Album=1997 In Time
Tracknumber=03/05
Year=1997
Genre=Thrash Metal/Crossover

[/more]

Register
(10) andreikun, boby9052, caro, gwar, HMHamster, Olethros, stumpheavyrock, Svafrlami, Wail, WX419,
Jul 13 2021, 10:38:48 N.A.O.P. - Noisy Act Of Protest (1991)


*Artist: N.A.O.P.
*Album: Noisy Act Of Protest
*Year: 1991
*Genre: Thrash Metal/Crossover
*Country: Netherlands
*Format: mp3@CBR320kbps
*Size: 99MB

Tracklist:
01. Fuel of Hate 03:21
02. Satanic Persians 03:15
03. China Justice 02:48
04. Face to the Wall 02:11
05. Destroy Power 02:48
06. Het vonnis 01:46
07. Cold Flesh 03:24
08. Political Prisoner 01:32
09. Death Judgement 04:02
10. Do Your Dream 02:11
11. White Trash 02:35
12. Mental Rape 02:23
13. Ritual Submission 01:56
14. No More War 02:44
15. Loudmouth (With Nothin' to Say) 01:48
16. Prisoner of Wealth 03:35
******************************
Total playing time: 42:19

Preview 1


[more=Technical info]
Input File: 02 Satanic Persians.mp3
Channels : 2
Sample Rate : 44100
Precision : 16-bit
Duration : 00:03:15.59 = 8625607 samples = 14669.4 CDDA sectors
File Size : 7.95M
Bit Rate : 325k
Sample Encoding: MPEG audio (layer I, II or III)
Comments :
Title=Satanic Persians
Artist=N.A.O.P.
Album=1991 Noisy Act of Protest
Tracknumber=02/16
Year=1991
Genre=Thrash Metal/Crossover

[/more]

Register
(12) andreikun, boby9052, caro, gwar, HMHamster, Marek, Olethros, stumpheavyrock, Svafrlami, Wail, WX419, Xtohar,
Jul 11 2021, 10:32:06 Harridan - Remember [ep] (1992)


*Artist: Harridan
*Album: Remember [ep]
*Year: 1992
*Genre: Power/Speed Metal
*Country: Germany
*Format: mp3@CBR320kbps
*Size: 49MB

Tracklist:
01. Short Life of a Monster 02:28
02. Men Slaughter 04:47
03. Remember 04:36
04. Warriors 04:18
05. Secret Part of a Death 05:13
******************************
Total playing time: 21:22



[more=Technical info]
Input File: 02 Men Slaughter.mp3
Channels : 2
Sample Rate : 44100
Precision : 16-bit
Duration : 00:04:44.96 = 12566824 samples = 21372.1 CDDA sectors
File Size : 11.5M
Bit Rate : 323k
Sample Encoding: MPEG audio (layer I, II or III)
Comments :
Title=Men slaughter
Artist=Harridan
Album=1992 Remember
Tracknumber=02/05
Year=1992
Genre=Heavy Metal

[/more]

Register
(10) boby9052, bOOLty, caro, Marek, Olethros, Rover, Svafrlami, Taakeferd, wreak, Xtohar,
Jul 3 2021, 11:45:13 Hadez - Live Sacrifice [live] (2021)


*Artist: Hadez
*Album: Live Sacrifice [live]
*Year: 2021
*Genre: Black/Death Metal
*Country: Peru
*Format: mp3@CBR320kbps
*Size: 81MB

Tracklist:
01. Avern's Goddess 04:39
02. A Cult to the Everlasting Badness 03:02
03. Drunk with the Saint's Blood + Even If You Die a Thousand Times 05:38
04. Hadez Attack 04:58
05. Death + Angel Terminator 04:38
06. The Coming Man of Sin 04:01
07. Vomit + Sodom and Gomorrah 04:15
08. Altar of Sacrifice 03:49
******************************
Total playing time: 35:00

Preview 1


[more=Technical info]
Input File: 02 A Cult to the Everlasting Badness.mp3
Channels : 2
Sample Rate : 44100
Precision : 16-bit
Duration : 00:03:03.00 = 8070300 samples = 13725 CDDA sectors
File Size : 7.46M
Bit Rate : 326k
Sample Encoding: MPEG audio (layer I, II or III)
Comments :
Title=A Cult to the Everlasting Badness
Artist=Hadez
Album=2021 Live Sacrifice
Tracknumber=02/08
Year=2021
Genre=Black/Death Metal

[/more]

Register
(13) caro, dermarsoran, Hell_Is_Here, NathanSS, Olethros, Pinhead666, smysl, supremo, tireheb, VALERY, WOLAND, wreak, Xtohar,
Jul 2 2021, 07:48:03 Hades - Времето (2014)


*Artist: Hades
*Album: Времето
*Year: 2014
*Genre: Power/Thrash Metal
*Country: Bulgaria
*Format: mp3@CBR320kbps
*Size: 118MB

Tracklist:
01. Времето
02. Троя
03. Филистери
04. Това ли е?
05. Не
06. Икар
07. Феникс
08. Господарят на душите
09. H.A.A.R.P.
10. И всичко свършва
11. В името на любовта
12. Три в едно
******************************
Total playing time: 51:37



[more=Technical info]
Input File: 02 Троя.mp3
Channels : 2
Sample Rate : 44100
Precision : 16-bit
Duration : 00:04:21.00 = 11510100 samples = 19575 CDDA sectors
File Size : 10.6M
Bit Rate : 325k
Sample Encoding: MPEG audio (layer I, II or III)
Comments :
Title=Троя
Artist=Hades
Album=2014 Времето
Tracknumber=02/12
Year=2014
Genre=Thrash Metal

[/more]

Register
(12) avather, boby9052, caro, Diflock, gwar, HMHamster, metala, Olethros, varlam4, wreak, Xtohar, Сварог Барг,
Jul 2 2021, 07:44:24 Hades - Radiation (2012)


*Artist: Hades
*Album: Radiation
*Year: 2012
*Genre: Power/Thrash Metal
*Country: Bulgaria
*Format: mp3@CBR320kbps
*Size: 148MB

Tracklist:
01. Радиация 04:16
02. Кървави ръце 04:07
03. Звярът 03:34
04. Мъката на Орфей 05:18
05. Химн за лудия 03:41
06. Сизиф 04:01
07. Шутът 04:39
08. Защитник на вярата 03:44
09. Армагедон 04:02
10. Черни пратеници 04:12
11. My Soul Is Dark 03:59
12. Грешници 04:04
13. Ужас 04:25
14. The Dance of Death 04:42
15. Destroyer 05:55
******************************
Total playing time: 1:04:39



[more=Technical info]
Input File: 02 Кървави ръце.mp3
Channels : 2
Sample Rate : 44100
Precision : 16-bit
Duration : 00:04:08.00 = 10936800 samples = 18600 CDDA sectors
File Size : 10.0M
Bit Rate : 324k
Sample Encoding: MPEG audio (layer I, II or III)
Comments :
Title=Кървави ръце
Artist=Hades
Album=2012 Radiation
Tracknumber=02/15
Year=2012
Genre=Thrash Metal

[/more]

Register
(10) boby9052, caro, gwar, HMHamster, metala, Olethros, varlam4, wreak, Xtohar, Сварог Барг,
Jun 14 2021, 09:41:55 H.A.T.E. - Metal Forever (2007)


*Artist: H.A.T.E.
*Album: Metal Forever
*Year: 2007
*Genre: Thrash Metal
*Country: United States
*Format: mp3@CBR320kbps
*Size: 147MB

Tracklist:
01. Bleeder 05:24
02. Island of None 03:49
03. Top of the Chain 04:16
04. This Bullets For You 03:50
05. Battering Ram 04:39
06. 9-Lives 04:40
07. Mankiller 03:47
08. Twist of Hate 05:26
09. Isolate the Exiles 04:54
10. Dungeon 02:43
11. Assassin 05:11
12. Trial to Lunacy 06:28
13. Metal Forever 05:18
14. Man Behind the Eyes 04:16
******************************
Total playing time: 1:04:41



[more=Extended info]Скорее Хэви, да и 320 сомнительные[/more]

[more=Technical info]
Input File: 01 Bleeder.mp3
Channels : 2
Sample Rate : 44100
Precision : 16-bit
Duration : 00:05:25.35 = 14347935 samples = 24401.3 CDDA sectors
File Size : 13.1M
Bit Rate : 322k
Sample Encoding: MPEG audio (layer I, II or III)
Comments :
Title=Bleeder
Artist=H.A.T.E.
Album=2007 Metal Forever
Tracknumber=01/14
Year=2007
Genre=Thrash Metal

[/more]

Register
(7) boby9052, gwar, Ingvar, Marek, Olethros, Svafrlami, Wail,
Jun 12 2021, 10:08:39 Guilty Vice - Pleasure Of Mask ...Dead Line... (1993)


*Artist: Guilty Vice
*Album: Pleasure Of Mask ...Dead Line...
*Year: 1993
*Genre: Thrash Metal
*Country: Japan
*Format: mp3@CBR320kbps
*Size: 105MB

Tracklist:
01. Dead Line 03:22
02. Get One's Own Back! ~With Fire ~ 03:36
03. I Can't Get 03:55
04. Fuckin' Easy 03:40
05. So Bad 05:03
06. Let's Get Over 04:11
07. Fuckin' Killer 04:05
08. Nobody Knows 05:49
09. Black Mail 04:55
10. '93 Body Talk 03:53
11. On and On 03:32
******************************
Total playing time: 46:01



[more=Technical info]
Input File: 02 Get One\'s Own Back! ~With Fire ~.mp3
Channels : 2
Sample Rate : 44100
Precision : 16-bit
Duration : 00:03:34.81 = 9473165 samples = 16110.8 CDDA sectors
File Size : 8.72M
Bit Rate : 325k
Sample Encoding: MPEG audio (layer I, II or III)
Comments :
Title=Get One's Own Back! ~With Fire ~
Artist=Guilty Vice
Album=1993 Pleasure of Mask ...Dead Line...
Tracknumber=02/11
Year=1993
Genre=Thrash Metal

[/more]

Register
(9) boby9052, metala, Olethros, Reverend, stumpheavyrock, Svafrlami, thenecromancer, Wail, Xtohar,
Jun 3 2021, 16:46:30 Flotsam And Jetsam - Blood In The Water (2021)
Чего то не цепануло...
Правда они мне никогда и не нравились. Даже Х его З почему...
Всё ведь хорошо, грамотно, и правильно. Всё ведь реально хорошо...
Но вот не цепляли никогда. И сейчас не зашли...
(1) RUSP73,
Jun 2 2021, 10:01:54 Grinder Heavy Metal - Skull Krusher (2019)


*Artist: Grinder Heavy Metal
*Album: Skull Krusher
*Year: 2019
*Genre: Heavy Metal
*Country: United States
*Format: mp3@CBR320kbps
*Size: 72MB

Tracklist:
01. Farther from the Truth 03:49
02. Skull Krusher 04:23
03. I See the Lightning 03:16
04. Fall to Your Knees 04:35
05. The Prowler 03:54
06. Swallow the Pill 04:29
07. Bad Seed 04:15
08. K.O.B.K. 03:00
******************************
Total playing time: 31:41

[more=Extended info]Группа собралась ещё в конце 70х. Первый альбом выпустили только в 2018м
Это их вторая работа. Олдовый хэви, для поклонников стиля

[youtube]4qJ7NZLhlis[/youtube][/more]

[more=Technical info]
Input File: 02 Skull Krusher.mp3
Channels : 2
Sample Rate : 44100
Precision : 16-bit
Duration : 00:04:21.58 = 11535722 samples = 19618.6 CDDA sectors
File Size : 10.5M
Bit Rate : 322k
Sample Encoding: MPEG audio (layer I, II or III)
Comments :
Title=Skull Krusher
Artist=Grinder Heavy Metal
Album=2019 Skull Krusher
Tracknumber=02/08
Year=2019
Genre=Heavy Metal

[/more]

Register
(17) andreikun, aviacademy, caro, infiltrator, Marek, metala, Mogozoz, Olethros, refleks22, Rover, sergsazan, Taakeferd, varlam4, vir2al, Wail, wreak, Xtohar,
May 31 2021, 07:56:03 Grausig - Re-Abandoned, Forgotten & Rotting Alone [ep] (2019)


*Artist: Grausig
*Album: Re-Abandoned, Forgotten & Rotting Alone [ep]
*Year: 2019
*Genre: Death Metal
*Country: Indonesia
*Format: mp3@CBR320kbps
*Size: 56MB

Tracklist:
01. The Omens of Titanic Martyrdom 04:30
02. Horrendous Dead in Xenodochium 03:22
03. Thy of the Damned 04:31
04. Father of the Flesh 03:39
05. Embalmed Crucifixion 04:42
06. ...Dismemberment 03:20
******************************
Total playing time: 24:04


Preview 2

[more=Technical info]
Input File: 02 Horrendous Dead In Xenodochium.mp3
Channels : 2
Sample Rate : 44100
Precision : 16-bit
Duration : 00:03:22.00 = 8908200 samples = 15150 CDDA sectors
File Size : 8.24M
Bit Rate : 326k
Sample Encoding: MPEG audio (layer I, II or III)
Comments :
Title=Horrendous Dead In Xenodochium
Artist=Grausig
Album=2019 Re-Abandoned, Forgotten & Rotting Alone
Tracknumber=02/06
Year=2019
Genre=Death/Black Metal

[/more]

Register
(10) chipsgott, infiltrator, MMMMM, Olethros, Reverend, Taakeferd, varlam4, Wail, wanderer73, wreak,
May 31 2021, 07:51:45 Grausig - Feed The Flesh To All Who Suffered And Died [ep] (2014)


*Artist: Grausig
*Album: Feed The Flesh To All Who Suffered And Died [ep]
*Year: 2014
*Genre: Death Metal
*Country: Indonesia
*Format: mp3@CBR320kbps
*Size: 75MB

Tracklist:
01. Curse of Satan
02. Unholy Invocation
03. Embalmed Crucifixion
04. Upon the Flesh of Nazarene
05. Doomsday
06. Intro: The Killing Storm
07. Curse of Satan
08. Father of the Flesh
09. Delusion of Subsequent Enslavement
10. Awakened from Isolated Vortex Congregation
11. Doomsday 2K13
******************************
Total playing time: 32:33


Preview 2

[more=Technical info]
Input File: 10 Awakened from Isolated Vortex Congregation.mp3
Channels : 2
Sample Rate : 44100
Precision : 16-bit
Duration : 00:03:00.00 = 7938000 samples = 13500 CDDA sectors
File Size : 7.32M
Bit Rate : 325k
Sample Encoding: MPEG audio (layer I, II or III)
Comments :
Title=Awakened from Isolated Vortex Congregation
Artist=Grausig
Album=2014 Feed the Flesh to All Who Suffered and Died
Tracknumber=10/11
Year=2014
Genre=Death/Black Metal

[/more]

Register
(10) chipsgott, infiltrator, Olethros, Reverend, scorpionmk, Taakeferd, varlam4, Wail, wanderer73, wreak,
May 28 2021, 22:13:46 Rotor - Menang (1998)


*Artist: Rotor
*Album: Menang
*Year: 1998
*Genre: Thrash Metal
*Country: Indonesia
*Format: mp3@CBR320kbps
*Size: 100MB

Tracklist:
01. Wabah Emosi
02. Diplomasi Gila
03. Siapa... Apa?
04. Menang
05. Sejatining Manungso
06. Kapal Kapal Tanpa Dermaga
07. Satanisme
08. Potong Kelamin
09. Noda Putih
10. Kompas
11. Bahaya
12. Metalik Klinik
******************************
Total playing time: 43:49



[more=Technical info]
Input File: 02 Menang.mp3
Channels : 2
Sample Rate : 44100
Precision : 16-bit
Duration : 00:03:36.00 = 9525600 samples = 16200 CDDA sectors
File Size : 8.77M
Bit Rate : 325k
Sample Encoding: MPEG audio (layer I, II or III)
Comments :
Title=Menang
Artist=Rotor
Album=1998 Menang
Tracknumber=02/12
Year=1998
Genre=Thrash Metal

[/more]

Register
(15) boby9052, cesar, chipsgott, gwar, HMHamster, infiltrator, metala, METALHUNTER, Olethros, Reverend, sergsazan, Svafrlami, varlam4, Wail, wreak,
May 28 2021, 22:08:43 Rotor - New Blood (1996)


*Artist: Rotor
*Album: New Blood
*Year: 1996
*Genre: Thrash Metal
*Country: Indonesia
*Format: mp3@CBR320kbps
*Size: 75MB

Tracklist:
01. My Name Is Santet 03:57
02. Dead in Sleep 02:37
03. Javanese Liqueur II 04:46
04. Y Nail Blue 04:25
05. Regret 03:36
06. Mind Changes World 04:50
07. Javanese Liqueur I 05:30
08. Nadya 03:43
******************************
Total playing time: 33:24



[more=Technical info]
Input File: 02 Dead In Sleep.mp3
Channels : 2
Sample Rate : 44100
Precision : 16-bit
Duration : 00:02:36.00 = 6879600 samples = 11700 CDDA sectors
File Size : 6.35M
Bit Rate : 326k
Sample Encoding: MPEG audio (layer I, II or III)
Comments :
Title=Dead In Sleep
Artist=Rotor
Album=1996 New Blood
Tracknumber=02/08
Year=1996
Genre=Thrash Metal

[/more]

Register
(16) boby9052, cesar, chipsgott, gwar, HMHamster, infiltrator, metala, METALHUNTER, Olethros, Reverend, sergsazan, stumpheavyrock, Svafrlami, varlam4, Wail, wreak,
May 28 2021, 22:02:53 Rotor - Eleven Keys [ep] (1995)


*Artist: Rotor
*Album: Eleven Keys [ep]
*Year: 1995
*Genre: Thrash Metal
*Country: Indonesia
*Format: mp3@CBR320kbps
*Size: 49MB

Tracklist:
01. Eleven Keys 03:48
02. The Frustated Sheep 04:56
03. No War, Always Peace 04:56
04. A Jail in a Cage 03:49
05. Inside and Outside 03:52
******************************
Total playing time: 21:21



[more=Technical info]
Input File: 02 The Frustrated Sheep.mp3
Channels : 2
Sample Rate : 44100
Precision : 16-bit
Duration : 00:04:56.00 = 13053600 samples = 22200 CDDA sectors
File Size : 11.9M
Bit Rate : 322k
Sample Encoding: MPEG audio (layer I, II or III)
Comments :
Title=The Frustrated Sheep
Artist=Rotor
Album=1995 Eleven Keys
Tracknumber=02/05
Year=1995
Genre=Thrash Metal

[/more]

Register
(15) boby9052, chipsgott, gwar, HMHamster, infiltrator, metala, METALHUNTER, Olethros, Reverend, sergsazan, Svafrlami, varlam4, Wail, wgs73, wreak,
May 28 2021, 21:56:11 Rotor - Behind The 8Th Ball (1992)


*Artist: Rotor
*Album: Behind The 8Th Ball
*Year: 1992
*Genre: Thrash Metal
*Country: Indonesia
*Format: mp3@CBR320kbps
*Size: 88MB

Tracklist:
01. Behind the 8th Ball 03:49
02. Beyond the Eyes of Pain 03:11
03. Curse of Leak 04:52
04. The Last Moment 04:01
05. Spontaneous Live 03:33
06. Nuclear Is the Solution...? 05:28
07. Peluit Phobia 02:30
08. Hate Monger 03:30
09. A Dismal Picture of Mankind 04:29
10. Gatoloco 02:31
******************************
Total playing time: 37:54



[more=Technical info]
Input File: 03 Curse of Leak.mp3
Channels : 2
Sample Rate : 44100
Precision : 16-bit
Duration : 00:04:52.09 = 12881345 samples = 21907 CDDA sectors
File Size : 11.8M
Bit Rate : 324k
Sample Encoding: MPEG audio (layer I, II or III)
Comments :
Title=Curse Of LEAK
Artist=Rotor
Album=1992 Behind the 8th Ball
Tracknumber=03/10
Year=1992
Genre=Thrash Metal

[/more]

Register
(11) boby9052, gwar, metala, METALHUNTER, Olethros, sergsazan, Svafrlami, traitor666, varlam4, Wail, Xtohar,
May 26 2021, 13:15:27 M.S.T. - P.U.C. [ep] (1989)


*Artist: M.S.T.
*Album: P.U.C. [ep]
*Year: 1989
*Genre: Thrash Metal/Crossover
*Country: France
*Format: mp3@CBR320kbps
*Size: 49MB

Tracklist:
01. Thrash Love 03:44
02. P.U.C. 02:45
03. M.S.T. 02:30
04. Histoire d'horreur 03:13
05. Les chevaliers de Dieu 03:08
06. Eat Brain 02:31
07. Sacre torchon 03:06
******************************
Total playing time: 20:57



[more=Technical info]
Input File: 02 P.U.C.mp3
Channels : 2
Sample Rate : 44100
Precision : 16-bit
Duration : 00:02:31.96 = 6701304 samples = 11396.8 CDDA sectors
File Size : 6.24M
Bit Rate : 328k
Sample Encoding: MPEG audio (layer I, II or III)
Comments :
Title=P.U.C.
Artist=M.S.T
Album=1989 P.U.C.
Tracknumber=02/07
Year=1989
Genre=Thrash Metal

[/more]

Register
(12) boby9052, hell_armageddon, HMHamster, Marek, Olethros, stumpheavyrock, Svafrlami, varlam4, Wail, wreak, Xtohar, Z28517,
May 24 2021, 09:09:21 Grim Legion - Vile And Exhumed [ep] (2018)


*Artist: Grim Legion
*Album: Vile And Exhumed [ep]
*Year: 2018
*Genre: Death Metal
*Country: United States
*Format: mp3@CBR320kbps
*Size: 25MB

Tracklist:
01. Necromagesty
02. Dark Ritual
03. Eternal Torment
04. Through godless eyes
******************************
Total playing time: 11:42


Preview 2

[more=Technical info]
Input File: 02 Dark Ritual.mp3
Channels : 2
Sample Rate : 44100
Precision : 16-bit
Duration : 00:03:26.25 = 9095669 samples = 15468.8 CDDA sectors
File Size : 8.37M
Bit Rate : 325k
Sample Encoding: MPEG audio (layer I, II or III)
Comments :
Title=Dark Ritual
Artist=Grim Legion
Album=Vile and Exhumed
Tracknumber=02/04
Year=2018
Genre=Death Metal

[/more]

Register
(13) Boozer, caro, cesar, Marek, METALHUNTER, Olethros, stumpheavyrock, Taakeferd, VALERY, varlam4, vyacheslav, Wail, wreak,
May 6 2021, 10:35:46 Pentagram - Akustik (2017)


*Artist: Pentagram
*Album: Akustik
*Year: 2017
*Genre: Heavy Metal
*Country: Turkey
*Format: mp3@CBR320kbps
*Size: 131MB

Tracklist:
01. Apokalips 05:40
02. Geçmişin Yükü 05:09
03. Uzakta 04:49
04. No One Wins the Fight 04:30
05. Fly Forever 05:18
06. Gündüz Gece 04:34
07. Anatolia 04:36
08. In Esîr Like an Eagle 05:44
09. For the One Unchanging 05:31
10. Give Me Something to Kill the Pain 05:05
11. Sonsuz 05:44
******************************
Total playing time: 56:40



[more=Technical info]
Input File: 02 Gecmisin Yuku.mp3
Channels : 2
Sample Rate : 44100
Precision : 16-bit
Duration : 00:05:08.89 = 13622137 samples = 23166.9 CDDA sectors
File Size : 12.5M
Bit Rate : 324k
Sample Encoding: MPEG audio (layer I, II or III)
Comments :
Title=Gecmisin Yuku
Artist=Pentagram
Album=2017 Akustik
Tracknumber=02/11
Year=2017
Genre=Metal

[/more]

Register
(16) BladeOvDarkness, boby9052, BugEyes, chipsgott, gorven, gwynnbleid, HMHamster, infiltrator, Lukittaz, Olethros, Reverend, Rover, stumpheavyrock, varlam4, Wail, wreak,
May 6 2021, 10:30:53 Pentagram - Live Mmxiv [live] (2014)


*Artist: Pentagram
*Album: Live Mmxiv [live]
*Year: 2014
*Genre: Heavy Metal
*Country: Turkey
*Format: mp3@CBR320kbps
*Size: 120MB

Tracklist:
01. Sand 06:00
02. Nevermore 06:10
03. Geçmişin Yükü 05:05
04. Beyond Insanity 04:18
05. Doğmadan Önce 05:05
06. Wasteland 05:49
07. Dawn Again 04:33
08. Disturbing the Peace 04:07
09. Uzakta 04:46
10. Apokalips 06:47
******************************
Total playing time: 52:40



[more=Technical info]
Input File: 01 Sand.mp3
Channels : 2
Sample Rate : 44100
Precision : 16-bit
Duration : 00:06:01.04 = 15921644 samples = 27077.6 CDDA sectors
File Size : 14.6M
Bit Rate : 323k
Sample Encoding: MPEG audio (layer I, II or III)
Comments :
Title=Sand (Jolly Joker, 21 Eylul 2013 Ankara)
Artist=Pentagram
Album=2014 Live MMXIV
Tracknumber=01/10
Year=2014
Genre=Heavy Metal

[/more]

Register
(6) HMHamster, infiltrator, Reverend, varlam4, Wail, wreak,

174 Pages V   1 2 3 > » 
- Lo-Fi Version Support form
Copyrights and abuse reports form
Time is now: 6th August 2021 - 03:54:07

Футбол рома фнк on line рома.