Welcome Guest ( Log In | Register )

История благодарностей участнику valfok ::: Спасибо сказали: 94 раз(а)
Дата поста: В теме: За сообщение: Спасибо сказали:
Jan 16 2022, 17:10:34 Furis Ignis - Decapitate The Aging World (2022)
Типичный релиз для Iron Bonehead Productions, это их фишка.
(2) ingram, Occultas,
Dec 23 2021, 17:49:37 Cmpt - Krv I Pepeo (2021)
Seme Ponoći - сам понос 15.gif
(1) isvili,
Oct 22 2021, 07:09:53 Organic - Where Graves Abound (2021)
ЦИТАТА(metalboll @ Oct 21 2021, 22:05:37) *
колбасит ,аж в пляс! banana.gif

Плясун ты наш 25.gif
(1) vosmidesijatye,
Aug 20 2021, 21:08:10 Tjärkatedralen - Ett (2021)
Просто Death Metal, дума нет.
(1) isvili,
May 3 2021, 08:27:15 Axedra - Mass Deception (2021)
Эмигранты from Russia smile4.gif
(1) Metalass,
May 1 2021, 06:10:13 Nattverd - Vandring (2021)
Чёт как то не очень, ширпотребом попахивает 13.gif
(1) judaz,
Apr 6 2021, 07:11:53 Phreneticum - Der Stille Zerfall (2021)
ЦИТАТА(Trava @ Apr 5 2021, 21:59:59) *
Трогаю свою писю

У мужиков член, а у баб пися. bye.gif
(3) Glioma, infiltrator, KKK1488,
Sep 16 2019, 12:07:48 Sidus Atrum - Cold Silence (2019)
Loneravn Records - лейбл ветерана АТО (батальон Донбасс)
(1) isvili,
May 3 2018, 13:44:24 Dimmu Borgir - Eonian (2018)
[more=Download (flac) (383MB):]https://yadi.sk/d/Due4VAsC3VF7cp[/more]
(4) infiltrator, isvili, Oldskulthrasher, verner,
Dec 19 2017, 12:58:06 Burshtyn - Безвірник (2017)


*Artist: Burshtyn
*Album: Безвірник
*Year: 2017
*Genre: Black Metal
*Country: Ukraine
*Format: mp3@CBR320kbps
*Size: 121MB

Tracklist:
01. 5000 Вердену 08:52
02. Коловорот 06:48
03. Янтарний сокіл волі 07:39
04. Хрест іспокон 06:30
05. Про Мазепу і Палія (Старовинна козацька дума) 10:41
06. Тризуб мій стяг, тризуб мій горн 12:28
******************************
Total playing time: 52:58



[more=Extended info]Label: Dub Buk Katafrakt (DK003) Digipak[/more]

[more=Technical info]
Input File: 01. 5000 Вердену.mp3
Channels : 2
Sample Rate : 44100
Precision : 16-bit
Duration : 00:08:52.25 = 23472005 samples = 39918.4 CDDA sectors
File Size : 21.3M
Bit Rate : 320k
Sample Encoding: MPEG audio (layer I, II or III)
Comments :
Title=5000 Âåðäåíó
Artist=Burshtyn
Album=Áåçâ³ðíèê
Tracknumber=1
Year=2017
Genre=Black Metal

[/more]

Register
(76) 1968_janeart, aimtoknow, alex-82, andeimon, Antichrist, Aresson, artscald, bes_internal, Black Cat, Boozer, caro, cesar, Doooomed, Eldarmoon, Emhyr var Emreis, Femto, Filosofem91, finntroll3, gav-gafi, General, Goatrex, hatework, Infidel, infiltrator, judaz, Jurmagund, kim666, Kisser, Konst, LEGION69, lordbathor, lucifix, Lukittaz, M8R8K, Marlo_Stanfield, MMMMM, moloko, Moonshtook, nadin85, Nattfodd, neoatheist, neurogrim, Nordavind, nsk2008, Old Vyaine, Orkkh, pfk505, popen13, princeshr, randyhermit, rom666, Rosen, Ruben, RUDACHUR, russ777, satanist666, Scuns, SilentNidhogg, skeletron215, skogtroll, smes, smysl, SSBandera, talismanFS, templ, THROWER666, Thunderbird, toly1917, Tular, VALERY, varlam4, vasiljev_sergej, Xor, yuratroll, Абигор, Дуб-Бук,
Apr 14 2017, 11:49:12 Nightbringer - Terra Damnata (2017)
Lossless FLAC:
Register
(2) artscald, NOMIDIMON,
Sep 4 2010, 09:58:10 Thy Hastur - The Ancients (2010)
Ну вообще, это не новый альбом 2010 года, а альбом 2005 года "Lost Paradise". Только в 2005 это был самоиздат, а сейчас издался на Vitiv Records.
И обложки одинаковые, отличие в оттенке, песни тоже один в один.
(1) waldemardr,

- Lo-Fi Version Support form
Copyrights and abuse reports form
Time is now: 1st July 2022 - 06:06:50