Welcome Guest ( Log In | Register )

История благодарностей участнику gikaki ::: Спасибо сказали: 169 раз(а)
Дата поста: В теме: За сообщение: Спасибо сказали:
Sep 9 2022, 13:57:47 Fallujah - Empyrean (2022)
FLAC -
Register
(2) Korpse, SAPOGi,
Jun 6 2019, 11:27:35 Ed Wynne - Shimmer Into Nature (2019)


*Artist: Ed Wynne
*Album: Shimmer Into Nature
*Year: 2019
*Genre: Instrumental Space Rock
*Country: United Kingdom
*Format: mp3@CBR320kbps
*Size: 99MB

Tracklist:
01. Glass Staircase (8:02)
02. Travel Dust (8:32)
03. Oddplonk (8:06)
04. Shim (7:49)
05. Wherble (10:21)
******************************
Total playing time: 42:50



[more=Extended info]Ed Wynne (Ozric Tentacles, Nodens Ictus) - Electric & Acoustic Guitars, Drum Programming, Synths, Bass & Acoustic Fretless Bass
Tom Brooks - Bubbles
Paul Hankin & Neil Longhurst - Percussion
Natan Mantis - Blip Flippery
Silas Neptune - Nature Sounds[/more]

[more=Technical info]
Input File: 01-Glass_Staircase.mp3
Channels : 2
Sample Rate : 44100
Precision : 16-bit
Duration : 00:00:00.48 = 21212 samples = 36.0748 CDDA sectors
File Size : 19.4M
Bit Rate : 322M
Sample Encoding: MPEG audio (layer I, II or III)
Comments :
Title=Glass Staircase
Artist=Ed Wynne
Album=Shimmer Into Nature
Tracknumber=01
Year=2019-19-20
Genre=Space Rock

[/more]

Register
(3) dimitriusk, oldvarg, Olethros,
Oct 19 2017, 18:05:42 JuJu - Our Mother Was A Plant (2017)


*Artist: JuJu
*Album: Our Mother Was A Plant
*Year: 2017
*Genre: Kraut/Psychedelic Rock/Afrobeat
*Country: Italy
*Format: mp3@VBR254kbps
*Size: 98MB

Tracklist:
01. Death By Beautiful Things (06:33)
02. In A Ghetto (Feat Capra Informis) (07:46)
03. And Play A Game (07:38)
04. James Dean (04:32)
05. I Got Your Soul (05:47)
06. Patrick (03:41)
07. What A Bad Day (09:32)
08. Sunny After Moon (Feat Capra Informis) (04:34)
******************************
Total playing time: 50:03



[more=Extended info]Итальянский мультиинструменталист Джоэле Валенти возвращается со вторым альбомом JuJu, существующего на границах разных жанров, но с психоделическим роком в основе.[/more]

Register
(4) Angry_Chair, marilin, Mist13Signifier, SatanicPanzer,
Jun 27 2017, 18:38:02 Hidden Orchestra - Dawn Chorus (2017)


*Artist: Hidden Orchestra
*Album: Dawn Chorus
*Year: 2017
*Genre: Atmospheric/Cinematic Jazz
*Country: United Kingdom
*Format: mp3@CBR320kbps
*Size: 135MB

Tracklist:
01. First Light (03:39)
02. Western Isles (06:13)
03. Still (06:55)
04. The Lizard (05:51)
05. Long Orchard (04:57)
06. Alyth (06:32)
07. Wingbeats (11:59)
08. Serpentine (01:16)
09. Stone (06:08)
10. East London Street (11:13)
******************************
Total playing time: 1:04:43

[more=Extended info]Hidden Orchestra is the solo studio project of multi-instrumentalist composer/producer Joe Acheson, whose albums and live shows feature a wide variety of guest musicians from all kinds of musical backgrounds.[/more]

[more=Technical info]
Input File: 01 - First Light.mp3
Channels : 2
Sample Rate : 44100
Precision : 16-bit
Duration : 00:03:39.74 = 9690490 samples = 16480.4 CDDA sectors
File Size : 8.89M
Bit Rate : 324k
Sample Encoding: MPEG audio (layer I, II or III)
Comments :
Title=First Light
Artist=Hidden Orchestra
Album=Dawn Chorus
Tracknumber=1/10
Year=2017
Genre=52

[/more]

Register
(5) ent404, igorzz, mad, milosdjor, qpMM,
Aug 31 2016, 16:54:45 Goblin Cock - Necronomidonkeykongimicon (2016)
Goblin Cock - 2009 Come With Me If You Want To Live - https://is.gd/muwLcC
Goblin Cock - 2006 Bagged & Boarded (2006) - https://is.gd/IjIFTR
(1) AndreFrancis,
Aug 19 2013, 21:41:14 Ulver - Messe I.X - VI.X (2013)
Блаженен тот, найти кто смог
в дрожащем сумраке тревожном
знакомый силуэт. Так в ножны
умеет прятаться клинок,
который призван проскользнуть
сквозь ребра к сердцу и тогда
распространяясь, как орда,
всю в жилах кровь заменит ртуть.
Хоть будет сладостен тот гнет,
пусть сумрак будет непрогляден
до ослепляющих глаз пятен.
Блаженен тот, кто не найдет.
(2) infiltrator, Old Vyaine,
Apr 26 2013, 16:03:21 Леонид Федоров - Если Его Нет (2013)


*Artist: Леонид Федоров
*Album: Если Его Нет
*Year: 2013
*Genre: Experimental/Avantgarde/Psychedelic
*Country: Russian Federation
*Format: mp3@CBR320kbps
*Size: 114MB

Tracklist:
01. Домой
02. Нет Никого
03. Утка
04. Ходунки
05. Мойка
06. Конь Унёс Любимого
07. Если Его Нет
08. Поезд
09. Муза
******************************
Total playing time: 39:24

[more=Extended info]Лидер группы «Аукцыон» Леонид Федоров закончил запись нового сольного альбома. Работа над ним продолжалась последние полгода в домашней студии музыканта - его партнером и сопродюсером выступил лидер авант-джазового «Волковтрио» Владимир Волков. Песни на альбоме написаны на стихи художника Артура Молева (они уже сотрудничали ранее - Молев написал текст песни «Бин Ладен» для федоровского альбома «Таял»). На предыдущих своих альбомах Федоров сотрудничал с клавишником «Аукцыона» Дмитрием Озерским, а также писал песни на стихи Александра Введенского, Анри Волохонского и других. Сингл «Ходунки» с альбома «Если его нет» публиковался в интернете. Презентация пластинки прошла 6 апреля в Центральном доме Художника.[/more]

[more=Technical info]
Input File: 01-Домой.mp3
Channels : 2
Sample Rate : 44100
Precision : 16-bit
Duration : 00:03:05.36 = 8174332 samples = 13901.9 CDDA sectors
File Size : 7.42M
Bit Rate : 320k
Sample Encoding: MPEG audio (layer I, II or III)
Comments :
Title=Домой
Artist=Леонид Фёдоров
Album=Если Его Нет
Tracknumber=01/09
Year=2013
Genre=Avantgarde

[/more]

Register
(5) acerbus, Akdkk, AndreFrancis, BATON-duBASSic, Simon Belmont,
Mar 6 2013, 21:09:27 Preterite - Remembrancer [ep] (2013)
Дрожащий голос будоражит душу,
перебирая ее струны вновь и вновь:
Святая ведьма! Мне отраву приготовь...
Её я выпью и не обессужу.
(1) svndvst,
Sep 13 2012, 12:30:40 Dysrhythmia - Test Of Submission (2012)
Неведомо куда их музыка стремится. То ли к
хаосу, строением своим напоминая куст
терновника, который - очевидно - пуст,
но средь колючек может оказаться кролик.
То ли к порядку космоса, что в выраженьи краток.
Здесь взвесь туманная и говора, и пауз
дающая неверную картину. Право, хаос -
суть есть не поддающийся сознанию порядок...
(1) aesteticvice,
Jun 14 2012, 11:04:17 Леонид Федоров - Весна (2012)


*Artist: Леонид Федоров
*Album: Весна
*Year: 2012
*Genre: Experimental/Avantgarde/Psychedelic
*Country: Russian Federation
*Format: mp3@CBR320kbps
*Size: 72MB

Tracklist:
01. Топл 01:16
02. Весна 03:51
03. Тетрадь 03:28
04. Думал 03:52
05. Конь 06:26
06. Трон 03:07
07. Баньщик 02:53
08. Душа 04:06
09. Элегия 06:27
******************************
Total playing time: 35:26

[more=Extended info]Презентация альбома состоялась 18 мая 2012 года в концертном зале Центрального дома художников в Москве


Input File: 02-Весна.mp3
Channels : 2
Sample Rate : 44100
Precision : 16-bit
Duration : 00:03:51.47 = 10208003 samples = 17360.5 CDDA sectors
File Size : 9.32M
Bit Rate : 322k
Sample Encoding: MPEG audio (layer I, II or III)
Comments :
Title=Весна
Artist=Леонид Федоров
Album=Весна
Tracknumber=02
Year=2012
Genre=Experimental/Avantgarde/Psychedelic

[/more]

Register
(9) abob, acerbus, Emhyr var Emreis, Endymion, Ispolin, SatanicPanzer, Simon Belmont, Wolfera, Нигилист,
Jun 9 2012, 21:23:50 Le Trio Joubran - As Fâr (2011)


*Artist: Le Trio Joubran
*Album: As Fâr
*Year: 2011
*Genre: World/Ethnic/Oriental Art-Rock
*Country: Palestine
*Format: mp3@CBR320kbps
*Size: 119MB

Tracklist:
01. Nawwâr (04:39)
02. Zawâj El Yamâm (05:51)
03. Dawwâr El Shams (04:48)
04. Douja (06:25)
05. Sama Cordoba (04:35)
06. Asfâr (15:01)
07. Masâna (08:44)
******************************
Total playing time: 50:03

[more=Extended info]Le Trio Joubran ( Arabic: الثلاثي جبران‎) -это палестинское трио из Назарета,состоящее из братьев: Самира,Виссама и Аднана Жубран. Братья Жубран родились в известной семье артистов,их мать-Ибстизам Анна Журбран исполняла Muwashshahat (произведения Арабской Испании.),в то время,как их отец был известным изготовителем струнных инструментов в Палестине и в Арабском мире в целом.

Самир Жубран,самый старший брат начал успешную музыкальную карьеру в 1996,задолго до образования Le Trio Joubran.Самир выпустил две пластинки :
Taqaseem в 1996,и Sou’fahm в 2001. В процессе написания уже третьего альбома Самир предложил присоединиться младшему брату Виссаму,и они составили дуэт. Затем в 2003 году в свет вышел альбом Tamaas.
После возвращения из турне Самир предложил сформировать из их дуэта трио,и приглаcили третьего,среднего брата Аднана. Таким образом,Le Trio Joubran увидело свет в в августе 2004 года, в Люксембургском Саду в Париже.
©Julph


Input File: 01-Nawwâr.mp3
Channels : 2
Sample Rate : 44100
Precision : 16-bit
Duration : 00:04:39.59 = 12329963 samples = 20969.3 CDDA sectors
File Size : 11.2M
Bit Rate : 321k
Sample Encoding: MPEG audio (layer I, II or III)
Comments :
Title=NawwГўr
Artist=Le Trio Joubran
Album=As FГўr
Tracknumber=01/07
Year=2011
Genre=World/Oriental Art-Rock
Discnumber=1/1

[/more]

Register
(2) kefka, MeatKnife,
May 29 2012, 22:10:26 Vetter - Vetterkult (2012)
Срубая кованым крылом деревья в глубине
норвежской чащи несется ветер сквозь
леса неудержимо. И всяко, что не улеглось
трав ниже - раздавлено или унесено во вне.
(4) CelticSPB, eternald, targonium, waldemardr,
May 10 2012, 10:04:32 Bersarin Quartett - II (2012)


*Artist: Bersarin Quartett
*Album: II
*Year: 2012
*Genre: Ambient/Electronic/Instrumental/Downtempo
*Country: Germany
*Format: mp3@CBR320kbps
*Size: 158MB

Tracklist:
01. Niemals Zurück 05:17
02. Zum Greifen Nah 05:54
03. Im Lichte Des Anderen 06:14
04. Der Mond, Der Schnee Und Du 04:55
05. Perlen, Honig Oder Untergang 04:36
06. Einsame Wandeln Still Im Sternensaal 05:09
07. Im Glanze Des Kometen 06:09
08. Alles Ist Ein Wunder 02:46
09. Rot Und Schwarz 07:10
10. Keine Angst 03:11
11. Hier Und Jetzt 06:21
12. Jedem Zauber Wohnt Ein Ende Inne 05:32
13. Nichts Ist Wie Vorher 06:27
******************************
Total playing time: 1:09:41

[more=Extended info]Томас Бюкер (Thomas Bücker) — немецкий электронный музыкант из Мюнстера, выпустивший в 2008 году первый альбом в жанре эмбиента под псевдонимом Bersarin Quartett. Музыка «Квартета Берза́рина» эмоциональна, меланхолична и кинематографична.[/more]

Register
(4) Endymion, InFestus, MeatKnife, Vertigo,
Jan 31 2012, 09:30:45 Psycroptic - The Inherited Repression (2012)
А на мой взгляд альбом получился лучше довольно вялого Ob(Servant). Чувствуется возвращение к доминанте специфической ритм-гитары, которая, на момент 2006 Symbols Of Failure была определяющей лицо группы. На этот раз все продумано, композиции не разваливаются внутри себя, и, больше того, вполне разумно следуют одна за другой. Нашлись те, кто увидел в этом засилье серости, однообразия материала. Да, пожалуй, нельзя назвать это переливающимся всеми цветами радуги павлиньим хвостом, но и сравнить с монодро_евыми коллективами из того же цеха типа Posthumous Blasphemer или Brain Drill тоже нельзя. Манера гитариста на порядок более узнаваема и интересна... Привкус модернятины появился из-за вокала. Но если бы команда делала инструментальную музыку, возможно добавив космической атмосферы - цены бы ей не было.

Ну и да. На aesteticvice надейся, а сам тоже слушай.)

UPD. Но, как ни крути, по второму разу становится скучно.
(2) Elfrey, infiltrator,
Jan 6 2012, 10:25:54 Nils Petter Molvaer - Solid Ether (2000)


*Artist: Nils Petter Molvaer
*Album: Solid Ether
*Year: 2000
*Genre: Future Jazz
*Country: Norway
*Format: mp3@CBR320kbps
*Size: 116MB

Tracklist:
1. Dead Indeed 07:30
2. Vilderness 1 07:48
3. Kakonita 04:59
4. Merciful 1 01:05
5. Ligotage 06:44
6. Trip 06:24
7. Vilderness 2 04:56
8. Tragamar 04:46
9. Solid Ether 05:13
10. Merciful 2 01:13
******************************
Total playing time: 50:38

Register
(2) dead can dance, Vertigo,
Jan 6 2012, 01:25:33 Nils Petter Molvaer - NP3 (2002)


*Artist: Nils Petter Molvaer
*Album: NP3
*Year: 2002
*Genre: Future Jazz
*Country: Norway
*Format: mp3@CBR320kbps
*Size: 125MB

Tracklist:
01. Tabula Rasa 02:22
02. Axis Of Ignorance 04:45
03. Hurry Slowly 07:33
04. Marrow 07:20
05. Frozen 06:37
06. Presence 05:43
07. Simply So 06:51
08. Little Indian 04:43
09. Nebulizer 08:02
******************************
Total playing time: 53:56

Register
(2) bka, dead can dance,
Jan 3 2012, 23:24:41 Nils Petter Molvar - Er (2005)


*Artist: Nils Petter Molvar
*Album: Er
*Year: 2005
*Genre: Future Jazz
*Country: Norway
*Format: mp3@CBR320kbps
*Size: 106MB

Tracklist:
1. Hover 07:22
2. Softer 05:14
3. Water 06:20
4. Only These Things Count 06:03
5. Sober 03:25
6. Darker 05:20
7. Feeder 04:28
8. Dancer 07:52
******************************
Total playing time: 46:04

Register
(2) Cruor, dead can dance,
Jan 3 2012, 20:59:26 Nils Petter Molvar - Hamada (2009)


*Artist: Nils Petter Molvar
*Album: Hamada
*Year: 2009
*Genre: Future Jazz
*Country: Norway
*Format: mp3@CBR320kbps
*Size: 105MB

Tracklist:
1. Exhumation 01:25
2. Sabkah 05:14
3. Icy Altitude 04:19
4. Friction 05:33
5. Monocline 03:04
6. Soft Moon Shine 06:42
7. Monocline Revisited 03:05
8. Cruel Altitude 08:39
9. Lahar 01:50
10. Anticline 06:03
******************************
Total playing time: 45:54

Register
(2) dead can dance, qpMM,
Dec 27 2011, 15:28:33 Squat Club - Corvus (2011)
Сильно, свежо! Насквозь! До износа!
В дрызги и брызги, в дребезги бьет!
Видимо пьют мексиканский пейот
бравые парни в стране утконоса.
(1) Freeeeez,
Dec 18 2011, 15:41:29 Peter Broderick - Music For Confluence (2011)
Спасибо! Очень правильная, красивая и образная работа. У парня талант!
(1) 1984,
Nov 24 2011, 15:44:19 Nils Petter Molvaer - Baboon Moon (2011)
И вновь достойный рукоплесканий альбом,
ведь в каждой фразе, в звуке любом
слышится чудо. Нильс остается верен себе:
все волшебные палочки есть в волшебной трубе.

Могу подогнать дискографию.)
(2) Freeeeez, Trobadour,
Nov 21 2011, 11:16:56 Fifth Veil - Lanterns (2011)
Прекрасный и весьма незаурядный релиз!
Хоралы очень хороши, а композиционные структуры свежи, как никогда. Вкрапления классических духовых, таких, например, как кларнет и флейты, очень уместны. У ребят редкий талант наполнять прогрессивную музыку атмосферой. Благодарю!
(1) MeatKnife,
Nov 18 2011, 13:20:34 Continuo Renacer - The Great Escape (2011)
Вау! Разродились таки после 2005!
(1) Aresson,
Nov 14 2011, 22:10:38 Greg Maroney - Seven Valleys (2007)
Не удержусь и порекомендую тоже.

School Of Emotional Engineering
2004 School Of Emotional Engineering

Ben Frost
2001 Music For Sad Children\
2003 Steel Wound\
2004 Anyone Can Play... Anyone Can Sing... (with Lawrence English)\
2007 Theory Of Machines\
2009 By The Throat\
2010 The Invisibles\

Clem Leek
2011 Lifenotes\

Woodworkings
2010 We Sit On Floors We Stand On Chairs\

William Basinski
2003 Melancholia\
2005 Variations - A Movement In Chrome Primitive\

Christian Fennesz & Ryuichi Sakamoto
2007 Cendre\

Alva Noto & Ryuichi Sakamato
2002 Vrioon\
2006 Insen Live\

Ну и хватит, пока.)

(1) demon_e,
Nov 7 2011, 17:21:20 Tune - Lucid Moments (2011)
Спасибо! Слышать такой аутентичный инструмент как аккордеон в прогрессивном - а тут даже с элементами хард прогрессива - роке, весьма и весьма интересно. И особенно потому, что еще и сам играю на гармошке)... Автору рискну порекомендовать Motion Trio, тоже польский коллектив.
(1) MeatKnife,

3 Pages V   1 2 3 >
- Lo-Fi Version Support form
Copyrights and abuse reports form
Time is now: 3rd October 2022 - 02:41:10